<?xml version="1.0" standalone="no"?><!DOCTYPE svg PUBLIC "-//W3C//DTD SVG 1.1//EN" "http://www.w3.org/Graphics/SVG/1.1/DTD/svg11.dtd" ><svg version="1.1" xmlns="http://www.w3.org/2000/svg"><defs><font horiz-adv-x="0" id="font"><font-face ascent="770" bbox="-113 -230 1274 954" cap-height="702" descent="-230" font-family="Copyright Klim Type Foundry" font-stretch="normal" font-style="normal" font-weight="400" units-per-em="1000" x-height="530" /><missing-glyph horiz-adv-x="225" /><glyph d="M190 232 146 123Q141 112 138 101.5Q135 91 135 83Q135 60 156 50.5Q177 41 229 39V0H5V39Q25 42 41.5 49Q58 56 66 76L303 645L272 711H383L658 76Q666 56 681 49Q696 42 718 39V0H450V39Q502 41 522.5 50Q543 59 543 82Q543 91 540 101Q537 111 532 122L485 232ZM208 276H467L335 589Z" glyph-name="A" horiz-adv-x="723" unicode="A" /><glyph d="M166 122Q149 98 149 74Q149 51 170 45.5Q191 40 246 39V0H5V39Q25 42 41 50.5Q57 59 70 76L460 627Q453 647 431 654Q409 661 362 663V702H980V535H953Q939 568 926.5 591Q914 614 897.5 628.5Q881 643 859.5 649.5Q838 656 808 656H617V382H787Q820 382 835.5 404.5Q851 427 859 472H893V246H859Q851 291 835.5 313.5Q820 336 787 336H617V114Q617 73 640.5 59.5Q664 46 718 46H818Q851 46 872.5 52Q894 58 911.5 73.5Q929 89 946 115Q963 141 987 180H1015L985 0H419V39Q444 40 463 43Q482 46 495 53.5Q508 61 514.5 75Q521 89 521 112V252H257ZM521 296V630L287 296Z" glyph-name="AE" horiz-adv-x="1055" unicode="&#198;" /><glyph d="M166 122Q149 98 149 74Q149 51 170 45.5Q191 40 246 39V0H5V39Q25 42 41 50.5Q57 59 70 76L460 627Q453 647 431 654Q409 661 362 663V702H980V535H953Q939 568 926.5 591Q914 614 897.5 628.5Q881 643 859.5 649.5Q838 656 808 656H617V382H787Q820 382 835.5 404.5Q851 427 859 472H893V246H859Q851 291 835.5 313.5Q820 336 787 336H617V114Q617 73 640.5 59.5Q664 46 718 46H818Q851 46 872.5 52Q894 58 911.5 73.5Q929 89 946 115Q963 141 987 180H1015L985 0H419V39Q444 40 463 43Q482 46 495 53.5Q508 61 514.5 75Q521 89 521 112V252H257ZM521 296V630L287 296ZM821 910 666 761H627L701 910Z" glyph-name="AEacute" horiz-adv-x="1055" unicode="&#508;" /><glyph d="M190 232 146 123Q141 112 138 101.5Q135 91 135 83Q135 60 156 50.5Q177 41 229 39V0H5V39Q25 42 41.5 49Q58 56 66 76L303 645L272 711H383L658 76Q666 56 681 49Q696 42 718 39V0H450V39Q502 41 522.5 50Q543 59 543 82Q543 91 540 101Q537 111 532 122L485 232ZM208 276H467L335 589ZM506 910 351 761H312L386 910Z" glyph-name="Aacute" horiz-adv-x="723" unicode="&#193;" /><glyph d="M190 232 146 123Q141 112 138 101.5Q135 91 135 83Q135 60 156 50.5Q177 41 229 39V0H5V39Q25 42 41.5 49Q58 56 66 76L303 645L272 711H383L658 76Q666 56 681 49Q696 42 718 39V0H450V39Q502 41 522.5 50Q543 59 543 82Q543 91 540 101Q537 111 532 122L485 232ZM208 276H467L335 589ZM345 758Q276 758 234.5 799Q193 840 193 915H230Q232 890 242.5 872.5Q253 855 269 843.5Q285 832 305 827Q325 822 345 822Q365 822 385 827Q405 832 421 843.5Q437 855 447.5 872.5Q458 890 460 915H497Q497 840 455.5 799Q414 758 345 758Z" glyph-name="Abreve" horiz-adv-x="723" unicode="&#258;" /><glyph d="M190 232 146 123Q141 112 138 101.5Q135 91 135 83Q135 60 156 50.5Q177 41 229 39V0H5V39Q25 42 41.5 49Q58 56 66 76L303 645L272 711H383L658 76Q666 56 681 49Q696 42 718 39V0H450V39Q502 41 522.5 50Q543 59 543 82Q543 91 540 101Q537 111 532 122L485 232ZM208 276H467L335 589ZM529 761H483L345 851L207 761H161L311 920H379Z" glyph-name="Acircumflex" horiz-adv-x="723" unicode="&#194;" /><glyph d="M190 232 146 123Q141 112 138 101.5Q135 91 135 83Q135 60 156 50.5Q177 41 229 39V0H5V39Q25 42 41.5 49Q58 56 66 76L303 645L272 711H383L658 76Q666 56 681 49Q696 42 718 39V0H450V39Q502 41 522.5 50Q543 59 543 82Q543 91 540 101Q537 111 532 122L485 232ZM208 276H467L335 589ZM184 832Q184 857 201.5 874.5Q219 892 245 892Q271 892 288.5 874.5Q306 857 306 832Q306 806 288.5 788Q271 770 245 770Q219 770 201.5 788Q184 806 184 832ZM384 832Q384 857 401.5 874.5Q419 892 445 892Q471 892 488.5 874.5Q506 857 506 832Q506 806 488.5 788Q471 770 445 770Q419 770 401.5 788Q384 806 384 832Z" glyph-name="Adieresis" horiz-adv-x="723" unicode="&#196;" /><glyph d="M190 232 146 123Q141 112 138 101.5Q135 91 135 83Q135 60 156 50.5Q177 41 229 39V0H5V39Q25 42 41.5 49Q58 56 66 76L303 645L272 711H383L658 76Q666 56 681 49Q696 42 718 39V0H450V39Q502 41 522.5 50Q543 59 543 82Q543 91 540 101Q537 111 532 122L485 232ZM208 276H467L335 589ZM300 910 374 761H335L180 910Z" glyph-name="Agrave" horiz-adv-x="723" unicode="&#192;" /><glyph d="M190 232 146 123Q141 112 138 101.5Q135 91 135 83Q135 60 156 50.5Q177 41 229 39V0H5V39Q25 42 41.5 49Q58 56 66 76L303 645L272 711H383L658 76Q666 56 681 49Q696 42 718 39V0H450V39Q502 41 522.5 50Q543 59 543 82Q543 91 540 101Q537 111 532 122L485 232ZM208 276H467L335 589ZM204 845H486V783H204Z" glyph-name="Amacron" horiz-adv-x="723" unicode="&#256;" /><glyph d="M485 232H190L146 123Q141 112 138 101.5Q135 91 135 83Q135 60 156 50.5Q177 41 229 39V0H5V39Q25 42 41.5 49Q58 56 66 76L303 645L272 711H383L658 76Q666 56 681 49Q696 42 718 39V0H477Q439 -19 414 -46.5Q389 -74 389 -112Q389 -131 401.5 -143Q414 -155 438 -155Q462 -155 484 -146Q506 -137 530 -118L542 -135Q531 -148 517.5 -161.5Q504 -175 487.5 -185.5Q471 -196 452 -203Q433 -210 412 -210Q374 -210 348 -188.5Q322 -167 322 -128Q322 -76 357 -41Q392 -6 466 25Q485 33 499 38.5Q513 44 523 50Q533 56 538 63Q543 70 543 82Q543 91 540 101Q537 111 532 122ZM208 276H467L335 589Z" glyph-name="Aogonek" horiz-adv-x="723" unicode="&#260;" /><glyph d="M190 232 146 123Q141 112 138 101.5Q135 91 135 83Q135 60 156 50.5Q177 41 229 39V0H5V39Q25 42 41.5 49Q58 56 66 76L303 645L272 711H383L658 76Q666 56 681 49Q696 42 718 39V0H450V39Q502 41 522.5 50Q543 59 543 82Q543 91 540 101Q537 111 532 122L485 232ZM208 276H467L335 589ZM252 845Q252 884 277.5 910Q303 936 345 936Q387 936 412.5 910Q438 884 438 845Q438 806 412.5 780Q387 754 345 754Q303 754 277.5 780Q252 806 252 845ZM396 845Q396 868 383.5 883.5Q371 899 345 899Q319 899 306.5 883.5Q294 868 294 845Q294 822 306.5 806.5Q319 791 345 791Q371 791 383.5 806.5Q396 822 396 845Z" glyph-name="Aring" horiz-adv-x="723" unicode="&#197;" /><glyph d="M190 232 146 123Q141 112 138 101.5Q135 91 135 83Q135 60 156 50.5Q177 41 229 39V0H5V39Q25 42 41.5 49Q58 56 66 76L303 645L272 711H383L658 76Q666 56 681 49Q696 42 718 39V0H450V39Q502 41 522.5 50Q543 59 543 82Q543 91 540 101Q537 111 532 122L485 232ZM208 276H467L335 589ZM534 880Q517 843 503 819.5Q489 796 475.5 783Q462 770 448 765Q434 760 416 760Q393 760 373.5 771Q354 782 336 795.5Q318 809 301.5 820.5Q285 832 269 832Q246 832 233.5 816.5Q221 801 204 770L167 780Q184 817 198 840.5Q212 864 225.5 877Q239 890 253 895Q267 900 285 900Q307 900 327 888.5Q347 877 365 863.5Q383 850 399.5 839Q416 828 432 828Q455 828 467.5 843.5Q480 859 497 890Z" glyph-name="Atilde" horiz-adv-x="723" unicode="&#195;" /><glyph d="M34 39Q59 40 78 43Q97 46 110 53.5Q123 61 129.5 75Q136 89 136 112V590Q136 613 129.5 627Q123 641 110 648.5Q97 656 78 659Q59 662 34 663V702H339Q456 702 519 658Q582 614 582 526Q582 488 567.5 460Q553 432 528.5 412.5Q504 393 472.5 381Q441 369 407 363Q510 355 564 309Q618 263 618 188Q618 146 600.5 111.5Q583 77 550 52Q517 27 469 13.5Q421 0 360 0H34ZM232 336V112Q232 71 255.5 58Q279 45 333 45H346Q433 45 472.5 80Q512 115 512 188Q512 219 502.5 246Q493 273 471.5 293Q450 313 415.5 324.5Q381 336 332 336ZM232 656V381H310Q396 381 436.5 416Q477 451 477 526Q477 552 467.5 575.5Q458 599 437.5 617Q417 635 385.5 645.5Q354 656 310 656Z" glyph-name="B" horiz-adv-x="662" unicode="B" /><glyph d="M394 41Q469 41 515.5 84.5Q562 128 591 215H628L605 45Q581 33 556.5 22.5Q532 12 504 5Q476 -2 444 -6Q412 -10 372 -10Q298 -10 237 16Q176 42 133 88Q90 134 66.5 197.5Q43 261 43 336Q43 424 70 493.5Q97 563 143.5 611.5Q190 660 253 686Q316 712 388 712Q467 712 518 694Q569 676 604 649V496H568Q548 583 499.5 622Q451 661 382 661Q322 661 278 637.5Q234 614 205.5 573.5Q177 533 163.5 479Q150 425 150 364Q150 296 165.5 237Q181 178 211.5 134.5Q242 91 287.5 66Q333 41 394 41Z" glyph-name="C" horiz-adv-x="673" unicode="C" /><glyph d="M394 41Q469 41 515.5 84.5Q562 128 591 215H628L605 45Q581 33 556.5 22.5Q532 12 504 5Q476 -2 444 -6Q412 -10 372 -10Q298 -10 237 16Q176 42 133 88Q90 134 66.5 197.5Q43 261 43 336Q43 424 70 493.5Q97 563 143.5 611.5Q190 660 253 686Q316 712 388 712Q467 712 518 694Q569 676 604 649V496H568Q548 583 499.5 622Q451 661 382 661Q322 661 278 637.5Q234 614 205.5 573.5Q177 533 163.5 479Q150 425 150 364Q150 296 165.5 237Q181 178 211.5 134.5Q242 91 287.5 66Q333 41 394 41ZM540 910 385 761H346L420 910Z" glyph-name="Cacute" horiz-adv-x="673" unicode="&#262;" /><glyph d="M394 41Q469 41 515.5 84.5Q562 128 591 215H628L605 45Q581 33 556.5 22.5Q532 12 504 5Q476 -2 444 -6Q412 -10 372 -10Q298 -10 237 16Q176 42 133 88Q90 134 66.5 197.5Q43 261 43 336Q43 424 70 493.5Q97 563 143.5 611.5Q190 660 253 686Q316 712 388 712Q467 712 518 694Q569 676 604 649V496H568Q548 583 499.5 622Q451 661 382 661Q322 661 278 637.5Q234 614 205.5 573.5Q177 533 163.5 479Q150 425 150 364Q150 296 165.5 237Q181 178 211.5 134.5Q242 91 287.5 66Q333 41 394 41ZM413 761H345L195 920H241L379 830L517 920H563Z" glyph-name="Ccaron" horiz-adv-x="673" unicode="&#268;" /><glyph d="M286 -188Q340 -188 371.5 -176.5Q403 -165 403 -142Q403 -119 378.5 -109Q354 -99 310 -97L346 -9Q287 -5 237 16Q176 42 133 88Q90 134 66.5 197.5Q43 261 43 336Q43 424 70 493.5Q97 563 143.5 611.5Q190 660 253 686Q316 712 388 712Q467 712 518 694Q569 676 604 649V496H568Q548 583 499.5 622Q451 661 382 661Q322 661 278 637.5Q234 614 205.5 573.5Q177 533 163.5 479Q150 425 150 364Q150 296 165.5 237Q181 178 211.5 134.5Q242 91 287.5 66Q333 41 394 41Q469 41 515.5 84.5Q562 128 591 215H628L605 45Q581 33 556.5 22.5Q532 12 504 5Q476 -2 444 -6Q414 -9 378 -10L363 -48Q414 -49 443 -65Q472 -81 472 -122Q472 -148 458 -166.5Q444 -185 419.5 -197Q395 -209 362 -215Q329 -221 292 -221Z" glyph-name="Ccedilla" horiz-adv-x="673" unicode="&#199;" /><glyph d="M394 41Q469 41 515.5 84.5Q562 128 591 215H628L605 45Q581 33 556.5 22.5Q532 12 504 5Q476 -2 444 -6Q412 -10 372 -10Q298 -10 237 16Q176 42 133 88Q90 134 66.5 197.5Q43 261 43 336Q43 424 70 493.5Q97 563 143.5 611.5Q190 660 253 686Q316 712 388 712Q467 712 518 694Q569 676 604 649V496H568Q548 583 499.5 622Q451 661 382 661Q322 661 278 637.5Q234 614 205.5 573.5Q177 533 163.5 479Q150 425 150 364Q150 296 165.5 237Q181 178 211.5 134.5Q242 91 287.5 66Q333 41 394 41ZM563 761H517L379 851L241 761H195L345 920H413Z" glyph-name="Ccircumflex" horiz-adv-x="673" unicode="&#264;" /><glyph d="M394 41Q469 41 515.5 84.5Q562 128 591 215H628L605 45Q581 33 556.5 22.5Q532 12 504 5Q476 -2 444 -6Q412 -10 372 -10Q298 -10 237 16Q176 42 133 88Q90 134 66.5 197.5Q43 261 43 336Q43 424 70 493.5Q97 563 143.5 611.5Q190 660 253 686Q316 712 388 712Q467 712 518 694Q569 676 604 649V496H568Q548 583 499.5 622Q451 661 382 661Q322 661 278 637.5Q234 614 205.5 573.5Q177 533 163.5 479Q150 425 150 364Q150 296 165.5 237Q181 178 211.5 134.5Q242 91 287.5 66Q333 41 394 41ZM379 767Q352 767 333 786.5Q314 806 314 834Q314 862 333 881.5Q352 901 379 901Q406 901 425 881.5Q444 862 444 834Q444 806 425 786.5Q406 767 379 767Z" glyph-name="Cdotaccent" horiz-adv-x="673" unicode="&#266;" /><glyph d="M232 656V117Q232 73 256.5 59.5Q281 46 334 46H356Q472 46 538.5 123Q605 200 605 349Q605 407 589.5 462.5Q574 518 540.5 561Q507 604 453 630Q399 656 322 656ZM34 702H341Q438 702 508.5 674.5Q579 647 624 601.5Q669 556 690.5 496Q712 436 712 371Q712 281 684 211.5Q656 142 607.5 95Q559 48 494 24Q429 0 356 0H34V39Q59 40 78 43Q97 46 110 53.5Q123 61 129.5 75Q136 89 136 112V590Q136 613 129.5 627Q123 641 110 648.5Q97 656 78 659Q59 662 34 663Z" glyph-name="D" horiz-adv-x="755" unicode="D" /><glyph d="M232 656V117Q232 73 256.5 59.5Q281 46 334 46H356Q472 46 538.5 123Q605 200 605 349Q605 407 589.5 462.5Q574 518 540.5 561Q507 604 453 630Q399 656 322 656ZM34 702H341Q438 702 508.5 674.5Q579 647 624 601.5Q669 556 690.5 496Q712 436 712 371Q712 281 684 211.5Q656 142 607.5 95Q559 48 494 24Q429 0 356 0H34V39Q59 40 78 43Q97 46 110 53.5Q123 61 129.5 75Q136 89 136 112V590Q136 613 129.5 627Q123 641 110 648.5Q97 656 78 659Q59 662 34 663ZM391 761H323L173 920H219L357 830L495 920H541Z" glyph-name="Dcaron" horiz-adv-x="755" unicode="&#270;" /><glyph d="M45 381H147V590Q147 613 140.5 627Q134 641 121 648.5Q108 656 89 659Q70 662 45 663V702H352Q449 702 519.5 674.5Q590 647 635 601.5Q680 556 701.5 496Q723 436 723 371Q723 281 695 211.5Q667 142 618.5 95Q570 48 505 24Q440 0 367 0H45V39Q70 40 89 43Q108 46 121 53.5Q134 61 140.5 75Q147 89 147 112V338H45ZM243 656V381H417V338H243V117Q243 73 267.5 59.5Q292 46 345 46H367Q483 46 549.5 123Q616 200 616 349Q616 407 600.5 462.5Q585 518 551.5 561Q518 604 464 630Q410 656 333 656Z" glyph-name="Dcroat" horiz-adv-x="766" unicode="&#272;" /><glyph d="M474 246Q466 291 450.5 313.5Q435 336 402 336H232V114Q232 73 255.5 59.5Q279 46 333 46H433Q466 46 487.5 52Q509 58 526.5 73.5Q544 89 561 115Q578 141 602 180H630L600 0H34V39Q59 40 78 43Q97 46 110 53.5Q123 61 129.5 75Q136 89 136 112V590Q136 613 129.5 627Q123 641 110 648.5Q97 656 78 659Q59 662 34 663V702H595V535H568Q554 568 541.5 591Q529 614 512.5 628.5Q496 643 474.5 649.5Q453 656 423 656H232V382H402Q435 382 450.5 404.5Q466 427 474 472H508V246Z" glyph-name="E" horiz-adv-x="670" unicode="E" /><glyph d="M474 246Q466 291 450.5 313.5Q435 336 402 336H232V114Q232 73 255.5 59.5Q279 46 333 46H433Q466 46 487.5 52Q509 58 526.5 73.5Q544 89 561 115Q578 141 602 180H630L600 0H34V39Q59 40 78 43Q97 46 110 53.5Q123 61 129.5 75Q136 89 136 112V590Q136 613 129.5 627Q123 641 110 648.5Q97 656 78 659Q59 662 34 663V702H595V535H568Q554 568 541.5 591Q529 614 512.5 628.5Q496 643 474.5 649.5Q453 656 423 656H232V382H402Q435 382 450.5 404.5Q466 427 474 472H508V246ZM507 910 352 761H313L387 910Z" glyph-name="Eacute" horiz-adv-x="670" unicode="&#201;" /><glyph d="M474 246Q466 291 450.5 313.5Q435 336 402 336H232V114Q232 73 255.5 59.5Q279 46 333 46H433Q466 46 487.5 52Q509 58 526.5 73.5Q544 89 561 115Q578 141 602 180H630L600 0H34V39Q59 40 78 43Q97 46 110 53.5Q123 61 129.5 75Q136 89 136 112V590Q136 613 129.5 627Q123 641 110 648.5Q97 656 78 659Q59 662 34 663V702H595V535H568Q554 568 541.5 591Q529 614 512.5 628.5Q496 643 474.5 649.5Q453 656 423 656H232V382H402Q435 382 450.5 404.5Q466 427 474 472H508V246ZM346 758Q277 758 235.5 799Q194 840 194 915H231Q233 890 243.5 872.5Q254 855 270 843.5Q286 832 306 827Q326 822 346 822Q366 822 386 827Q406 832 422 843.5Q438 855 448.5 872.5Q459 890 461 915H498Q498 840 456.5 799Q415 758 346 758Z" glyph-name="Ebreve" horiz-adv-x="670" unicode="&#276;" /><glyph d="M474 246Q466 291 450.5 313.5Q435 336 402 336H232V114Q232 73 255.5 59.5Q279 46 333 46H433Q466 46 487.5 52Q509 58 526.5 73.5Q544 89 561 115Q578 141 602 180H630L600 0H34V39Q59 40 78 43Q97 46 110 53.5Q123 61 129.5 75Q136 89 136 112V590Q136 613 129.5 627Q123 641 110 648.5Q97 656 78 659Q59 662 34 663V702H595V535H568Q554 568 541.5 591Q529 614 512.5 628.5Q496 643 474.5 649.5Q453 656 423 656H232V382H402Q435 382 450.5 404.5Q466 427 474 472H508V246ZM380 761H312L162 920H208L346 830L484 920H530Z" glyph-name="Ecaron" horiz-adv-x="670" unicode="&#282;" /><glyph d="M474 246Q466 291 450.5 313.5Q435 336 402 336H232V114Q232 73 255.5 59.5Q279 46 333 46H433Q466 46 487.5 52Q509 58 526.5 73.5Q544 89 561 115Q578 141 602 180H630L600 0H34V39Q59 40 78 43Q97 46 110 53.5Q123 61 129.5 75Q136 89 136 112V590Q136 613 129.5 627Q123 641 110 648.5Q97 656 78 659Q59 662 34 663V702H595V535H568Q554 568 541.5 591Q529 614 512.5 628.5Q496 643 474.5 649.5Q453 656 423 656H232V382H402Q435 382 450.5 404.5Q466 427 474 472H508V246ZM530 761H484L346 851L208 761H162L312 920H380Z" glyph-name="Ecircumflex" horiz-adv-x="670" unicode="&#202;" /><glyph d="M474 246Q466 291 450.5 313.5Q435 336 402 336H232V114Q232 73 255.5 59.5Q279 46 333 46H433Q466 46 487.5 52Q509 58 526.5 73.5Q544 89 561 115Q578 141 602 180H630L600 0H34V39Q59 40 78 43Q97 46 110 53.5Q123 61 129.5 75Q136 89 136 112V590Q136 613 129.5 627Q123 641 110 648.5Q97 656 78 659Q59 662 34 663V702H595V535H568Q554 568 541.5 591Q529 614 512.5 628.5Q496 643 474.5 649.5Q453 656 423 656H232V382H402Q435 382 450.5 404.5Q466 427 474 472H508V246ZM185 832Q185 857 202.5 874.5Q220 892 246 892Q272 892 289.5 874.5Q307 857 307 832Q307 806 289.5 788Q272 770 246 770Q220 770 202.5 788Q185 806 185 832ZM385 832Q385 857 402.5 874.5Q420 892 446 892Q472 892 489.5 874.5Q507 857 507 832Q507 806 489.5 788Q472 770 446 770Q420 770 402.5 788Q385 806 385 832Z" glyph-name="Edieresis" horiz-adv-x="670" unicode="&#203;" /><glyph d="M474 246Q466 291 450.5 313.5Q435 336 402 336H232V114Q232 73 255.5 59.5Q279 46 333 46H433Q466 46 487.5 52Q509 58 526.5 73.5Q544 89 561 115Q578 141 602 180H630L600 0H34V39Q59 40 78 43Q97 46 110 53.5Q123 61 129.5 75Q136 89 136 112V590Q136 613 129.5 627Q123 641 110 648.5Q97 656 78 659Q59 662 34 663V702H595V535H568Q554 568 541.5 591Q529 614 512.5 628.5Q496 643 474.5 649.5Q453 656 423 656H232V382H402Q435 382 450.5 404.5Q466 427 474 472H508V246ZM346 767Q319 767 300 786.5Q281 806 281 834Q281 862 300 881.5Q319 901 346 901Q373 901 392 881.5Q411 862 411 834Q411 806 392 786.5Q373 767 346 767Z" glyph-name="Edotaccent" horiz-adv-x="670" unicode="&#278;" /><glyph d="M474 246Q466 291 450.5 313.5Q435 336 402 336H232V114Q232 73 255.5 59.5Q279 46 333 46H433Q466 46 487.5 52Q509 58 526.5 73.5Q544 89 561 115Q578 141 602 180H630L600 0H34V39Q59 40 78 43Q97 46 110 53.5Q123 61 129.5 75Q136 89 136 112V590Q136 613 129.5 627Q123 641 110 648.5Q97 656 78 659Q59 662 34 663V702H595V535H568Q554 568 541.5 591Q529 614 512.5 628.5Q496 643 474.5 649.5Q453 656 423 656H232V382H402Q435 382 450.5 404.5Q466 427 474 472H508V246ZM301 910 375 761H336L181 910Z" glyph-name="Egrave" horiz-adv-x="670" unicode="&#200;" /><glyph d="M474 246Q466 291 450.5 313.5Q435 336 402 336H232V114Q232 73 255.5 59.5Q279 46 333 46H433Q466 46 487.5 52Q509 58 526.5 73.5Q544 89 561 115Q578 141 602 180H630L600 0H34V39Q59 40 78 43Q97 46 110 53.5Q123 61 129.5 75Q136 89 136 112V590Q136 613 129.5 627Q123 641 110 648.5Q97 656 78 659Q59 662 34 663V702H595V535H568Q554 568 541.5 591Q529 614 512.5 628.5Q496 643 474.5 649.5Q453 656 423 656H232V382H402Q435 382 450.5 404.5Q466 427 474 472H508V246ZM205 845H487V783H205Z" glyph-name="Emacron" horiz-adv-x="670" unicode="&#274;" /><glyph d="M194 555V112Q194 89 200.5 75Q207 61 220 53.5Q233 46 252 43Q271 40 296 39V0H34V39Q59 40 78 43Q97 46 110 53.5Q123 61 129.5 75Q136 89 136 112V600Q121 618 110 629.5Q99 641 88.5 648.5Q78 656 65 659.5Q52 663 34 663V702H205L621 175V590Q621 613 614.5 627Q608 641 595 648.5Q582 656 563 659Q544 662 519 663V702H781V663Q756 662 737 659Q718 656 705 648.5Q692 641 685.5 627Q679 613 679 590V86Q679 59 678.5 37Q678 15 675.5 -4Q673 -23 668 -40Q663 -57 654 -75Q634 -115 599 -146Q564 -177 521 -208L498 -183L530 -142Q549 -118 561 -96Q573 -74 579.5 -50.5Q586 -27 588 1Q590 29 590 65Z" glyph-name="Eng" horiz-adv-x="806" unicode="&#330;" /><glyph d="M568 0Q545 -10 522 -21.5Q499 -33 481 -46.5Q463 -60 452 -76.5Q441 -93 441 -112Q441 -131 453.5 -143Q466 -155 490 -155Q514 -155 536 -146Q558 -137 582 -118L594 -135Q583 -148 569.5 -161.5Q556 -175 539.5 -185.5Q523 -196 504 -203Q485 -210 464 -210Q426 -210 400 -188.5Q374 -167 374 -128Q374 -100 389.5 -77Q405 -54 430.5 -36Q456 -18 488 -3Q492 -2 496 0H34V39Q59 40 78 43Q97 46 110 53.5Q123 61 129.5 75Q136 89 136 112V590Q136 613 129.5 627Q123 641 110 648.5Q97 656 78 659Q59 662 34 663V702H595V535H568Q554 568 541.5 591Q529 614 512.5 628.5Q496 643 474.5 649.5Q453 656 423 656H232V382H402Q435 382 450.5 404.5Q466 427 474 472H508V246H474Q466 291 450.5 313.5Q435 336 402 336H232V114Q232 73 255.5 59.5Q279 46 333 46H433Q466 46 487.5 52Q509 58 526.5 73.5Q544 89 561 115Q578 141 602 180H630L600 0Z" glyph-name="Eogonek" horiz-adv-x="670" unicode="&#280;" /><glyph d="M45 381H147V590Q147 613 140.5 627Q134 641 121 648.5Q108 656 89 659Q70 662 45 663V702H352Q449 702 519.5 674.5Q590 647 635 601.5Q680 556 701.5 496Q723 436 723 371Q723 281 695 211.5Q667 142 618.5 95Q570 48 505 24Q440 0 367 0H45V39Q70 40 89 43Q108 46 121 53.5Q134 61 140.5 75Q147 89 147 112V338H45ZM243 656V381H417V338H243V117Q243 73 267.5 59.5Q292 46 345 46H367Q483 46 549.5 123Q616 200 616 349Q616 407 600.5 462.5Q585 518 551.5 561Q518 604 464 630Q410 656 333 656Z" glyph-name="Eth" horiz-adv-x="766" unicode="&#208;" /><glyph d="M412 43Q451 43 479.5 54Q508 65 529.5 86.5Q551 108 566.5 140.5Q582 173 595 215H634L616 44Q571 20 520.5 5Q470 -10 409 -10Q334 -10 278 16Q222 42 184.5 89Q147 136 128 200Q118 234 113 271H23V314H109Q109 327 109 341Q109 363 110 384H23V427H115Q120 463 130 495Q152 564 191 612Q230 660 284 686Q338 712 402 712Q470 712 519.5 696Q569 680 605 652V498H568Q549 581 506.5 619.5Q464 658 398 658Q351 658 316.5 634Q282 610 259.5 569.5Q237 529 225 475Q220 452 217 427H487L473 384H214V363Q214 338 215 314H455L441 271H219L224 241Q235 183 258 139Q281 95 319 69Q357 43 412 43Z" glyph-name="Euro" horiz-adv-x="679" unicode="&#8364;" /><glyph d="M34 0V39Q59 40 78 43Q97 46 110 53.5Q123 61 129.5 75Q136 89 136 112V590Q136 613 129.5 627Q123 641 110 648.5Q97 656 78 659Q59 662 34 663V702H577V529H551Q537 562 524 585.5Q511 609 494.5 625Q478 641 457 648.5Q436 656 406 656H232V367H384Q417 367 433 389.5Q449 412 457 457H490V231H457Q449 276 433 298.5Q417 321 384 321H232V112Q232 89 241 75.5Q250 62 266.5 54.5Q283 47 307 43.5Q331 40 361 39V0Z" glyph-name="F" horiz-adv-x="607" unicode="F" /><glyph d="M43 336Q43 424 70.5 493.5Q98 563 145.5 611.5Q193 660 257 686Q321 712 393 712Q472 712 525.5 694Q579 676 614 649V496H578Q558 583 507 622Q456 661 387 661Q327 661 282 637.5Q237 614 208 573.5Q179 533 164.5 479Q150 425 150 364Q150 296 165.5 237Q181 178 211.5 134.5Q242 91 287.5 66Q333 41 394 41Q442 41 473.5 50.5Q505 60 532 85V225Q532 270 507 283Q482 296 434 298V336H715V298Q691 297 674 294Q657 291 646 283Q635 275 630 261Q625 247 625 225V62Q577 28 517.5 9Q458 -10 385 -10Q306 -10 242.5 15.5Q179 41 135 87Q91 133 67 196.5Q43 260 43 336Z" glyph-name="G" horiz-adv-x="735" unicode="G" /><glyph d="M43 336Q43 424 70.5 493.5Q98 563 145.5 611.5Q193 660 257 686Q321 712 393 712Q472 712 525.5 694Q579 676 614 649V496H578Q558 583 507 622Q456 661 387 661Q327 661 282 637.5Q237 614 208 573.5Q179 533 164.5 479Q150 425 150 364Q150 296 165.5 237Q181 178 211.5 134.5Q242 91 287.5 66Q333 41 394 41Q442 41 473.5 50.5Q505 60 532 85V225Q532 270 507 283Q482 296 434 298V336H715V298Q691 297 674 294Q657 291 646 283Q635 275 630 261Q625 247 625 225V62Q577 28 517.5 9Q458 -10 385 -10Q306 -10 242.5 15.5Q179 41 135 87Q91 133 67 196.5Q43 260 43 336ZM389 758Q320 758 278.5 799Q237 840 237 915H274Q276 890 286.5 872.5Q297 855 313 843.5Q329 832 349 827Q369 822 389 822Q409 822 429 827Q449 832 465 843.5Q481 855 491.5 872.5Q502 890 504 915H541Q541 840 499.5 799Q458 758 389 758Z" glyph-name="Gbreve" horiz-adv-x="735" unicode="&#286;" /><glyph d="M43 336Q43 424 70.5 493.5Q98 563 145.5 611.5Q193 660 257 686Q321 712 393 712Q472 712 525.5 694Q579 676 614 649V496H578Q558 583 507 622Q456 661 387 661Q327 661 282 637.5Q237 614 208 573.5Q179 533 164.5 479Q150 425 150 364Q150 296 165.5 237Q181 178 211.5 134.5Q242 91 287.5 66Q333 41 394 41Q442 41 473.5 50.5Q505 60 532 85V225Q532 270 507 283Q482 296 434 298V336H715V298Q691 297 674 294Q657 291 646 283Q635 275 630 261Q625 247 625 225V62Q577 28 517.5 9Q458 -10 385 -10Q306 -10 242.5 15.5Q179 41 135 87Q91 133 67 196.5Q43 260 43 336ZM573 761H527L389 851L251 761H205L355 920H423Z" glyph-name="Gcircumflex" horiz-adv-x="735" unicode="&#284;" /><glyph d="M43 336Q43 424 70.5 493.5Q98 563 145.5 611.5Q193 660 257 686Q321 712 393 712Q472 712 525.5 694Q579 676 614 649V496H578Q558 583 507 622Q456 661 387 661Q327 661 282 637.5Q237 614 208 573.5Q179 533 164.5 479Q150 425 150 364Q150 296 165.5 237Q181 178 211.5 134.5Q242 91 287.5 66Q333 41 394 41Q442 41 473.5 50.5Q505 60 532 85V225Q532 270 507 283Q482 296 434 298V336H715V298Q691 297 674 294Q657 291 646 283Q635 275 630 261Q625 247 625 225V62Q577 28 517.5 9Q458 -10 385 -10Q306 -10 242.5 15.5Q179 41 135 87Q91 133 67 196.5Q43 260 43 336ZM362 -153Q339 -148 329.5 -135Q320 -122 320 -105Q320 -81 337.5 -66.5Q355 -52 383 -52Q419 -52 438.5 -74Q458 -96 458 -128Q458 -172 430 -201Q402 -230 332 -230V-197Q410 -197 410 -153Z" glyph-name="Gcommaaccent" horiz-adv-x="735" unicode="&#290;" /><glyph d="M43 336Q43 424 70.5 493.5Q98 563 145.5 611.5Q193 660 257 686Q321 712 393 712Q472 712 525.5 694Q579 676 614 649V496H578Q558 583 507 622Q456 661 387 661Q327 661 282 637.5Q237 614 208 573.5Q179 533 164.5 479Q150 425 150 364Q150 296 165.5 237Q181 178 211.5 134.5Q242 91 287.5 66Q333 41 394 41Q442 41 473.5 50.5Q505 60 532 85V225Q532 270 507 283Q482 296 434 298V336H715V298Q691 297 674 294Q657 291 646 283Q635 275 630 261Q625 247 625 225V62Q577 28 517.5 9Q458 -10 385 -10Q306 -10 242.5 15.5Q179 41 135 87Q91 133 67 196.5Q43 260 43 336ZM389 767Q362 767 343 786.5Q324 806 324 834Q324 862 343 881.5Q362 901 389 901Q416 901 435 881.5Q454 862 454 834Q454 806 435 786.5Q416 767 389 767Z" glyph-name="Gdotaccent" horiz-adv-x="735" unicode="&#288;" /><glyph d="M603 336H232V112Q232 89 239 75Q246 61 259 53.5Q272 46 291 43Q310 40 334 39V0H34V39Q59 40 78 43Q97 46 110 53.5Q123 61 129.5 75Q136 89 136 112V590Q136 613 129.5 627Q123 641 110 648.5Q97 656 78 659Q59 662 34 663V702H334V663Q310 662 291 659Q272 656 259 648.5Q246 641 239 627Q232 613 232 590V382H603V590Q603 613 596 627Q589 641 576 648.5Q563 656 544 659Q525 662 501 663V702H801V663Q776 662 757 659Q738 656 725 648.5Q712 641 705.5 627Q699 613 699 590V112Q699 89 705.5 75Q712 61 725 53.5Q738 46 757 43Q776 40 801 39V0H501V39Q525 40 544 43Q563 46 576 53.5Q589 61 596 75Q603 89 603 112Z" glyph-name="H" horiz-adv-x="835" unicode="H" /><glyph d="M45 531H147V590Q147 613 140.5 627Q134 641 121 648.5Q108 656 89 659Q70 662 45 663V702H345V663Q321 662 302 659Q283 656 270 648.5Q257 641 250 627Q243 613 243 590V531H614V590Q614 613 607 627Q600 641 587 648.5Q574 656 555 659Q536 662 512 663V702H812V663Q787 662 768 659Q749 656 736 648.5Q723 641 716.5 627Q710 613 710 590V531H812V488H710V112Q710 89 716.5 75Q723 61 736 53.5Q749 46 768 43Q787 40 812 39V0H512V39Q536 40 555 43Q574 46 587 53.5Q600 61 607 75Q614 89 614 112V326H243V112Q243 89 250 75Q257 61 270 53.5Q283 46 302 43Q321 40 345 39V0H45V39Q70 40 89 43Q108 46 121 53.5Q134 61 140.5 75Q147 89 147 112V488H45ZM614 372V488H243V372Z" glyph-name="Hbar" horiz-adv-x="857" unicode="&#294;" /><glyph d="M603 336H232V112Q232 89 239 75Q246 61 259 53.5Q272 46 291 43Q310 40 334 39V0H34V39Q59 40 78 43Q97 46 110 53.5Q123 61 129.5 75Q136 89 136 112V590Q136 613 129.5 627Q123 641 110 648.5Q97 656 78 659Q59 662 34 663V702H334V663Q310 662 291 659Q272 656 259 648.5Q246 641 239 627Q232 613 232 590V382H603V590Q603 613 596 627Q589 641 576 648.5Q563 656 544 659Q525 662 501 663V702H801V663Q776 662 757 659Q738 656 725 648.5Q712 641 705.5 627Q699 613 699 590V112Q699 89 705.5 75Q712 61 725 53.5Q738 46 757 43Q776 40 801 39V0H501V39Q525 40 544 43Q563 46 576 53.5Q589 61 596 75Q603 89 603 112ZM601 761H555L417 851L279 761H233L383 920H451Z" glyph-name="Hcircumflex" horiz-adv-x="835" unicode="&#292;" /><glyph d="M34 0V39Q59 40 78 43Q97 46 110 53.5Q123 61 129.5 75Q136 89 136 112V590Q136 613 129.5 627Q123 641 110 648.5Q97 656 78 659Q59 662 34 663V702H334V663Q309 662 290 659Q271 656 258 648.5Q245 641 238.5 627Q232 613 232 590V112Q232 89 238.5 75Q245 61 258 53.5Q271 46 290 43Q309 40 334 39V0Z" glyph-name="I" horiz-adv-x="368" unicode="I" /><glyph d="M34 0V39Q59 40 78 43Q97 46 110 53.5Q123 61 129.5 75Q136 89 136 112V590Q136 613 129.5 627Q123 641 110 648.5Q97 656 78 659Q59 662 34 663V702H334V663Q309 662 290 659Q271 656 258 648.5Q245 641 238.5 627Q232 613 232 590V112Q232 89 238.5 75Q245 61 258 53.5Q271 46 290 43Q309 40 334 39V0ZM345 910 190 761H151L225 910Z" glyph-name="Iacute" horiz-adv-x="368" unicode="&#205;" /><glyph d="M34 0V39Q59 40 78 43Q97 46 110 53.5Q123 61 129.5 75Q136 89 136 112V590Q136 613 129.5 627Q123 641 110 648.5Q97 656 78 659Q59 662 34 663V702H334V663Q309 662 290 659Q271 656 258 648.5Q245 641 238.5 627Q232 613 232 590V112Q232 89 238.5 75Q245 61 258 53.5Q271 46 290 43Q309 40 334 39V0ZM184 758Q115 758 73.5 799Q32 840 32 915H69Q71 890 81.5 872.5Q92 855 108 843.5Q124 832 144 827Q164 822 184 822Q204 822 224 827Q244 832 260 843.5Q276 855 286.5 872.5Q297 890 299 915H336Q336 840 294.5 799Q253 758 184 758Z" glyph-name="Ibreve" horiz-adv-x="368" unicode="&#300;" /><glyph d="M34 0V39Q59 40 78 43Q97 46 110 53.5Q123 61 129.5 75Q136 89 136 112V590Q136 613 129.5 627Q123 641 110 648.5Q97 656 78 659Q59 662 34 663V702H334V663Q309 662 290 659Q271 656 258 648.5Q245 641 238.5 627Q232 613 232 590V112Q232 89 238.5 75Q245 61 258 53.5Q271 46 290 43Q309 40 334 39V0ZM368 761H322L184 851L46 761H0L150 920H218Z" glyph-name="Icircumflex" horiz-adv-x="368" unicode="&#206;" /><glyph d="M34 0V39Q59 40 78 43Q97 46 110 53.5Q123 61 129.5 75Q136 89 136 112V590Q136 613 129.5 627Q123 641 110 648.5Q97 656 78 659Q59 662 34 663V702H334V663Q309 662 290 659Q271 656 258 648.5Q245 641 238.5 627Q232 613 232 590V112Q232 89 238.5 75Q245 61 258 53.5Q271 46 290 43Q309 40 334 39V0ZM23 832Q23 857 40.5 874.5Q58 892 84 892Q110 892 127.5 874.5Q145 857 145 832Q145 806 127.5 788Q110 770 84 770Q58 770 40.5 788Q23 806 23 832ZM223 832Q223 857 240.5 874.5Q258 892 284 892Q310 892 327.5 874.5Q345 857 345 832Q345 806 327.5 788Q310 770 284 770Q258 770 240.5 788Q223 806 223 832Z" glyph-name="Idieresis" horiz-adv-x="368" unicode="&#207;" /><glyph d="M34 0V39Q59 40 78 43Q97 46 110 53.5Q123 61 129.5 75Q136 89 136 112V590Q136 613 129.5 627Q123 641 110 648.5Q97 656 78 659Q59 662 34 663V702H334V663Q309 662 290 659Q271 656 258 648.5Q245 641 238.5 627Q232 613 232 590V112Q232 89 238.5 75Q245 61 258 53.5Q271 46 290 43Q309 40 334 39V0ZM184 767Q157 767 138 786.5Q119 806 119 834Q119 862 138 881.5Q157 901 184 901Q211 901 230 881.5Q249 862 249 834Q249 806 230 786.5Q211 767 184 767Z" glyph-name="Idotaccent" horiz-adv-x="368" unicode="&#304;" /><glyph d="M34 0V39Q59 40 78 43Q97 46 110 53.5Q123 61 129.5 75Q136 89 136 112V590Q136 613 129.5 627Q123 641 110 648.5Q97 656 78 659Q59 662 34 663V702H334V663Q309 662 290 659Q271 656 258 648.5Q245 641 238.5 627Q232 613 232 590V112Q232 89 238.5 75Q245 61 258 53.5Q271 46 290 43Q309 40 334 39V0ZM139 910 213 761H174L19 910Z" glyph-name="Igrave" horiz-adv-x="368" unicode="&#204;" /><glyph d="M34 0V39Q59 40 78 43Q97 46 110 53.5Q123 61 129.5 75Q136 89 136 112V590Q136 613 129.5 627Q123 641 110 648.5Q97 656 78 659Q59 662 34 663V702H334V663Q309 662 290 659Q271 656 258 648.5Q245 641 238.5 627Q232 613 232 590V112Q232 89 238.5 75Q245 61 258 53.5Q271 46 290 43Q309 40 334 39V0ZM43 845H325V783H43Z" glyph-name="Imacron" horiz-adv-x="368" unicode="&#298;" /><glyph d="M268 0Q245 -10 222 -21.5Q199 -33 181 -46.5Q163 -60 152 -76.5Q141 -93 141 -112Q141 -131 153.5 -143Q166 -155 190 -155Q214 -155 236 -146Q258 -137 282 -118L294 -135Q283 -148 269.5 -161.5Q256 -175 239.5 -185.5Q223 -196 204 -203Q185 -210 164 -210Q126 -210 100 -188.5Q74 -167 74 -128Q74 -100 89.5 -77Q105 -54 130.5 -36Q156 -18 188 -3Q192 -2 196 0H34V39Q59 40 78 43Q97 46 110 53.5Q123 61 129.5 75Q136 89 136 112V590Q136 613 129.5 627Q123 641 110 648.5Q97 656 78 659Q59 662 34 663V702H334V663Q309 662 290 659Q271 656 258 648.5Q245 641 238.5 627Q232 613 232 590V112Q232 89 238.5 75Q245 61 258 53.5Q271 46 290 43Q309 40 334 39V0Z" glyph-name="Iogonek" horiz-adv-x="368" unicode="&#302;" /><glyph d="M34 0V39Q59 40 78 43Q97 46 110 53.5Q123 61 129.5 75Q136 89 136 112V590Q136 613 129.5 627Q123 641 110 648.5Q97 656 78 659Q59 662 34 663V702H334V663Q309 662 290 659Q271 656 258 648.5Q245 641 238.5 627Q232 613 232 590V112Q232 89 238.5 75Q245 61 258 53.5Q271 46 290 43Q309 40 334 39V0ZM368 880Q351 843 337 819.5Q323 796 309.5 783Q296 770 282 765Q268 760 250 760Q227 760 207.5 771Q188 782 170 795.5Q152 809 135.5 820.5Q119 832 103 832Q80 832 67.5 816.5Q55 801 38 770L1 780Q18 817 32 840.5Q46 864 59.5 877Q73 890 87 895Q101 900 119 900Q141 900 161 888.5Q181 877 199 863.5Q217 850 233.5 839Q250 828 266 828Q289 828 301.5 843.5Q314 859 331 890Z" glyph-name="Itilde" horiz-adv-x="368" unicode="&#296;" /><glyph d="M405 200Q405 93 351 42Q297 -9 200 -9Q113 -9 61.5 24.5Q10 58 10 115Q10 135 18 152Q26 169 37 179H108V134Q108 83 135.5 58.5Q163 34 206 34Q251 34 279.5 67.5Q308 101 308 184V590Q308 613 301.5 627Q295 641 282 648.5Q269 656 250.5 659Q232 662 207 663V702H507V663Q482 662 463 659Q444 656 431 648.5Q418 641 411.5 627Q405 613 405 590Z" glyph-name="J" horiz-adv-x="520" unicode="J" /><glyph d="M405 200Q405 93 351 42Q297 -9 200 -9Q113 -9 61.5 24.5Q10 58 10 115Q10 135 18 152Q26 169 37 179H108V134Q108 83 135.5 58.5Q163 34 206 34Q251 34 279.5 67.5Q308 101 308 184V590Q308 613 301.5 627Q295 641 282 648.5Q269 656 250.5 659Q232 662 207 663V702H507V663Q482 662 463 659Q444 656 431 648.5Q418 641 411.5 627Q405 613 405 590ZM533 761H487L349 851L211 761H165L315 920H383Z" glyph-name="Jcircumflex" horiz-adv-x="520" unicode="&#308;" /><glyph d="M581 118Q602 94 618.5 79.5Q635 65 650 56.5Q665 48 679 44Q693 40 710 39V0H575Q550 14 527.5 34.5Q505 55 476 87L243 357L494 598Q502 606 509 615Q516 624 516 635Q516 642 513 646.5Q510 651 501.5 654Q493 657 477.5 659Q462 661 436 663V702H691V663Q656 661 631 648.5Q606 636 581 612L343 384ZM136 590Q136 613 129.5 627Q123 641 110 648.5Q97 656 78 659Q59 662 34 663V702H334V663Q310 662 291 659Q272 656 259 648.5Q246 641 239.5 627Q233 613 233 590V112Q233 89 239.5 75Q246 61 259 53.5Q272 46 291 43Q310 40 334 39V0H34V39Q59 40 78 43Q97 46 110 53.5Q123 61 129.5 75Q136 89 136 112Z" glyph-name="K" horiz-adv-x="714" unicode="K" /><glyph d="M581 118Q602 94 618.5 79.5Q635 65 650 56.5Q665 48 679 44Q693 40 710 39V0H575Q550 14 527.5 34.5Q505 55 476 87L243 357L494 598Q502 606 509 615Q516 624 516 635Q516 642 513 646.5Q510 651 501.5 654Q493 657 477.5 659Q462 661 436 663V702H691V663Q656 661 631 648.5Q606 636 581 612L343 384ZM136 590Q136 613 129.5 627Q123 641 110 648.5Q97 656 78 659Q59 662 34 663V702H334V663Q310 662 291 659Q272 656 259 648.5Q246 641 239.5 627Q233 613 233 590V112Q233 89 239.5 75Q246 61 259 53.5Q272 46 291 43Q310 40 334 39V0H34V39Q59 40 78 43Q97 46 110 53.5Q123 61 129.5 75Q136 89 136 112ZM345 -153Q322 -148 312.5 -135Q303 -122 303 -105Q303 -81 320.5 -66.5Q338 -52 366 -52Q402 -52 421.5 -74Q441 -96 441 -128Q441 -172 413 -201Q385 -230 315 -230V-197Q393 -197 393 -153Z" glyph-name="Kcommaaccent" horiz-adv-x="714" unicode="&#310;" /><glyph d="M233 114Q233 73 256.5 59.5Q280 46 334 46H392Q425 46 447 54.5Q469 63 487 81.5Q505 100 521 128Q537 156 558 195H590L558 0H34V39Q59 40 78 43Q97 46 110 53.5Q123 61 129.5 75Q136 89 136 112V590Q136 613 129.5 627Q123 641 110 648.5Q97 656 78 659Q59 662 34 663V702H334V663Q310 662 291 659Q272 656 259 648.5Q246 641 239.5 627Q233 613 233 590Z" glyph-name="L" horiz-adv-x="614" unicode="L" /><glyph d="M233 114Q233 73 256.5 59.5Q280 46 334 46H392Q425 46 447 54.5Q469 63 487 81.5Q505 100 521 128Q537 156 558 195H590L558 0H34V39Q59 40 78 43Q97 46 110 53.5Q123 61 129.5 75Q136 89 136 112V590Q136 613 129.5 627Q123 641 110 648.5Q97 656 78 659Q59 662 34 663V702H334V663Q310 662 291 659Q272 656 259 648.5Q246 641 239.5 627Q233 613 233 590ZM363 910 208 761H169L243 910Z" glyph-name="Lacute" horiz-adv-x="614" unicode="&#313;" /><glyph d="M233 114Q233 73 256.5 59.5Q280 46 334 46H392Q425 46 447 54.5Q469 63 487 81.5Q505 100 521 128Q537 156 558 195H590L558 0H34V39Q59 40 78 43Q97 46 110 53.5Q123 61 129.5 75Q136 89 136 112V590Q136 613 129.5 627Q123 641 110 648.5Q97 656 78 659Q59 662 34 663V702H334V663Q310 662 291 659Q272 656 259 648.5Q246 641 239.5 627Q233 613 233 590ZM451 498H416L436 703H533Z" glyph-name="Lcaron" horiz-adv-x="614" unicode="&#317;" /><glyph d="M233 114Q233 73 256.5 59.5Q280 46 334 46H392Q425 46 447 54.5Q469 63 487 81.5Q505 100 521 128Q537 156 558 195H590L558 0H34V39Q59 40 78 43Q97 46 110 53.5Q123 61 129.5 75Q136 89 136 112V590Q136 613 129.5 627Q123 641 110 648.5Q97 656 78 659Q59 662 34 663V702H334V663Q310 662 291 659Q272 656 259 648.5Q246 641 239.5 627Q233 613 233 590ZM305 -153Q282 -148 272.5 -135Q263 -122 263 -105Q263 -81 280.5 -66.5Q298 -52 326 -52Q362 -52 381.5 -74Q401 -96 401 -128Q401 -172 373 -201Q345 -230 275 -230V-197Q353 -197 353 -153Z" glyph-name="Lcommaaccent" horiz-adv-x="614" unicode="&#315;" /><glyph d="M233 114Q233 73 256.5 59.5Q280 46 334 46H392Q425 46 447 54.5Q469 63 487 81.5Q505 100 521 128Q537 156 558 195H590L558 0H34V39Q59 40 78 43Q97 46 110 53.5Q123 61 129.5 75Q136 89 136 112V590Q136 613 129.5 627Q123 641 110 648.5Q97 656 78 659Q59 662 34 663V702H334V663Q310 662 291 659Q272 656 259 648.5Q246 641 239.5 627Q233 613 233 590ZM513 319Q486 319 467 338.5Q448 358 448 386Q448 414 467 433.5Q486 453 513 453Q540 453 559 433.5Q578 414 578 386Q578 358 559 338.5Q540 319 513 319Z" glyph-name="Ldot" horiz-adv-x="614" unicode="&#319;" /><glyph d="M244 114Q244 73 267.5 59.5Q291 46 345 46H403Q436 46 458 54.5Q480 63 498 81.5Q516 100 532 128Q548 156 569 195H601L569 0H45V39Q70 40 89 43Q108 46 121 53.5Q134 61 140.5 75Q147 89 147 112V314L45 279V324L147 358V590Q147 613 140.5 627Q134 641 121 648.5Q108 656 89 659Q70 662 45 663V702H345V663Q321 662 302 659Q283 656 270 648.5Q257 641 250.5 627Q244 613 244 590V389L408 446V401L244 344Z" glyph-name="Lslash" horiz-adv-x="625" unicode="&#321;" /><glyph d="M680 553 469 0H435L211 556L158 127Q157 122 156.5 113.5Q156 105 156 103Q156 66 177 53.5Q198 41 251 39V0H15V39Q58 40 76 52Q94 64 99 99L162 590Q162 630 144.5 645.5Q127 661 77 663V702H260Q262 685 265 673.5Q268 662 275 646L473 144L661 646Q667 662 671 673.5Q675 685 677 702H854V663Q829 662 813 658Q797 654 787.5 645.5Q778 637 774 623.5Q770 610 770 590L833 99Q838 64 856 52.5Q874 41 916 39V0H641V39Q694 41 715 53.5Q736 66 736 103Q736 105 735.5 113.5Q735 122 734 127Z" glyph-name="M" horiz-adv-x="931" unicode="M" /><glyph d="M136 600Q121 618 110 629.5Q99 641 88.5 648.5Q78 656 65 659.5Q52 663 34 663V702H205L621 175V590Q621 613 614.5 627Q608 641 595 648.5Q582 656 563 659Q544 662 519 663V702H781V663Q756 662 737 659Q718 656 705 648.5Q692 641 685.5 627Q679 613 679 590V0H638L194 555V112Q194 89 200.5 75Q207 61 220 53.5Q233 46 252 43Q271 40 296 39V0H34V39Q59 40 78 43Q97 46 110 53.5Q123 61 129.5 75Q136 89 136 112Z" glyph-name="N" horiz-adv-x="806" unicode="N" /><glyph glyph-name="NULL" horiz-adv-x="0" /><glyph d="M136 600Q121 618 110 629.5Q99 641 88.5 648.5Q78 656 65 659.5Q52 663 34 663V702H205L621 175V590Q621 613 614.5 627Q608 641 595 648.5Q582 656 563 659Q544 662 519 663V702H781V663Q756 662 737 659Q718 656 705 648.5Q692 641 685.5 627Q679 613 679 590V0H638L194 555V112Q194 89 200.5 75Q207 61 220 53.5Q233 46 252 43Q271 40 296 39V0H34V39Q59 40 78 43Q97 46 110 53.5Q123 61 129.5 75Q136 89 136 112ZM568 910 413 761H374L448 910Z" glyph-name="Nacute" horiz-adv-x="806" unicode="&#323;" /><glyph d="M136 600Q121 618 110 629.5Q99 641 88.5 648.5Q78 656 65 659.5Q52 663 34 663V702H205L621 175V590Q621 613 614.5 627Q608 641 595 648.5Q582 656 563 659Q544 662 519 663V702H781V663Q756 662 737 659Q718 656 705 648.5Q692 641 685.5 627Q679 613 679 590V0H638L194 555V112Q194 89 200.5 75Q207 61 220 53.5Q233 46 252 43Q271 40 296 39V0H34V39Q59 40 78 43Q97 46 110 53.5Q123 61 129.5 75Q136 89 136 112ZM441 761H373L223 920H269L407 830L545 920H591Z" glyph-name="Ncaron" horiz-adv-x="806" unicode="&#327;" /><glyph d="M136 600Q121 618 110 629.5Q99 641 88.5 648.5Q78 656 65 659.5Q52 663 34 663V702H205L621 175V590Q621 613 614.5 627Q608 641 595 648.5Q582 656 563 659Q544 662 519 663V702H781V663Q756 662 737 659Q718 656 705 648.5Q692 641 685.5 627Q679 613 679 590V0H638L194 555V112Q194 89 200.5 75Q207 61 220 53.5Q233 46 252 43Q271 40 296 39V0H34V39Q59 40 78 43Q97 46 110 53.5Q123 61 129.5 75Q136 89 136 112ZM380 -153Q357 -148 347.5 -135Q338 -122 338 -105Q338 -81 355.5 -66.5Q373 -52 401 -52Q437 -52 456.5 -74Q476 -96 476 -128Q476 -172 448 -201Q420 -230 350 -230V-197Q428 -197 428 -153Z" glyph-name="Ncommaaccent" horiz-adv-x="806" unicode="&#325;" /><glyph d="M136 600Q121 618 110 629.5Q99 641 88.5 648.5Q78 656 65 659.5Q52 663 34 663V702H205L621 175V590Q621 613 614.5 627Q608 641 595 648.5Q582 656 563 659Q544 662 519 663V702H781V663Q756 662 737 659Q718 656 705 648.5Q692 641 685.5 627Q679 613 679 590V0H638L194 555V112Q194 89 200.5 75Q207 61 220 53.5Q233 46 252 43Q271 40 296 39V0H34V39Q59 40 78 43Q97 46 110 53.5Q123 61 129.5 75Q136 89 136 112ZM586 880Q569 843 555 819.5Q541 796 527.5 783Q514 770 500 765Q486 760 468 760Q445 760 425.5 771Q406 782 388 795.5Q370 809 353.5 820.5Q337 832 321 832Q298 832 285.5 816.5Q273 801 256 770L219 780Q236 817 250 840.5Q264 864 277.5 877Q291 890 305 895Q319 900 337 900Q359 900 379 888.5Q399 877 417 863.5Q435 850 451.5 839Q468 828 484 828Q507 828 519.5 843.5Q532 859 549 890Z" glyph-name="Ntilde" horiz-adv-x="806" unicode="&#209;" /><glyph d="M385 45Q438 45 478 68.5Q518 92 544.5 132.5Q571 173 584.5 228.5Q598 284 598 348Q598 405 584.5 460.5Q571 516 542.5 559.5Q514 603 469.5 630Q425 657 363 657Q310 657 270 633.5Q230 610 203.5 569.5Q177 529 163.5 473.5Q150 418 150 354Q150 297 163.5 241.5Q177 186 205.5 142.5Q234 99 278.5 72Q323 45 385 45ZM377 712Q455 712 516 684Q577 656 619 608.5Q661 561 683 498Q705 435 705 365Q705 279 678.5 209.5Q652 140 606.5 91.5Q561 43 500 16.5Q439 -10 371 -10Q293 -10 232 18Q171 46 129 93.5Q87 141 65 204Q43 267 43 337Q43 423 69.5 492.5Q96 562 141.5 610.5Q187 659 248 685.5Q309 712 377 712Z" glyph-name="O" horiz-adv-x="748" unicode="O" /><glyph d="M414 0Q316 0 246 27Q176 54 131 100Q86 146 64.5 206Q43 266 43 331Q43 421 71 490.5Q99 560 147.5 607Q196 654 260.5 678Q325 702 399 702H935V535H908Q894 568 881.5 591Q869 614 852.5 628.5Q836 643 814.5 649.5Q793 656 763 656H572V382H742Q775 382 790.5 404.5Q806 427 814 472H848V246H814Q806 291 790.5 313.5Q775 336 742 336H572V114Q572 73 595.5 59.5Q619 46 673 46H773Q806 46 827.5 52Q849 58 866.5 73.5Q884 89 901 115Q918 141 942 180H970L940 0ZM476 656H399Q283 656 216.5 579Q150 502 150 353Q150 294 165 239Q180 184 214 141Q248 98 302 72Q356 46 433 46H476Z" glyph-name="OE" horiz-adv-x="1010" unicode="&#338;" /><glyph d="M385 45Q438 45 478 68.5Q518 92 544.5 132.5Q571 173 584.5 228.5Q598 284 598 348Q598 405 584.5 460.5Q571 516 542.5 559.5Q514 603 469.5 630Q425 657 363 657Q310 657 270 633.5Q230 610 203.5 569.5Q177 529 163.5 473.5Q150 418 150 354Q150 297 163.5 241.5Q177 186 205.5 142.5Q234 99 278.5 72Q323 45 385 45ZM377 712Q455 712 516 684Q577 656 619 608.5Q661 561 683 498Q705 435 705 365Q705 279 678.5 209.5Q652 140 606.5 91.5Q561 43 500 16.5Q439 -10 371 -10Q293 -10 232 18Q171 46 129 93.5Q87 141 65 204Q43 267 43 337Q43 423 69.5 492.5Q96 562 141.5 610.5Q187 659 248 685.5Q309 712 377 712ZM535 910 380 761H341L415 910Z" glyph-name="Oacute" horiz-adv-x="748" unicode="&#211;" /><glyph d="M385 45Q438 45 478 68.5Q518 92 544.5 132.5Q571 173 584.5 228.5Q598 284 598 348Q598 405 584.5 460.5Q571 516 542.5 559.5Q514 603 469.5 630Q425 657 363 657Q310 657 270 633.5Q230 610 203.5 569.5Q177 529 163.5 473.5Q150 418 150 354Q150 297 163.5 241.5Q177 186 205.5 142.5Q234 99 278.5 72Q323 45 385 45ZM377 712Q455 712 516 684Q577 656 619 608.5Q661 561 683 498Q705 435 705 365Q705 279 678.5 209.5Q652 140 606.5 91.5Q561 43 500 16.5Q439 -10 371 -10Q293 -10 232 18Q171 46 129 93.5Q87 141 65 204Q43 267 43 337Q43 423 69.5 492.5Q96 562 141.5 610.5Q187 659 248 685.5Q309 712 377 712ZM374 758Q305 758 263.5 799Q222 840 222 915H259Q261 890 271.5 872.5Q282 855 298 843.5Q314 832 334 827Q354 822 374 822Q394 822 414 827Q434 832 450 843.5Q466 855 476.5 872.5Q487 890 489 915H526Q526 840 484.5 799Q443 758 374 758Z" glyph-name="Obreve" horiz-adv-x="748" unicode="&#334;" /><glyph d="M385 45Q438 45 478 68.5Q518 92 544.5 132.5Q571 173 584.5 228.5Q598 284 598 348Q598 405 584.5 460.5Q571 516 542.5 559.5Q514 603 469.5 630Q425 657 363 657Q310 657 270 633.5Q230 610 203.5 569.5Q177 529 163.5 473.5Q150 418 150 354Q150 297 163.5 241.5Q177 186 205.5 142.5Q234 99 278.5 72Q323 45 385 45ZM377 712Q455 712 516 684Q577 656 619 608.5Q661 561 683 498Q705 435 705 365Q705 279 678.5 209.5Q652 140 606.5 91.5Q561 43 500 16.5Q439 -10 371 -10Q293 -10 232 18Q171 46 129 93.5Q87 141 65 204Q43 267 43 337Q43 423 69.5 492.5Q96 562 141.5 610.5Q187 659 248 685.5Q309 712 377 712ZM558 761H512L374 851L236 761H190L340 920H408Z" glyph-name="Ocircumflex" horiz-adv-x="748" unicode="&#212;" /><glyph d="M385 45Q438 45 478 68.5Q518 92 544.5 132.5Q571 173 584.5 228.5Q598 284 598 348Q598 405 584.5 460.5Q571 516 542.5 559.5Q514 603 469.5 630Q425 657 363 657Q310 657 270 633.5Q230 610 203.5 569.5Q177 529 163.5 473.5Q150 418 150 354Q150 297 163.5 241.5Q177 186 205.5 142.5Q234 99 278.5 72Q323 45 385 45ZM377 712Q455 712 516 684Q577 656 619 608.5Q661 561 683 498Q705 435 705 365Q705 279 678.5 209.5Q652 140 606.5 91.5Q561 43 500 16.5Q439 -10 371 -10Q293 -10 232 18Q171 46 129 93.5Q87 141 65 204Q43 267 43 337Q43 423 69.5 492.5Q96 562 141.5 610.5Q187 659 248 685.5Q309 712 377 712ZM213 832Q213 857 230.5 874.5Q248 892 274 892Q300 892 317.5 874.5Q335 857 335 832Q335 806 317.5 788Q300 770 274 770Q248 770 230.5 788Q213 806 213 832ZM413 832Q413 857 430.5 874.5Q448 892 474 892Q500 892 517.5 874.5Q535 857 535 832Q535 806 517.5 788Q500 770 474 770Q448 770 430.5 788Q413 806 413 832Z" glyph-name="Odieresis" horiz-adv-x="748" unicode="&#214;" /><glyph d="M385 45Q438 45 478 68.5Q518 92 544.5 132.5Q571 173 584.5 228.5Q598 284 598 348Q598 405 584.5 460.5Q571 516 542.5 559.5Q514 603 469.5 630Q425 657 363 657Q310 657 270 633.5Q230 610 203.5 569.5Q177 529 163.5 473.5Q150 418 150 354Q150 297 163.5 241.5Q177 186 205.5 142.5Q234 99 278.5 72Q323 45 385 45ZM377 712Q455 712 516 684Q577 656 619 608.5Q661 561 683 498Q705 435 705 365Q705 279 678.5 209.5Q652 140 606.5 91.5Q561 43 500 16.5Q439 -10 371 -10Q293 -10 232 18Q171 46 129 93.5Q87 141 65 204Q43 267 43 337Q43 423 69.5 492.5Q96 562 141.5 610.5Q187 659 248 685.5Q309 712 377 712ZM329 910 403 761H364L209 910Z" glyph-name="Ograve" horiz-adv-x="748" unicode="&#210;" /><glyph d="M385 45Q438 45 478 68.5Q518 92 544.5 132.5Q571 173 584.5 228.5Q598 284 598 348Q598 405 584.5 460.5Q571 516 542.5 559.5Q514 603 469.5 630Q425 657 363 657Q310 657 270 633.5Q230 610 203.5 569.5Q177 529 163.5 473.5Q150 418 150 354Q150 297 163.5 241.5Q177 186 205.5 142.5Q234 99 278.5 72Q323 45 385 45ZM377 712Q455 712 516 684Q577 656 619 608.5Q661 561 683 498Q705 435 705 365Q705 279 678.5 209.5Q652 140 606.5 91.5Q561 43 500 16.5Q439 -10 371 -10Q293 -10 232 18Q171 46 129 93.5Q87 141 65 204Q43 267 43 337Q43 423 69.5 492.5Q96 562 141.5 610.5Q187 659 248 685.5Q309 712 377 712ZM448 910 315 761H275L342 910ZM598 910 465 761H425L492 910Z" glyph-name="Ohungarumlaut" horiz-adv-x="748" unicode="&#336;" /><glyph d="M385 45Q438 45 478 68.5Q518 92 544.5 132.5Q571 173 584.5 228.5Q598 284 598 348Q598 405 584.5 460.5Q571 516 542.5 559.5Q514 603 469.5 630Q425 657 363 657Q310 657 270 633.5Q230 610 203.5 569.5Q177 529 163.5 473.5Q150 418 150 354Q150 297 163.5 241.5Q177 186 205.5 142.5Q234 99 278.5 72Q323 45 385 45ZM377 712Q455 712 516 684Q577 656 619 608.5Q661 561 683 498Q705 435 705 365Q705 279 678.5 209.5Q652 140 606.5 91.5Q561 43 500 16.5Q439 -10 371 -10Q293 -10 232 18Q171 46 129 93.5Q87 141 65 204Q43 267 43 337Q43 423 69.5 492.5Q96 562 141.5 610.5Q187 659 248 685.5Q309 712 377 712ZM233 845H515V783H233Z" glyph-name="Omacron" horiz-adv-x="748" unicode="&#332;" /><glyph d="M139 -56 100 -33 163 63Q146 77 132 93Q90 141 68 204Q46 267 46 337Q46 423 72.5 492.5Q99 562 144.5 610.5Q190 659 251 685.5Q312 712 380 712Q458 712 519 684Q540 674 558 662L616 750L655 727L594 635Q609 623 622 608Q664 561 686 498Q708 435 708 365Q708 279 681.5 209.5Q655 140 609.5 91.5Q564 43 503 16.5Q442 -10 374 -10Q296 -10 235 18Q217 26 200 36ZM472 630Q428 657 366 657Q313 657 273 633.5Q233 610 206.5 569.5Q180 529 166.5 473.5Q153 418 153 354Q153 297 166.5 241.5Q180 186 208 142Q210 140 212 137L515 597Q496 615 472 630ZM388 45Q441 45 481 68.5Q521 92 547.5 132.5Q574 173 587.5 228.5Q601 284 601 348Q601 405 587.5 460.5Q574 516 545 559V560L243 101Q260 84 281 72Q326 45 388 45Z" glyph-name="Oslash" horiz-adv-x="754" unicode="&#216;" /><glyph d="M139 -56 100 -33 163 63Q146 77 132 93Q90 141 68 204Q46 267 46 337Q46 423 72.5 492.5Q99 562 144.5 610.5Q190 659 251 685.5Q312 712 380 712Q458 712 519 684Q540 674 558 662L616 750L655 727L594 635Q609 623 622 608Q664 561 686 498Q708 435 708 365Q708 279 681.5 209.5Q655 140 609.5 91.5Q564 43 503 16.5Q442 -10 374 -10Q296 -10 235 18Q217 26 200 36ZM472 630Q428 657 366 657Q313 657 273 633.5Q233 610 206.5 569.5Q180 529 166.5 473.5Q153 418 153 354Q153 297 166.5 241.5Q180 186 208 142Q210 140 212 137L515 597Q496 615 472 630ZM388 45Q441 45 481 68.5Q521 92 547.5 132.5Q574 173 587.5 228.5Q601 284 601 348Q601 405 587.5 460.5Q574 516 545 559V560L243 101Q260 84 281 72Q326 45 388 45ZM538 910 383 761H344L418 910Z" glyph-name="Oslashacute" horiz-adv-x="754" unicode="&#510;" /><glyph d="M385 45Q438 45 478 68.5Q518 92 544.5 132.5Q571 173 584.5 228.5Q598 284 598 348Q598 405 584.5 460.5Q571 516 542.5 559.5Q514 603 469.5 630Q425 657 363 657Q310 657 270 633.5Q230 610 203.5 569.5Q177 529 163.5 473.5Q150 418 150 354Q150 297 163.5 241.5Q177 186 205.5 142.5Q234 99 278.5 72Q323 45 385 45ZM377 712Q455 712 516 684Q577 656 619 608.5Q661 561 683 498Q705 435 705 365Q705 279 678.5 209.5Q652 140 606.5 91.5Q561 43 500 16.5Q439 -10 371 -10Q293 -10 232 18Q171 46 129 93.5Q87 141 65 204Q43 267 43 337Q43 423 69.5 492.5Q96 562 141.5 610.5Q187 659 248 685.5Q309 712 377 712ZM558 880Q541 843 527 819.5Q513 796 499.5 783Q486 770 472 765Q458 760 440 760Q417 760 397.5 771Q378 782 360 795.5Q342 809 325.5 820.5Q309 832 293 832Q270 832 257.5 816.5Q245 801 228 770L191 780Q208 817 222 840.5Q236 864 249.5 877Q263 890 277 895Q291 900 309 900Q331 900 351 888.5Q371 877 389 863.5Q407 850 423.5 839Q440 828 456 828Q479 828 491.5 843.5Q504 859 521 890Z" glyph-name="Otilde" horiz-adv-x="748" unicode="&#213;" /><glyph d="M233 287V112Q233 89 241.5 75.5Q250 62 266.5 54.5Q283 47 307 43.5Q331 40 361 39V0H34V39Q59 40 78 43Q97 46 110 53.5Q123 61 129.5 75Q136 89 136 112V590Q136 613 129.5 627Q123 641 110 648.5Q97 656 78 659Q59 662 34 663V702H332Q404 702 454 684.5Q504 667 535 638.5Q566 610 580 573Q594 536 594 497Q594 453 579.5 415Q565 377 535 348.5Q505 320 459 303.5Q413 287 349 287ZM233 333H312Q405 333 446 371.5Q487 410 487 493Q487 529 477 558.5Q467 588 445.5 610Q424 632 391 644Q358 656 312 656H233Z" glyph-name="P" horiz-adv-x="613" unicode="P" /><glyph d="M377 712Q455 712 516 684Q577 656 619 608.5Q661 561 683 498Q705 435 705 365Q705 279 678.5 209.5Q652 140 606.5 91.5Q561 43 500 16Q477 6 453 0L479 -28Q529 -82 567.5 -115Q606 -148 648 -153V-172Q632 -177 613 -180Q594 -183 581 -183Q526 -183 487.5 -163.5Q449 -144 418 -102L352 -9Q285 -6 232 18Q171 46 129 93.5Q87 141 65 204Q43 267 43 337Q43 423 69.5 492.5Q96 562 141.5 610.5Q187 659 248 685.5Q309 712 377 712ZM385 45Q438 45 478 68.5Q518 92 544.5 132.5Q571 173 584.5 228.5Q598 284 598 348Q598 405 584.5 460.5Q571 516 542.5 559.5Q514 603 469.5 630Q425 657 363 657Q310 657 270 633.5Q230 610 203.5 569.5Q177 529 163.5 473.5Q150 418 150 354Q150 297 163.5 241.5Q177 186 205.5 142.5Q234 99 278.5 72Q323 45 385 45Z" glyph-name="Q" horiz-adv-x="748" unicode="Q" /><glyph d="M232 656V350H302Q478 350 478 505Q478 537 467.5 564.5Q457 592 435.5 612.5Q414 633 380 644.5Q346 656 298 656ZM328 702Q395 702 443 687.5Q491 673 522.5 647Q554 621 569 584.5Q584 548 584 505Q584 463 567 429.5Q550 396 523 373Q496 350 461.5 336Q427 322 391 319L559 110Q583 80 615 60.5Q647 41 688 39V0H545Q517 17 498 36.5Q479 56 454 88L285 306H232V112Q232 89 238.5 75Q245 61 258 53.5Q271 46 290 43Q309 40 333 39V0H34V39Q59 40 78 43Q97 46 110 53.5Q123 61 129.5 75Q136 89 136 112V590Q136 613 129.5 627Q123 641 110 648.5Q97 656 78 659Q59 662 34 663V702Z" glyph-name="R" horiz-adv-x="704" unicode="R" /><glyph d="M232 656V350H302Q478 350 478 505Q478 537 467.5 564.5Q457 592 435.5 612.5Q414 633 380 644.5Q346 656 298 656ZM328 702Q395 702 443 687.5Q491 673 522.5 647Q554 621 569 584.5Q584 548 584 505Q584 463 567 429.5Q550 396 523 373Q496 350 461.5 336Q427 322 391 319L559 110Q583 80 615 60.5Q647 41 688 39V0H545Q517 17 498 36.5Q479 56 454 88L285 306H232V112Q232 89 238.5 75Q245 61 258 53.5Q271 46 290 43Q309 40 333 39V0H34V39Q59 40 78 43Q97 46 110 53.5Q123 61 129.5 75Q136 89 136 112V590Q136 613 129.5 627Q123 641 110 648.5Q97 656 78 659Q59 662 34 663V702ZM482 910 327 761H288L362 910Z" glyph-name="Racute" horiz-adv-x="704" unicode="&#340;" /><glyph d="M232 656V350H302Q478 350 478 505Q478 537 467.5 564.5Q457 592 435.5 612.5Q414 633 380 644.5Q346 656 298 656ZM328 702Q395 702 443 687.5Q491 673 522.5 647Q554 621 569 584.5Q584 548 584 505Q584 463 567 429.5Q550 396 523 373Q496 350 461.5 336Q427 322 391 319L559 110Q583 80 615 60.5Q647 41 688 39V0H545Q517 17 498 36.5Q479 56 454 88L285 306H232V112Q232 89 238.5 75Q245 61 258 53.5Q271 46 290 43Q309 40 333 39V0H34V39Q59 40 78 43Q97 46 110 53.5Q123 61 129.5 75Q136 89 136 112V590Q136 613 129.5 627Q123 641 110 648.5Q97 656 78 659Q59 662 34 663V702ZM355 761H287L137 920H183L321 830L459 920H505Z" glyph-name="Rcaron" horiz-adv-x="704" unicode="&#344;" /><glyph d="M232 656V350H302Q478 350 478 505Q478 537 467.5 564.5Q457 592 435.5 612.5Q414 633 380 644.5Q346 656 298 656ZM328 702Q395 702 443 687.5Q491 673 522.5 647Q554 621 569 584.5Q584 548 584 505Q584 463 567 429.5Q550 396 523 373Q496 350 461.5 336Q427 322 391 319L559 110Q583 80 615 60.5Q647 41 688 39V0H545Q517 17 498 36.5Q479 56 454 88L285 306H232V112Q232 89 238.5 75Q245 61 258 53.5Q271 46 290 43Q309 40 333 39V0H34V39Q59 40 78 43Q97 46 110 53.5Q123 61 129.5 75Q136 89 136 112V590Q136 613 129.5 627Q123 641 110 648.5Q97 656 78 659Q59 662 34 663V702ZM344 -153Q321 -148 311.5 -135Q302 -122 302 -105Q302 -81 319.5 -66.5Q337 -52 365 -52Q401 -52 420.5 -74Q440 -96 440 -128Q440 -172 412 -201Q384 -230 314 -230V-197Q392 -197 392 -153Z" glyph-name="Rcommaaccent" horiz-adv-x="704" unicode="&#342;" /><glyph d="M265 -10Q194 -10 137 10.5Q80 31 47 59L40 223H75Q86 184 103.5 150.5Q121 117 144.5 92.5Q168 68 199 54Q230 40 268 40Q339 40 379 73Q419 106 419 168Q419 194 410 213.5Q401 233 381.5 250Q362 267 330 282Q298 297 253 314Q203 332 165 351.5Q127 371 101 395Q75 419 61.5 450.5Q48 482 48 524Q48 564 62.5 598Q77 632 105 657.5Q133 683 173.5 697.5Q214 712 267 712Q328 712 381 694Q434 676 475 649V496H442Q425 569 380 615.5Q335 662 262 662Q199 662 167 630Q135 598 135 550Q135 524 142 505Q149 486 167 469.5Q185 453 215.5 437.5Q246 422 293 405Q348 385 389 364Q430 343 457 318Q484 293 497 261.5Q510 230 510 188Q510 140 490.5 103Q471 66 437.5 41Q404 16 359.5 3Q315 -10 265 -10Z" glyph-name="S" horiz-adv-x="556" unicode="S" /><glyph d="M265 -10Q194 -10 137 10.5Q80 31 47 59L40 223H75Q86 184 103.5 150.5Q121 117 144.5 92.5Q168 68 199 54Q230 40 268 40Q339 40 379 73Q419 106 419 168Q419 194 410 213.5Q401 233 381.5 250Q362 267 330 282Q298 297 253 314Q203 332 165 351.5Q127 371 101 395Q75 419 61.5 450.5Q48 482 48 524Q48 564 62.5 598Q77 632 105 657.5Q133 683 173.5 697.5Q214 712 267 712Q328 712 381 694Q434 676 475 649V496H442Q425 569 380 615.5Q335 662 262 662Q199 662 167 630Q135 598 135 550Q135 524 142 505Q149 486 167 469.5Q185 453 215.5 437.5Q246 422 293 405Q348 385 389 364Q430 343 457 318Q484 293 497 261.5Q510 230 510 188Q510 140 490.5 103Q471 66 437.5 41Q404 16 359.5 3Q315 -10 265 -10ZM434 910 279 761H240L314 910Z" glyph-name="Sacute" horiz-adv-x="556" unicode="&#346;" /><glyph d="M265 -10Q194 -10 137 10.5Q80 31 47 59L40 223H75Q86 184 103.5 150.5Q121 117 144.5 92.5Q168 68 199 54Q230 40 268 40Q339 40 379 73Q419 106 419 168Q419 194 410 213.5Q401 233 381.5 250Q362 267 330 282Q298 297 253 314Q203 332 165 351.5Q127 371 101 395Q75 419 61.5 450.5Q48 482 48 524Q48 564 62.5 598Q77 632 105 657.5Q133 683 173.5 697.5Q214 712 267 712Q328 712 381 694Q434 676 475 649V496H442Q425 569 380 615.5Q335 662 262 662Q199 662 167 630Q135 598 135 550Q135 524 142 505Q149 486 167 469.5Q185 453 215.5 437.5Q246 422 293 405Q348 385 389 364Q430 343 457 318Q484 293 497 261.5Q510 230 510 188Q510 140 490.5 103Q471 66 437.5 41Q404 16 359.5 3Q315 -10 265 -10ZM307 761H239L89 920H135L273 830L411 920H457Z" glyph-name="Scaron" horiz-adv-x="556" unicode="&#352;" /><glyph d="M190 -188Q244 -188 275.5 -176.5Q307 -165 307 -142Q307 -119 282.5 -109Q258 -99 214 -97L249 -10Q187 -7 137 10Q80 31 47 59L40 223H75Q86 184 103.5 150.5Q121 117 144.5 92.5Q168 68 199 54Q230 40 268 40Q339 40 379 73Q419 106 419 168Q419 194 410 213.5Q401 233 381.5 250Q362 267 330 282Q298 297 253 314Q203 332 165 351.5Q127 371 101 395Q75 419 61.5 450.5Q48 482 48 524Q48 564 62.5 598Q77 632 105 657.5Q133 683 173.5 697.5Q214 712 267 712Q328 712 381 694Q434 676 475 649V496H442Q425 569 380 615.5Q335 662 262 662Q199 662 167 630Q135 598 135 550Q135 524 142 505Q149 486 167 469.5Q185 453 215.5 437.5Q246 422 293 405Q348 385 389 364Q430 343 457 318Q484 293 497 261.5Q510 230 510 188Q510 140 490.5 103Q471 66 437.5 41Q404 16 359 3Q322 -8 282 -10L267 -48Q318 -49 347 -65Q376 -81 376 -122Q376 -148 362 -166.5Q348 -185 323.5 -197Q299 -209 266 -215Q233 -221 196 -221Z" glyph-name="Scedilla" horiz-adv-x="556" unicode="&#350;" /><glyph d="M265 -10Q194 -10 137 10.5Q80 31 47 59L40 223H75Q86 184 103.5 150.5Q121 117 144.5 92.5Q168 68 199 54Q230 40 268 40Q339 40 379 73Q419 106 419 168Q419 194 410 213.5Q401 233 381.5 250Q362 267 330 282Q298 297 253 314Q203 332 165 351.5Q127 371 101 395Q75 419 61.5 450.5Q48 482 48 524Q48 564 62.5 598Q77 632 105 657.5Q133 683 173.5 697.5Q214 712 267 712Q328 712 381 694Q434 676 475 649V496H442Q425 569 380 615.5Q335 662 262 662Q199 662 167 630Q135 598 135 550Q135 524 142 505Q149 486 167 469.5Q185 453 215.5 437.5Q246 422 293 405Q348 385 389 364Q430 343 457 318Q484 293 497 261.5Q510 230 510 188Q510 140 490.5 103Q471 66 437.5 41Q404 16 359.5 3Q315 -10 265 -10ZM457 761H411L273 851L135 761H89L239 920H307Z" glyph-name="Scircumflex" horiz-adv-x="556" unicode="&#348;" /><glyph d="M265 -10Q194 -10 137 10.5Q80 31 47 59L40 223H75Q86 184 103.5 150.5Q121 117 144.5 92.5Q168 68 199 54Q230 40 268 40Q339 40 379 73Q419 106 419 168Q419 194 410 213.5Q401 233 381.5 250Q362 267 330 282Q298 297 253 314Q203 332 165 351.5Q127 371 101 395Q75 419 61.5 450.5Q48 482 48 524Q48 564 62.5 598Q77 632 105 657.5Q133 683 173.5 697.5Q214 712 267 712Q328 712 381 694Q434 676 475 649V496H442Q425 569 380 615.5Q335 662 262 662Q199 662 167 630Q135 598 135 550Q135 524 142 505Q149 486 167 469.5Q185 453 215.5 437.5Q246 422 293 405Q348 385 389 364Q430 343 457 318Q484 293 497 261.5Q510 230 510 188Q510 140 490.5 103Q471 66 437.5 41Q404 16 359.5 3Q315 -10 265 -10ZM256 -153Q233 -148 223.5 -135Q214 -122 214 -105Q214 -81 231.5 -66.5Q249 -52 277 -52Q313 -52 332.5 -74Q352 -96 352 -128Q352 -172 324 -201Q296 -230 226 -230V-197Q304 -197 304 -153Z" glyph-name="Scommaaccent" horiz-adv-x="556" unicode="&#536;" /><glyph d="M632 702 648 493H616Q594 544 579 576Q564 608 547.5 626Q531 644 510 650.5Q489 657 455 657H379V112Q379 89 386 75Q393 61 406.5 53.5Q420 46 440 43Q460 40 485 39V0H177V39Q202 40 221.5 43Q241 46 254.5 53.5Q268 61 275 75Q282 89 282 112V657H208Q174 657 153 650.5Q132 644 115.5 626Q99 608 83.5 576Q68 544 46 493H15L30 702Z" glyph-name="T" horiz-adv-x="663" unicode="T" /><glyph d="M151 391H282V657H208Q174 657 153 650.5Q132 644 115.5 626Q99 608 83.5 576Q68 544 46 493H15L30 702H632L648 493H616Q594 544 579 576Q564 608 547.5 626Q531 644 510 650.5Q489 657 455 657H379V391H510V348H379V112Q379 89 386 75Q393 61 406.5 53.5Q420 46 440 43Q460 40 485 39V0H177V39Q202 40 221.5 43Q241 46 254.5 53.5Q268 61 275 75Q282 89 282 112V348H151Z" glyph-name="Tbar" horiz-adv-x="663" unicode="&#358;" /><glyph d="M632 702 648 493H616Q594 544 579 576Q564 608 547.5 626Q531 644 510 650.5Q489 657 455 657H379V112Q379 89 386 75Q393 61 406.5 53.5Q420 46 440 43Q460 40 485 39V0H177V39Q202 40 221.5 43Q241 46 254.5 53.5Q268 61 275 75Q282 89 282 112V657H208Q174 657 153 650.5Q132 644 115.5 626Q99 608 83.5 576Q68 544 46 493H15L30 702ZM365 761H297L147 920H193L331 830L469 920H515Z" glyph-name="Tcaron" horiz-adv-x="663" unicode="&#356;" /><glyph d="M632 702 648 493H616Q594 544 579 576Q564 608 547.5 626Q531 644 510 650.5Q489 657 455 657H379V112Q379 89 386 75Q393 61 406.5 53.5Q420 46 440 43Q460 40 485 39V0H177V39Q202 40 221.5 43Q241 46 254.5 53.5Q268 61 275 75Q282 89 282 112V657H208Q174 657 153 650.5Q132 644 115.5 626Q99 608 83.5 576Q68 544 46 493H15L30 702ZM304 -153Q281 -148 271.5 -135Q262 -122 262 -105Q262 -81 279.5 -66.5Q297 -52 325 -52Q361 -52 380.5 -74Q400 -96 400 -128Q400 -172 372 -201Q344 -230 274 -230V-197Q352 -197 352 -153Z" glyph-name="Tcommaaccent" horiz-adv-x="663" unicode="&#354;" /><glyph d="M232 203H305Q398 203 442.5 236.5Q487 270 487 353Q487 425 442.5 465.5Q398 506 305 506H232ZM325 552Q397 552 448 536Q499 520 531.5 493.5Q564 467 579 431.5Q594 396 594 357Q594 313 578.5 276.5Q563 240 531.5 213.5Q500 187 453 172Q406 157 342 157H232V112Q232 89 241 75.5Q250 62 266.5 54.5Q283 47 307 43.5Q331 40 361 39V0H34V39Q59 40 78 43Q97 46 110 53.5Q123 61 129.5 75Q136 89 136 112V590Q136 613 129.5 627Q123 641 110 648.5Q97 656 78 659Q59 662 34 663V702H334V663Q309 662 290 659Q271 656 258 648.5Q245 641 238.5 627Q232 613 232 590V552Z" glyph-name="Thorn" horiz-adv-x="619" unicode="&#222;" /><glyph d="M207 246Q207 152 255.5 102.5Q304 53 390 53Q491 53 545 99.5Q599 146 599 254V590Q599 613 592.5 627Q586 641 573 648.5Q560 656 541 659Q522 662 497 663V702H758V663Q733 662 714 659Q695 656 682.5 648.5Q670 641 663.5 627Q657 613 657 590V235Q657 173 635 127Q613 81 576 51Q539 21 490.5 6Q442 -9 388 -9Q325 -9 273.5 5.5Q222 20 186 50.5Q150 81 130 127.5Q110 174 110 237V590Q110 613 103.5 627Q97 641 84 648.5Q71 656 52 659Q33 662 8 663V702H308V663Q283 662 264 659Q245 656 232.5 648.5Q220 641 213.5 627Q207 613 207 590Z" glyph-name="U" horiz-adv-x="766" unicode="U" /><glyph d="M207 246Q207 152 255.5 102.5Q304 53 390 53Q491 53 545 99.5Q599 146 599 254V590Q599 613 592.5 627Q586 641 573 648.5Q560 656 541 659Q522 662 497 663V702H758V663Q733 662 714 659Q695 656 682.5 648.5Q670 641 663.5 627Q657 613 657 590V235Q657 173 635 127Q613 81 576 51Q539 21 490.5 6Q442 -9 388 -9Q325 -9 273.5 5.5Q222 20 186 50.5Q150 81 130 127.5Q110 174 110 237V590Q110 613 103.5 627Q97 641 84 648.5Q71 656 52 659Q33 662 8 663V702H308V663Q283 662 264 659Q245 656 232.5 648.5Q220 641 213.5 627Q207 613 207 590ZM564 910 409 761H370L444 910Z" glyph-name="Uacute" horiz-adv-x="766" unicode="&#218;" /><glyph d="M207 246Q207 152 255.5 102.5Q304 53 390 53Q491 53 545 99.5Q599 146 599 254V590Q599 613 592.5 627Q586 641 573 648.5Q560 656 541 659Q522 662 497 663V702H758V663Q733 662 714 659Q695 656 682.5 648.5Q670 641 663.5 627Q657 613 657 590V235Q657 173 635 127Q613 81 576 51Q539 21 490.5 6Q442 -9 388 -9Q325 -9 273.5 5.5Q222 20 186 50.5Q150 81 130 127.5Q110 174 110 237V590Q110 613 103.5 627Q97 641 84 648.5Q71 656 52 659Q33 662 8 663V702H308V663Q283 662 264 659Q245 656 232.5 648.5Q220 641 213.5 627Q207 613 207 590ZM403 758Q334 758 292.5 799Q251 840 251 915H288Q290 890 300.5 872.5Q311 855 327 843.5Q343 832 363 827Q383 822 403 822Q423 822 443 827Q463 832 479 843.5Q495 855 505.5 872.5Q516 890 518 915H555Q555 840 513.5 799Q472 758 403 758Z" glyph-name="Ubreve" horiz-adv-x="766" unicode="&#364;" /><glyph d="M207 246Q207 152 255.5 102.5Q304 53 390 53Q491 53 545 99.5Q599 146 599 254V590Q599 613 592.5 627Q586 641 573 648.5Q560 656 541 659Q522 662 497 663V702H758V663Q733 662 714 659Q695 656 682.5 648.5Q670 641 663.5 627Q657 613 657 590V235Q657 173 635 127Q613 81 576 51Q539 21 490.5 6Q442 -9 388 -9Q325 -9 273.5 5.5Q222 20 186 50.5Q150 81 130 127.5Q110 174 110 237V590Q110 613 103.5 627Q97 641 84 648.5Q71 656 52 659Q33 662 8 663V702H308V663Q283 662 264 659Q245 656 232.5 648.5Q220 641 213.5 627Q207 613 207 590ZM587 761H541L403 851L265 761H219L369 920H437Z" glyph-name="Ucircumflex" horiz-adv-x="766" unicode="&#219;" /><glyph d="M207 246Q207 152 255.5 102.5Q304 53 390 53Q491 53 545 99.5Q599 146 599 254V590Q599 613 592.5 627Q586 641 573 648.5Q560 656 541 659Q522 662 497 663V702H758V663Q733 662 714 659Q695 656 682.5 648.5Q670 641 663.5 627Q657 613 657 590V235Q657 173 635 127Q613 81 576 51Q539 21 490.5 6Q442 -9 388 -9Q325 -9 273.5 5.5Q222 20 186 50.5Q150 81 130 127.5Q110 174 110 237V590Q110 613 103.5 627Q97 641 84 648.5Q71 656 52 659Q33 662 8 663V702H308V663Q283 662 264 659Q245 656 232.5 648.5Q220 641 213.5 627Q207 613 207 590ZM242 832Q242 857 259.5 874.5Q277 892 303 892Q329 892 346.5 874.5Q364 857 364 832Q364 806 346.5 788Q329 770 303 770Q277 770 259.5 788Q242 806 242 832ZM442 832Q442 857 459.5 874.5Q477 892 503 892Q529 892 546.5 874.5Q564 857 564 832Q564 806 546.5 788Q529 770 503 770Q477 770 459.5 788Q442 806 442 832Z" glyph-name="Udieresis" horiz-adv-x="766" unicode="&#220;" /><glyph d="M207 246Q207 152 255.5 102.5Q304 53 390 53Q491 53 545 99.5Q599 146 599 254V590Q599 613 592.5 627Q586 641 573 648.5Q560 656 541 659Q522 662 497 663V702H758V663Q733 662 714 659Q695 656 682.5 648.5Q670 641 663.5 627Q657 613 657 590V235Q657 173 635 127Q613 81 576 51Q539 21 490.5 6Q442 -9 388 -9Q325 -9 273.5 5.5Q222 20 186 50.5Q150 81 130 127.5Q110 174 110 237V590Q110 613 103.5 627Q97 641 84 648.5Q71 656 52 659Q33 662 8 663V702H308V663Q283 662 264 659Q245 656 232.5 648.5Q220 641 213.5 627Q207 613 207 590ZM358 910 432 761H393L238 910Z" glyph-name="Ugrave" horiz-adv-x="766" unicode="&#217;" /><glyph d="M207 246Q207 152 255.5 102.5Q304 53 390 53Q491 53 545 99.5Q599 146 599 254V590Q599 613 592.5 627Q586 641 573 648.5Q560 656 541 659Q522 662 497 663V702H758V663Q733 662 714 659Q695 656 682.5 648.5Q670 641 663.5 627Q657 613 657 590V235Q657 173 635 127Q613 81 576 51Q539 21 490.5 6Q442 -9 388 -9Q325 -9 273.5 5.5Q222 20 186 50.5Q150 81 130 127.5Q110 174 110 237V590Q110 613 103.5 627Q97 641 84 648.5Q71 656 52 659Q33 662 8 663V702H308V663Q283 662 264 659Q245 656 232.5 648.5Q220 641 213.5 627Q207 613 207 590ZM477 910 344 761H304L371 910ZM627 910 494 761H454L521 910Z" glyph-name="Uhungarumlaut" horiz-adv-x="766" unicode="&#368;" /><glyph d="M207 246Q207 152 255.5 102.5Q304 53 390 53Q491 53 545 99.5Q599 146 599 254V590Q599 613 592.5 627Q586 641 573 648.5Q560 656 541 659Q522 662 497 663V702H758V663Q733 662 714 659Q695 656 682.5 648.5Q670 641 663.5 627Q657 613 657 590V235Q657 173 635 127Q613 81 576 51Q539 21 490.5 6Q442 -9 388 -9Q325 -9 273.5 5.5Q222 20 186 50.5Q150 81 130 127.5Q110 174 110 237V590Q110 613 103.5 627Q97 641 84 648.5Q71 656 52 659Q33 662 8 663V702H308V663Q283 662 264 659Q245 656 232.5 648.5Q220 641 213.5 627Q207 613 207 590ZM262 845H544V783H262Z" glyph-name="Umacron" horiz-adv-x="766" unicode="&#362;" /><glyph d="M487 5Q464 -5 441 -16.5Q418 -28 400 -41.5Q382 -55 371 -71.5Q360 -88 360 -107Q360 -126 372.5 -138Q385 -150 409 -150Q433 -150 455 -141Q477 -132 501 -113L513 -130Q502 -143 488.5 -156.5Q475 -170 458.5 -180.5Q442 -191 423 -198Q404 -205 383 -205Q345 -205 319 -183.5Q293 -162 293 -123Q293 -95 308.5 -72Q324 -49 349 -31Q366 -19 385 -9Q324 -8 273 5Q222 20 186 50.5Q150 81 130 127.5Q110 174 110 237V590Q110 613 103.5 627Q97 641 84 648.5Q71 656 52 659Q33 662 8 663V702H308V663Q283 662 264 659Q245 656 232.5 648.5Q220 641 213.5 627Q207 613 207 590V246Q207 152 255.5 102.5Q304 53 390 53Q491 53 545 99.5Q599 146 599 254V590Q599 613 592.5 627Q586 641 573 648.5Q560 656 541 659Q522 662 497 663V702H758V663Q733 662 714 659Q695 656 682.5 648.5Q670 641 663.5 627Q657 613 657 590V235Q657 173 635 127Q613 81 576 51Q539 21 490 6Q489 5 487 5Z" glyph-name="Uogonek" horiz-adv-x="766" unicode="&#370;" /><glyph d="M207 246Q207 152 255.5 102.5Q304 53 390 53Q491 53 545 99.5Q599 146 599 254V590Q599 613 592.5 627Q586 641 573 648.5Q560 656 541 659Q522 662 497 663V702H758V663Q733 662 714 659Q695 656 682.5 648.5Q670 641 663.5 627Q657 613 657 590V235Q657 173 635 127Q613 81 576 51Q539 21 490.5 6Q442 -9 388 -9Q325 -9 273.5 5.5Q222 20 186 50.5Q150 81 130 127.5Q110 174 110 237V590Q110 613 103.5 627Q97 641 84 648.5Q71 656 52 659Q33 662 8 663V702H308V663Q283 662 264 659Q245 656 232.5 648.5Q220 641 213.5 627Q207 613 207 590ZM310 835Q310 874 335.5 900Q361 926 403 926Q445 926 470.5 900Q496 874 496 835Q496 796 470.5 770Q445 744 403 744Q361 744 335.5 770Q310 796 310 835ZM454 835Q454 858 441.5 873.5Q429 889 403 889Q377 889 364.5 873.5Q352 858 352 835Q352 812 364.5 796.5Q377 781 403 781Q429 781 441.5 796.5Q454 812 454 835Z" glyph-name="Uring" horiz-adv-x="766" unicode="&#366;" /><glyph d="M207 246Q207 152 255.5 102.5Q304 53 390 53Q491 53 545 99.5Q599 146 599 254V590Q599 613 592.5 627Q586 641 573 648.5Q560 656 541 659Q522 662 497 663V702H758V663Q733 662 714 659Q695 656 682.5 648.5Q670 641 663.5 627Q657 613 657 590V235Q657 173 635 127Q613 81 576 51Q539 21 490.5 6Q442 -9 388 -9Q325 -9 273.5 5.5Q222 20 186 50.5Q150 81 130 127.5Q110 174 110 237V590Q110 613 103.5 627Q97 641 84 648.5Q71 656 52 659Q33 662 8 663V702H308V663Q283 662 264 659Q245 656 232.5 648.5Q220 641 213.5 627Q207 613 207 590ZM587 880Q570 843 556 819.5Q542 796 528.5 783Q515 770 501 765Q487 760 469 760Q446 760 426.5 771Q407 782 389 795.5Q371 809 354.5 820.5Q338 832 322 832Q299 832 286.5 816.5Q274 801 257 770L220 780Q237 817 251 840.5Q265 864 278.5 877Q292 890 306 895Q320 900 338 900Q360 900 380 888.5Q400 877 418 863.5Q436 850 452.5 839Q469 828 485 828Q508 828 520.5 843.5Q533 859 550 890Z" glyph-name="Utilde" horiz-adv-x="766" unicode="&#360;" /><glyph d="M565 579Q570 590 573 600Q576 610 576 619Q576 642 555.5 651.5Q535 661 482 663V702H709V663Q687 660 672 653Q657 646 648 626L383 -9H353L66 626Q57 646 41.5 653Q26 660 5 663V702H272V663Q220 661 199.5 652Q179 643 179 620Q179 611 182 601.5Q185 592 190 580L388 133Z" glyph-name="V" horiz-adv-x="714" unicode="V" /><glyph d="M821 579Q825 590 828.5 600Q832 610 832 619Q832 642 811.5 651.5Q791 661 738 663V702H956V663Q936 660 920 654Q904 648 896 626L666 -9H637L484 422L332 -9H303L66 626Q58 646 41.5 653Q25 660 5 663V702H271V663Q219 661 198.5 652Q178 643 178 620Q178 611 181 601Q184 591 188 580L341 148L459 494L414 626Q406 649 389.5 654.5Q373 660 353 663V702H609V663Q556 661 535.5 652Q515 643 515 620Q515 611 518 601Q521 591 525 580L669 148Z" glyph-name="W" horiz-adv-x="961" unicode="W" /><glyph d="M821 579Q825 590 828.5 600Q832 610 832 619Q832 642 811.5 651.5Q791 661 738 663V702H956V663Q936 660 920 654Q904 648 896 626L666 -9H637L484 422L332 -9H303L66 626Q58 646 41.5 653Q25 660 5 663V702H271V663Q219 661 198.5 652Q178 643 178 620Q178 611 181 601Q184 591 188 580L341 148L459 494L414 626Q406 649 389.5 654.5Q373 660 353 663V702H609V663Q556 661 535.5 652Q515 643 515 620Q515 611 518 601Q521 591 525 580L669 148ZM641 910 486 761H447L521 910Z" glyph-name="Wacute" horiz-adv-x="961" unicode="&#7810;" /><glyph d="M821 579Q825 590 828.5 600Q832 610 832 619Q832 642 811.5 651.5Q791 661 738 663V702H956V663Q936 660 920 654Q904 648 896 626L666 -9H637L484 422L332 -9H303L66 626Q58 646 41.5 653Q25 660 5 663V702H271V663Q219 661 198.5 652Q178 643 178 620Q178 611 181 601Q184 591 188 580L341 148L459 494L414 626Q406 649 389.5 654.5Q373 660 353 663V702H609V663Q556 661 535.5 652Q515 643 515 620Q515 611 518 601Q521 591 525 580L669 148ZM664 761H618L480 851L342 761H296L446 920H514Z" glyph-name="Wcircumflex" horiz-adv-x="961" unicode="&#372;" /><glyph d="M821 579Q825 590 828.5 600Q832 610 832 619Q832 642 811.5 651.5Q791 661 738 663V702H956V663Q936 660 920 654Q904 648 896 626L666 -9H637L484 422L332 -9H303L66 626Q58 646 41.5 653Q25 660 5 663V702H271V663Q219 661 198.5 652Q178 643 178 620Q178 611 181 601Q184 591 188 580L341 148L459 494L414 626Q406 649 389.5 654.5Q373 660 353 663V702H609V663Q556 661 535.5 652Q515 643 515 620Q515 611 518 601Q521 591 525 580L669 148ZM319 832Q319 857 336.5 874.5Q354 892 380 892Q406 892 423.5 874.5Q441 857 441 832Q441 806 423.5 788Q406 770 380 770Q354 770 336.5 788Q319 806 319 832ZM519 832Q519 857 536.5 874.5Q554 892 580 892Q606 892 623.5 874.5Q641 857 641 832Q641 806 623.5 788Q606 770 580 770Q554 770 536.5 788Q519 806 519 832Z" glyph-name="Wdieresis" horiz-adv-x="961" unicode="&#7812;" /><glyph d="M821 579Q825 590 828.5 600Q832 610 832 619Q832 642 811.5 651.5Q791 661 738 663V702H956V663Q936 660 920 654Q904 648 896 626L666 -9H637L484 422L332 -9H303L66 626Q58 646 41.5 653Q25 660 5 663V702H271V663Q219 661 198.5 652Q178 643 178 620Q178 611 181 601Q184 591 188 580L341 148L459 494L414 626Q406 649 389.5 654.5Q373 660 353 663V702H609V663Q556 661 535.5 652Q515 643 515 620Q515 611 518 601Q521 591 525 580L669 148ZM435 910 509 761H470L315 910Z" glyph-name="Wgrave" horiz-adv-x="961" unicode="&#7808;" /><glyph d="M407 369 613 89Q633 62 654 50.5Q675 39 706 39V0H414V39Q444 39 461.5 40.5Q479 42 488 46Q497 50 499.5 56Q502 62 502 70Q502 81 494 94.5Q486 108 475 122L339 310L192 125Q180 110 172.5 97Q165 84 165 71Q165 63 167.5 57Q170 51 179 47Q188 43 206 41Q224 39 255 39V0H5V39Q35 39 54.5 49Q74 59 97 89L307 354L116 613Q96 641 75 652Q54 663 24 663V702H319V663Q290 663 272.5 661.5Q255 660 245 656.5Q235 653 232 647Q229 641 229 633Q229 620 237.5 606Q246 592 257 577L374 413L504 577Q515 592 523 606Q531 620 531 633Q531 641 528 647Q525 653 515 656.5Q505 660 487.5 661.5Q470 663 441 663V702H691V663Q661 663 641.5 653Q622 643 599 613Z" glyph-name="X" horiz-adv-x="711" unicode="X" /><glyph d="M507 580Q515 593 519.5 603.5Q524 614 524 626Q524 646 504.5 653.5Q485 661 433 663V702H658V663Q636 660 622.5 653Q609 646 597 626L376 283V112Q376 89 382.5 75Q389 61 402 53.5Q415 46 434 43Q453 40 477 39V0H179V39Q204 40 223 43Q242 46 255 53.5Q268 61 274.5 75Q281 89 281 112V282L66 626Q54 646 40 653Q26 660 5 663V702H270V663Q218 661 198.5 653.5Q179 646 179 626Q179 614 184 603.5Q189 593 197 580L350 334Z" glyph-name="Y" horiz-adv-x="663" unicode="Y" /><glyph d="M507 580Q515 593 519.5 603.5Q524 614 524 626Q524 646 504.5 653.5Q485 661 433 663V702H658V663Q636 660 622.5 653Q609 646 597 626L376 283V112Q376 89 382.5 75Q389 61 402 53.5Q415 46 434 43Q453 40 477 39V0H179V39Q204 40 223 43Q242 46 255 53.5Q268 61 274.5 75Q281 89 281 112V282L66 626Q54 646 40 653Q26 660 5 663V702H270V663Q218 661 198.5 653.5Q179 646 179 626Q179 614 184 603.5Q189 593 197 580L350 334ZM508 910 353 761H314L388 910Z" glyph-name="Yacute" horiz-adv-x="663" unicode="&#221;" /><glyph d="M507 580Q515 593 519.5 603.5Q524 614 524 626Q524 646 504.5 653.5Q485 661 433 663V702H658V663Q636 660 622.5 653Q609 646 597 626L376 283V112Q376 89 382.5 75Q389 61 402 53.5Q415 46 434 43Q453 40 477 39V0H179V39Q204 40 223 43Q242 46 255 53.5Q268 61 274.5 75Q281 89 281 112V282L66 626Q54 646 40 653Q26 660 5 663V702H270V663Q218 661 198.5 653.5Q179 646 179 626Q179 614 184 603.5Q189 593 197 580L350 334ZM531 761H485L347 851L209 761H163L313 920H381Z" glyph-name="Ycircumflex" horiz-adv-x="663" unicode="&#374;" /><glyph d="M507 580Q515 593 519.5 603.5Q524 614 524 626Q524 646 504.5 653.5Q485 661 433 663V702H658V663Q636 660 622.5 653Q609 646 597 626L376 283V112Q376 89 382.5 75Q389 61 402 53.5Q415 46 434 43Q453 40 477 39V0H179V39Q204 40 223 43Q242 46 255 53.5Q268 61 274.5 75Q281 89 281 112V282L66 626Q54 646 40 653Q26 660 5 663V702H270V663Q218 661 198.5 653.5Q179 646 179 626Q179 614 184 603.5Q189 593 197 580L350 334ZM186 832Q186 857 203.5 874.5Q221 892 247 892Q273 892 290.5 874.5Q308 857 308 832Q308 806 290.5 788Q273 770 247 770Q221 770 203.5 788Q186 806 186 832ZM386 832Q386 857 403.5 874.5Q421 892 447 892Q473 892 490.5 874.5Q508 857 508 832Q508 806 490.5 788Q473 770 447 770Q421 770 403.5 788Q386 806 386 832Z" glyph-name="Ydieresis" horiz-adv-x="663" unicode="&#376;" /><glyph d="M507 580Q515 593 519.5 603.5Q524 614 524 626Q524 646 504.5 653.5Q485 661 433 663V702H658V663Q636 660 622.5 653Q609 646 597 626L376 283V112Q376 89 382.5 75Q389 61 402 53.5Q415 46 434 43Q453 40 477 39V0H179V39Q204 40 223 43Q242 46 255 53.5Q268 61 274.5 75Q281 89 281 112V282L66 626Q54 646 40 653Q26 660 5 663V702H270V663Q218 661 198.5 653.5Q179 646 179 626Q179 614 184 603.5Q189 593 197 580L350 334ZM302 910 376 761H337L182 910Z" glyph-name="Ygrave" horiz-adv-x="663" unicode="&#7922;" /><glyph d="M397 47Q430 47 452.5 56Q475 65 492.5 83.5Q510 102 526 130.5Q542 159 563 198H596L563 0H25V25L452 654H229Q199 654 179.5 647.5Q160 641 145.5 625.5Q131 610 118 583.5Q105 557 87 517H58V702H579V676L155 47Z" glyph-name="Z" horiz-adv-x="620" unicode="Z" /><glyph d="M397 47Q430 47 452.5 56Q475 65 492.5 83.5Q510 102 526 130.5Q542 159 563 198H596L563 0H25V25L452 654H229Q199 654 179.5 647.5Q160 641 145.5 625.5Q131 610 118 583.5Q105 557 87 517H58V702H579V676L155 47ZM471 910 316 761H277L351 910Z" glyph-name="Zacute" horiz-adv-x="620" unicode="&#377;" /><glyph d="M397 47Q430 47 452.5 56Q475 65 492.5 83.5Q510 102 526 130.5Q542 159 563 198H596L563 0H25V25L452 654H229Q199 654 179.5 647.5Q160 641 145.5 625.5Q131 610 118 583.5Q105 557 87 517H58V702H579V676L155 47ZM344 761H276L126 920H172L310 830L448 920H494Z" glyph-name="Zcaron" horiz-adv-x="620" unicode="&#381;" /><glyph d="M397 47Q430 47 452.5 56Q475 65 492.5 83.5Q510 102 526 130.5Q542 159 563 198H596L563 0H25V25L452 654H229Q199 654 179.5 647.5Q160 641 145.5 625.5Q131 610 118 583.5Q105 557 87 517H58V702H579V676L155 47ZM310 767Q283 767 264 786.5Q245 806 245 834Q245 862 264 881.5Q283 901 310 901Q337 901 356 881.5Q375 862 375 834Q375 806 356 786.5Q337 767 310 767Z" glyph-name="Zdotaccent" horiz-adv-x="620" unicode="&#379;" /><glyph d="M219 60Q254 60 282 71Q310 82 342 105V284L200 230Q172 219 155.5 198.5Q139 178 139 149Q139 106 160 83Q181 60 219 60ZM435 372Q435 360 434.5 325.5Q434 291 433.5 251.5Q433 212 432.5 176Q432 140 432 124Q432 56 478 56Q485 56 499.5 57.5Q514 59 525 62L530 38Q504 12 480 1Q456 -10 430 -10Q392 -10 372 15Q352 40 345 81Q331 66 314 49.5Q297 33 276 20Q255 7 230.5 -1.5Q206 -10 178 -10Q144 -10 119 1Q94 12 77.5 30.5Q61 49 53 73.5Q45 98 45 125Q45 160 57.5 184Q70 208 90 225Q110 242 135 253Q160 264 184 273L342 330V379Q342 401 337.5 421.5Q333 442 321.5 458Q310 474 291 483Q272 492 243 492Q161 492 161 418Q161 394 168 366L93 356Q82 367 77 379.5Q72 392 72 410Q72 441 86.5 465Q101 489 126.5 505.5Q152 522 186.5 531Q221 540 262 540Q349 540 392 497Q435 454 435 372Z" glyph-name="a" horiz-adv-x="535" unicode="a" /><glyph d="M219 60Q254 60 282 71Q310 82 342 105V284L200 230Q172 219 155.5 198.5Q139 178 139 149Q139 106 160 83Q181 60 219 60ZM435 372Q435 360 434.5 325.5Q434 291 433.5 251.5Q433 212 432.5 176Q432 140 432 124Q432 56 478 56Q485 56 499.5 57.5Q514 59 525 62L530 38Q504 12 480 1Q456 -10 430 -10Q392 -10 372 15Q352 40 345 81Q331 66 314 49.5Q297 33 276 20Q255 7 230.5 -1.5Q206 -10 178 -10Q144 -10 119 1Q94 12 77.5 30.5Q61 49 53 73.5Q45 98 45 125Q45 160 57.5 184Q70 208 90 225Q110 242 135 253Q160 264 184 273L342 330V379Q342 401 337.5 421.5Q333 442 321.5 458Q310 474 291 483Q272 492 243 492Q161 492 161 418Q161 394 168 366L93 356Q82 367 77 379.5Q72 392 72 410Q72 441 86.5 465Q101 489 126.5 505.5Q152 522 186.5 531Q221 540 262 540Q349 540 392 497Q435 454 435 372ZM420 761 269 592H230L304 761Z" glyph-name="aacute" horiz-adv-x="535" unicode="&#225;" /><glyph d="M219 60Q254 60 282 71Q310 82 342 105V284L200 230Q172 219 155.5 198.5Q139 178 139 149Q139 106 160 83Q181 60 219 60ZM435 372Q435 360 434.5 325.5Q434 291 433.5 251.5Q433 212 432.5 176Q432 140 432 124Q432 56 478 56Q485 56 499.5 57.5Q514 59 525 62L530 38Q504 12 480 1Q456 -10 430 -10Q392 -10 372 15Q352 40 345 81Q331 66 314 49.5Q297 33 276 20Q255 7 230.5 -1.5Q206 -10 178 -10Q144 -10 119 1Q94 12 77.5 30.5Q61 49 53 73.5Q45 98 45 125Q45 160 57.5 184Q70 208 90 225Q110 242 135 253Q160 264 184 273L342 330V379Q342 401 337.5 421.5Q333 442 321.5 458Q310 474 291 483Q272 492 243 492Q161 492 161 418Q161 394 168 366L93 356Q82 367 77 379.5Q72 392 72 410Q72 441 86.5 465Q101 489 126.5 505.5Q152 522 186.5 531Q221 540 262 540Q349 540 392 497Q435 454 435 372ZM261 593Q193 593 156.5 636.5Q120 680 120 761H159Q163 707 191.5 683Q220 659 261 659Q302 659 330.5 683Q359 707 363 761H402Q402 680 365.5 636.5Q329 593 261 593Z" glyph-name="abreve" horiz-adv-x="535" unicode="&#259;" /><glyph d="M219 60Q254 60 282 71Q310 82 342 105V284L200 230Q172 219 155.5 198.5Q139 178 139 149Q139 106 160 83Q181 60 219 60ZM435 372Q435 360 434.5 325.5Q434 291 433.5 251.5Q433 212 432.5 176Q432 140 432 124Q432 56 478 56Q485 56 499.5 57.5Q514 59 525 62L530 38Q504 12 480 1Q456 -10 430 -10Q392 -10 372 15Q352 40 345 81Q331 66 314 49.5Q297 33 276 20Q255 7 230.5 -1.5Q206 -10 178 -10Q144 -10 119 1Q94 12 77.5 30.5Q61 49 53 73.5Q45 98 45 125Q45 160 57.5 184Q70 208 90 225Q110 242 135 253Q160 264 184 273L342 330V379Q342 401 337.5 421.5Q333 442 321.5 458Q310 474 291 483Q272 492 243 492Q161 492 161 418Q161 394 168 366L93 356Q82 367 77 379.5Q72 392 72 410Q72 441 86.5 465Q101 489 126.5 505.5Q152 522 186.5 531Q221 540 262 540Q349 540 392 497Q435 454 435 372ZM435 592H389L261 695L133 592H87L227 765H295Z" glyph-name="acircumflex" horiz-adv-x="535" unicode="&#226;" /><glyph d="M345 761 194 592H155L229 761Z" glyph-name="acute" horiz-adv-x="500" unicode="&#180;" /><glyph d="M347 910 192 761H153L227 910Z" glyph-name="acute.cap" horiz-adv-x="500" /><glyph d="M219 60Q254 60 282 71Q310 82 342 105V284L200 230Q172 219 155.5 198.5Q139 178 139 149Q139 106 160 83Q181 60 219 60ZM435 372Q435 360 434.5 325.5Q434 291 433.5 251.5Q433 212 432.5 176Q432 140 432 124Q432 56 478 56Q485 56 499.5 57.5Q514 59 525 62L530 38Q504 12 480 1Q456 -10 430 -10Q392 -10 372 15Q352 40 345 81Q331 66 314 49.5Q297 33 276 20Q255 7 230.5 -1.5Q206 -10 178 -10Q144 -10 119 1Q94 12 77.5 30.5Q61 49 53 73.5Q45 98 45 125Q45 160 57.5 184Q70 208 90 225Q110 242 135 253Q160 264 184 273L342 330V379Q342 401 337.5 421.5Q333 442 321.5 458Q310 474 291 483Q272 492 243 492Q161 492 161 418Q161 394 168 366L93 356Q82 367 77 379.5Q72 392 72 410Q72 441 86.5 465Q101 489 126.5 505.5Q152 522 186.5 531Q221 540 262 540Q349 540 392 497Q435 454 435 372ZM108 677Q108 702 125.5 719.5Q143 737 169 737Q195 737 212.5 719.5Q230 702 230 677Q230 651 212.5 633Q195 615 169 615Q143 615 125.5 633Q108 651 108 677ZM298 677Q298 702 315.5 719.5Q333 737 359 737Q385 737 402.5 719.5Q420 702 420 677Q420 651 402.5 633Q385 615 359 615Q333 615 315.5 633Q298 651 298 677Z" glyph-name="adieresis" horiz-adv-x="535" unicode="&#228;" /><glyph d="M586 540Q635 540 673 523.5Q711 507 736 477.5Q761 448 774 407Q787 366 787 317V286H429Q429 237 441.5 196.5Q454 156 478 127Q502 98 536 82Q570 66 612 66Q669 66 706 90.5Q743 115 771 152L788 143Q770 76 716.5 33Q663 -10 578 -10Q523 -10 480 10Q437 30 407 65Q393 80 383 98Q343 48 299 20Q252 -10 188 -10Q154 -10 127.5 1Q101 12 82.5 30.5Q64 49 54.5 73.5Q45 98 45 125Q45 160 58 184Q71 208 91.5 224.5Q112 241 137.5 251Q163 261 187 268L351 316Q355 341 362 363Q361 378 358 395Q353 421 339.5 442.5Q326 464 303 478Q280 492 243 492Q161 492 161 418Q161 394 168 366L93 356Q82 367 77 379.5Q72 392 72 410Q72 441 86.5 465Q101 489 125.5 505.5Q150 522 183.5 531Q217 540 256 540Q343 540 389 497Q405 482 415 461Q447 498 490 519Q534 540 586 540ZM361 147Q346 194 346 248Q346 258 346 268L203 225Q174 216 156.5 196Q139 176 139 144Q139 105 160 82.5Q181 60 219 60Q273 60 312 81Q343 98 372 119Q366 133 361 147ZM571 491Q541 491 517 478Q493 465 475.5 443Q458 421 447 392Q436 363 433 332H695Q695 404 664 447.5Q633 491 571 491Z" glyph-name="ae" horiz-adv-x="828" unicode="&#230;" /><glyph d="M586 540Q635 540 673 523.5Q711 507 736 477.5Q761 448 774 407Q787 366 787 317V286H429Q429 237 441.5 196.5Q454 156 478 127Q502 98 536 82Q570 66 612 66Q669 66 706 90.5Q743 115 771 152L788 143Q770 76 716.5 33Q663 -10 578 -10Q523 -10 480 10Q437 30 407 65Q393 80 383 98Q343 48 299 20Q252 -10 188 -10Q154 -10 127.5 1Q101 12 82.5 30.5Q64 49 54.5 73.5Q45 98 45 125Q45 160 58 184Q71 208 91.5 224.5Q112 241 137.5 251Q163 261 187 268L351 316Q355 341 362 363Q361 378 358 395Q353 421 339.5 442.5Q326 464 303 478Q280 492 243 492Q161 492 161 418Q161 394 168 366L93 356Q82 367 77 379.5Q72 392 72 410Q72 441 86.5 465Q101 489 125.5 505.5Q150 522 183.5 531Q217 540 256 540Q343 540 389 497Q405 482 415 461Q447 498 490 519Q534 540 586 540ZM361 147Q346 194 346 248Q346 258 346 268L203 225Q174 216 156.5 196Q139 176 139 144Q139 105 160 82.5Q181 60 219 60Q273 60 312 81Q343 98 372 119Q366 133 361 147ZM571 491Q541 491 517 478Q493 465 475.5 443Q458 421 447 392Q436 363 433 332H695Q695 404 664 447.5Q633 491 571 491ZM575 761 424 592H385L459 761Z" glyph-name="aeacute" horiz-adv-x="828" unicode="&#509;" /><glyph d="M219 60Q254 60 282 71Q310 82 342 105V284L200 230Q172 219 155.5 198.5Q139 178 139 149Q139 106 160 83Q181 60 219 60ZM435 372Q435 360 434.5 325.5Q434 291 433.5 251.5Q433 212 432.5 176Q432 140 432 124Q432 56 478 56Q485 56 499.5 57.5Q514 59 525 62L530 38Q504 12 480 1Q456 -10 430 -10Q392 -10 372 15Q352 40 345 81Q331 66 314 49.5Q297 33 276 20Q255 7 230.5 -1.5Q206 -10 178 -10Q144 -10 119 1Q94 12 77.5 30.5Q61 49 53 73.5Q45 98 45 125Q45 160 57.5 184Q70 208 90 225Q110 242 135 253Q160 264 184 273L342 330V379Q342 401 337.5 421.5Q333 442 321.5 458Q310 474 291 483Q272 492 243 492Q161 492 161 418Q161 394 168 366L93 356Q82 367 77 379.5Q72 392 72 410Q72 441 86.5 465Q101 489 126.5 505.5Q152 522 186.5 531Q221 540 262 540Q349 540 392 497Q435 454 435 372ZM222 761 296 592H257L106 761Z" glyph-name="agrave" horiz-adv-x="535" unicode="&#224;" /><glyph d="M219 60Q254 60 282 71Q310 82 342 105V284L200 230Q172 219 155.5 198.5Q139 178 139 149Q139 106 160 83Q181 60 219 60ZM435 372Q435 360 434.5 325.5Q434 291 433.5 251.5Q433 212 432.5 176Q432 140 432 124Q432 56 478 56Q485 56 499.5 57.5Q514 59 525 62L530 38Q504 12 480 1Q456 -10 430 -10Q392 -10 372 15Q352 40 345 81Q331 66 314 49.5Q297 33 276 20Q255 7 230.5 -1.5Q206 -10 178 -10Q144 -10 119 1Q94 12 77.5 30.5Q61 49 53 73.5Q45 98 45 125Q45 160 57.5 184Q70 208 90 225Q110 242 135 253Q160 264 184 273L342 330V379Q342 401 337.5 421.5Q333 442 321.5 458Q310 474 291 483Q272 492 243 492Q161 492 161 418Q161 394 168 366L93 356Q82 367 77 379.5Q72 392 72 410Q72 441 86.5 465Q101 489 126.5 505.5Q152 522 186.5 531Q221 540 262 540Q349 540 392 497Q435 454 435 372ZM132 681H394V623H132Z" glyph-name="amacron" horiz-adv-x="535" unicode="&#257;" /><glyph d="M558 93Q582 66 607 52Q632 38 664 38V0H543Q517 13 494 35Q481 49 463 67Q427 32 379 12Q328 -10 263 -10Q219 -10 177 1.5Q135 13 102 37Q69 61 48.5 97.5Q28 134 28 184Q28 227 42.5 260Q57 293 82.5 318Q108 343 142 362Q164 374 188 385Q179 396 168 411Q156 428 145.5 448Q135 468 128.5 492Q122 516 122 543Q122 579 135 610Q148 641 171.5 663.5Q195 686 227.5 699Q260 712 300 712Q386 712 430 671Q474 630 474 567Q474 532 457 502Q440 472 410 447.5Q380 423 337 402Q320 394 301 386L489 171Q494 183 499 195Q515 240 515 290Q515 328 504 343Q493 358 464 358V397H664V358Q634 358 616.5 355Q599 352 588.5 344Q578 336 573.5 322Q569 308 565 286Q554 221 530 166Q524 152 517 139ZM156 307Q126 262 126 198Q126 162 138.5 133Q151 104 172 83Q193 62 221.5 51Q250 40 283 40Q337 40 380 60Q411 75 436 98L213 356Q177 339 156 307ZM348 458Q393 496 393 567Q393 614 367.5 642Q342 670 295 670Q251 670 224.5 644Q198 618 198 570Q198 524 220.5 488Q243 452 271 420L275 415Q320 435 348 458Z" glyph-name="ampersand" horiz-adv-x="691" unicode="&amp;" /><glyph d="M435 372Q435 360 434.5 325.5Q434 291 433.5 251.5Q433 212 432.5 176Q432 140 432 124Q432 56 478 56Q485 56 499.5 57.5Q514 59 525 62L530 38Q499 20 466.5 3.5Q434 -13 408 -30.5Q382 -48 365 -68Q348 -88 348 -112Q348 -131 360.5 -143Q373 -155 397 -155Q421 -155 443 -146Q465 -137 489 -118L501 -135Q490 -148 476.5 -161.5Q463 -175 446.5 -185.5Q430 -196 411 -203Q392 -210 371 -210Q333 -210 307 -188.5Q281 -167 281 -128Q281 -84 314.5 -53.5Q348 -23 396 0Q354 17 345 81Q331 66 314 49.5Q297 33 276 20Q255 7 230.5 -1.5Q206 -10 178 -10Q144 -10 119 1Q94 12 77.5 30.5Q61 49 53 73.5Q45 98 45 125Q45 160 57.5 184Q70 208 90 225Q110 242 135 253Q160 264 184 273L342 330V379Q342 401 337.5 421.5Q333 442 321.5 458Q310 474 291 483Q272 492 243 492Q161 492 161 418Q161 394 168 366L93 356Q82 367 77 379.5Q72 392 72 410Q72 441 86.5 465Q101 489 126.5 505.5Q152 522 186.5 531Q221 540 262 540Q349 540 392 497Q435 454 435 372ZM219 60Q254 60 282 71Q310 82 342 105V284L200 230Q172 219 155.5 198.5Q139 178 139 149Q139 106 160 83Q181 60 219 60Z" glyph-name="aogonek" horiz-adv-x="535" unicode="&#261;" /><glyph d="M68 451Q100 472 130 481.5Q160 491 186 491Q214 491 238.5 485Q263 479 286.5 471.5Q310 464 334 458Q358 452 386 452Q414 452 443.5 461Q473 470 506 492V426Q473 404 443.5 395Q414 386 386 386Q358 386 334 392Q310 398 286.5 405.5Q263 413 238.5 419Q214 425 186 425Q160 425 130 415.5Q100 406 68 385ZM68 321Q100 343 130 352Q160 361 186 361Q214 361 238.5 355Q263 349 286.5 342Q310 335 334 329Q358 323 386 323Q414 323 443.5 331.5Q473 340 506 362V296Q473 274 443.5 265.5Q414 257 386 257Q358 257 334 263Q310 269 286.5 276Q263 283 238.5 289Q214 295 186 295Q160 295 130 286Q100 277 68 256Z" glyph-name="approxequal" horiz-adv-x="574" unicode="&#8776;" /><glyph d="M219 60Q254 60 282 71Q310 82 342 105V284L200 230Q172 219 155.5 198.5Q139 178 139 149Q139 106 160 83Q181 60 219 60ZM435 372Q435 360 434.5 325.5Q434 291 433.5 251.5Q433 212 432.5 176Q432 140 432 124Q432 56 478 56Q485 56 499.5 57.5Q514 59 525 62L530 38Q504 12 480 1Q456 -10 430 -10Q392 -10 372 15Q352 40 345 81Q331 66 314 49.5Q297 33 276 20Q255 7 230.5 -1.5Q206 -10 178 -10Q144 -10 119 1Q94 12 77.5 30.5Q61 49 53 73.5Q45 98 45 125Q45 160 57.5 184Q70 208 90 225Q110 242 135 253Q160 264 184 273L342 330V379Q342 401 337.5 421.5Q333 442 321.5 458Q310 474 291 483Q272 492 243 492Q161 492 161 418Q161 394 168 366L93 356Q82 367 77 379.5Q72 392 72 410Q72 441 86.5 465Q101 489 126.5 505.5Q152 522 186.5 531Q221 540 262 540Q349 540 392 497Q435 454 435 372ZM168 679Q168 718 193.5 744Q219 770 261 770Q303 770 328.5 744Q354 718 354 679Q354 640 328.5 614Q303 588 261 588Q219 588 193.5 614Q168 640 168 679ZM312 679Q312 702 299.5 717.5Q287 733 261 733Q235 733 222.5 717.5Q210 702 210 679Q210 656 222.5 640.5Q235 625 261 625Q287 625 299.5 640.5Q312 656 312 679Z" glyph-name="aring" horiz-adv-x="535" unicode="&#229;" /><glyph d="M267 770 422 480H355L231 715L107 480H40L195 770Z" glyph-name="asciicircum" horiz-adv-x="462" unicode="^" /><glyph d="M461 398Q440 336 409.5 305.5Q379 275 331 275Q307 275 285 284Q263 293 241.5 304.5Q220 316 199.5 325Q179 334 158 334Q133 334 119.5 323.5Q106 313 89 281L50 287Q71 349 101.5 379.5Q132 410 180 410Q204 410 226 401Q248 392 269.5 380.5Q291 369 311.5 360Q332 351 353 351Q378 351 391.5 361.5Q405 372 422 404Z" glyph-name="asciitilde" horiz-adv-x="511" unicode="~" /><glyph d="M233 554 246 392H190L203 555L68 462L40 511L187 581L40 651L68 700L203 607L190 770H246L233 607L368 700L396 651L248 581L396 511L368 462Z" glyph-name="asterisk" horiz-adv-x="436" unicode="*" /><glyph d="M606 75Q568 75 546.5 91.5Q525 108 516.5 135Q508 162 510.5 195.5Q513 229 524 263H518Q501 223 480 188.5Q459 154 435.5 129Q412 104 387 90Q362 76 338 76Q296 76 270.5 108Q245 140 245 200Q245 258 266 312.5Q287 367 321.5 409Q356 451 399.5 476.5Q443 502 488 502Q544 502 578 470L625 508H662L635 419L585 211Q582 197 580 180Q578 163 580.5 148.5Q583 134 591.5 124.5Q600 115 618 115Q648 115 676.5 132Q705 149 728 181Q751 213 765 257.5Q779 302 779 358Q779 422 760 476Q741 530 703 569Q665 608 609 630Q553 652 479 652Q402 652 336 620Q270 588 221.5 533Q173 478 145.5 404Q118 330 118 247Q118 172 143.5 110Q169 48 215.5 3.5Q262 -41 326 -65.5Q390 -90 467 -90Q540 -90 602 -72.5Q664 -55 729 -17L743 -47Q695 -89 618.5 -113Q542 -137 457 -137Q367 -137 292.5 -109.5Q218 -82 164 -32Q110 18 80 89.5Q50 161 50 248Q50 339 82.5 420Q115 501 173 561.5Q231 622 309 657Q387 692 479 692Q563 692 630 667Q697 642 744.5 598Q792 554 817 492.5Q842 431 842 358Q842 292 821.5 240Q801 188 768 151Q735 114 692.5 94.5Q650 75 606 75ZM371 134Q392 134 417 155Q442 176 467 215Q492 254 515 308Q538 362 556 428Q546 448 530.5 456.5Q515 465 496 465Q459 465 428 439Q397 413 375 373.5Q353 334 341 288Q329 242 329 202Q329 134 371 134Z" glyph-name="at" horiz-adv-x="892" unicode="@" /><glyph d="M219 60Q254 60 282 71Q310 82 342 105V284L200 230Q172 219 155.5 198.5Q139 178 139 149Q139 106 160 83Q181 60 219 60ZM435 372Q435 360 434.5 325.5Q434 291 433.5 251.5Q433 212 432.5 176Q432 140 432 124Q432 56 478 56Q485 56 499.5 57.5Q514 59 525 62L530 38Q504 12 480 1Q456 -10 430 -10Q392 -10 372 15Q352 40 345 81Q331 66 314 49.5Q297 33 276 20Q255 7 230.5 -1.5Q206 -10 178 -10Q144 -10 119 1Q94 12 77.5 30.5Q61 49 53 73.5Q45 98 45 125Q45 160 57.5 184Q70 208 90 225Q110 242 135 253Q160 264 184 273L342 330V379Q342 401 337.5 421.5Q333 442 321.5 458Q310 474 291 483Q272 492 243 492Q161 492 161 418Q161 394 168 366L93 356Q82 367 77 379.5Q72 392 72 410Q72 441 86.5 465Q101 489 126.5 505.5Q152 522 186.5 531Q221 540 262 540Q349 540 392 497Q435 454 435 372ZM449 731Q432 694 418 670.5Q404 647 390.5 634Q377 621 363 616Q349 611 331 611Q308 611 288.5 622Q269 633 251 646.5Q233 660 216.5 671.5Q200 683 184 683Q161 683 148.5 667.5Q136 652 119 621L82 631Q99 668 113 691.5Q127 715 140.5 728Q154 741 168 746Q182 751 200 751Q222 751 242 739.5Q262 728 280 714.5Q298 701 314.5 690Q331 679 347 679Q370 679 382.5 694.5Q395 710 412 741Z" glyph-name="atilde" horiz-adv-x="535" unicode="&#227;" /><glyph d="M10 690V711L150 761H175V453Q206 493 248 516.5Q290 540 345 540Q396 540 435 520.5Q474 501 500.5 467Q527 433 540 387.5Q553 342 553 290Q553 221 533 165.5Q513 110 478 71Q443 32 396.5 11Q350 -10 297 -10Q222 -10 168 10.5Q114 31 83 57V655ZM304 36Q339 36 368 51Q397 66 417.5 93.5Q438 121 449.5 160.5Q461 200 461 248Q461 290 452.5 330.5Q444 371 425 402.5Q406 434 376.5 453.5Q347 473 305 473Q267 473 232.5 460.5Q198 448 175 424V175Q175 137 184 110.5Q193 84 210 67.5Q227 51 251 43.5Q275 36 304 36Z" glyph-name="b" horiz-adv-x="593" unicode="b" /><glyph d="M38 770H100L378 -141H316Z" glyph-name="backslash" horiz-adv-x="397" unicode="\" /><glyph d="M157 -141H100V770H157Z" glyph-name="bar" horiz-adv-x="257" unicode="|" /><glyph d="M50 323Q86 331 109.5 353Q133 375 133 423V642Q133 672 145 695.5Q157 719 179 735.5Q201 752 230.5 761Q260 770 296 770V743Q278 741 262 734.5Q246 728 233 716.5Q220 705 212.5 687.5Q205 670 205 645V427Q205 376 184.5 353Q164 330 114 315Q164 300 184.5 277Q205 254 205 203V-15Q205 -40 212.5 -57.5Q220 -75 233 -86.5Q246 -98 262 -104.5Q278 -111 296 -113V-140Q260 -140 230.5 -131Q201 -122 179 -105.5Q157 -89 145 -65.5Q133 -42 133 -12V207Q133 255 109.5 277Q86 299 50 307Z" glyph-name="braceleft" horiz-adv-x="341" unicode="{" /><glyph d="M291 307Q255 299 231.5 277Q208 255 208 207V-12Q208 -42 196 -65.5Q184 -89 162 -105.5Q140 -122 110.5 -131Q81 -140 45 -140V-113Q63 -111 79 -104.5Q95 -98 108 -86.5Q121 -75 128.5 -57.5Q136 -40 136 -15V203Q136 254 156.5 277Q177 300 227 315Q177 330 156.5 353Q136 376 136 427V645Q136 670 128.5 687.5Q121 705 108 716.5Q95 728 79 734.5Q63 741 45 743V770Q81 770 110.5 761Q140 752 162 735.5Q184 719 196 695.5Q208 672 208 642V423Q208 375 231.5 353Q255 331 291 323Z" glyph-name="braceright" horiz-adv-x="341" unicode="}" /><glyph d="M154 -49Q154 -69 160.5 -80Q167 -91 180.5 -97Q194 -103 215.5 -105Q237 -107 267 -109V-141H85V770H267V738Q237 736 215.5 734Q194 732 180.5 726Q167 720 160.5 708.5Q154 697 154 678Z" glyph-name="bracketleft" horiz-adv-x="312" unicode="[" /><glyph d="M158 678Q158 697 151.5 708.5Q145 720 131.5 726Q118 732 96.5 734Q75 736 45 738V770H227V-141H45V-109Q75 -107 96.5 -105Q118 -103 131.5 -97Q145 -91 151.5 -80Q158 -69 158 -49Z" glyph-name="bracketright" horiz-adv-x="312" unicode="]" /><glyph d="M250 593Q182 593 145.5 636.5Q109 680 109 761H148Q152 707 180.5 683Q209 659 250 659Q291 659 319.5 683Q348 707 352 761H391Q391 680 354.5 636.5Q318 593 250 593Z" glyph-name="breve" horiz-adv-x="500" unicode="&#728;" /><glyph d="M250 758Q181 758 139.5 799Q98 840 98 915H135Q137 890 147.5 872.5Q158 855 174 843.5Q190 832 210 827Q230 822 250 822Q270 822 290 827Q310 832 326 843.5Q342 855 352.5 872.5Q363 890 365 915H402Q402 840 360.5 799Q319 758 250 758Z" glyph-name="breve.cap" horiz-adv-x="500" /><glyph d="M55 300Q55 325 64.5 347.5Q74 370 90.5 386.5Q107 403 129.5 412.5Q152 422 177 422Q202 422 224.5 412.5Q247 403 263.5 386.5Q280 370 289.5 347.5Q299 325 299 300Q299 275 289.5 252.5Q280 230 263.5 213.5Q247 197 224.5 187.5Q202 178 177 178Q152 178 129.5 187.5Q107 197 90.5 213.5Q74 230 64.5 252.5Q55 275 55 300Z" glyph-name="bullet" horiz-adv-x="354" unicode="&#8226;" /><glyph d="M124 286Q124 237 136 196.5Q148 156 170.5 127Q193 98 226 82Q259 66 301 66Q353 66 388.5 88Q424 110 453 151L471 141Q449 65 396.5 27.5Q344 -10 268 -10Q217 -10 175 9Q133 28 103 62.5Q73 97 56.5 144.5Q40 192 40 248Q40 307 58.5 360Q77 413 110.5 453Q144 493 191 516.5Q238 540 296 540Q376 540 420.5 507Q465 474 465 417Q465 391 453.5 378Q442 365 425 357H374V391Q374 433 352.5 461.5Q331 490 283 490Q247 490 218 474.5Q189 459 168 431.5Q147 404 135.5 366.5Q124 329 124 286Z" glyph-name="c" horiz-adv-x="506" unicode="c" /><glyph d="M124 286Q124 237 136 196.5Q148 156 170.5 127Q193 98 226 82Q259 66 301 66Q353 66 388.5 88Q424 110 453 151L471 141Q449 65 396.5 27.5Q344 -10 268 -10Q217 -10 175 9Q133 28 103 62.5Q73 97 56.5 144.5Q40 192 40 248Q40 307 58.5 360Q77 413 110.5 453Q144 493 191 516.5Q238 540 296 540Q376 540 420.5 507Q465 474 465 417Q465 391 453.5 378Q442 365 425 357H374V391Q374 433 352.5 461.5Q331 490 283 490Q247 490 218 474.5Q189 459 168 431.5Q147 404 135.5 366.5Q124 329 124 286ZM442 761 291 592H252L326 761Z" glyph-name="cacute" horiz-adv-x="506" unicode="&#263;" /><glyph d="M284 596H216L76 769H122L250 666L378 769H424Z" glyph-name="caron" horiz-adv-x="500" unicode="&#711;" /><glyph d="M226 556H191L211 761H308Z" glyph-name="caron.Slovak" horiz-adv-x="500" /><glyph d="M284 761H216L66 920H112L250 830L388 920H434Z" glyph-name="caron.cap" horiz-adv-x="500" /><glyph d="M124 286Q124 237 136 196.5Q148 156 170.5 127Q193 98 226 82Q259 66 301 66Q353 66 388.5 88Q424 110 453 151L471 141Q449 65 396.5 27.5Q344 -10 268 -10Q217 -10 175 9Q133 28 103 62.5Q73 97 56.5 144.5Q40 192 40 248Q40 307 58.5 360Q77 413 110.5 453Q144 493 191 516.5Q238 540 296 540Q376 540 420.5 507Q465 474 465 417Q465 391 453.5 378Q442 365 425 357H374V391Q374 433 352.5 461.5Q331 490 283 490Q247 490 218 474.5Q189 459 168 431.5Q147 404 135.5 366.5Q124 329 124 286ZM317 596H249L109 769H155L283 666L411 769H457Z" glyph-name="ccaron" horiz-adv-x="506" unicode="&#269;" /><glyph d="M168 -188Q222 -188 253.5 -176.5Q285 -165 285 -142Q285 -119 260.5 -109Q236 -99 192 -97L229 -7Q200 -2 175 9Q133 28 103 62.5Q73 97 56.5 144.5Q40 192 40 248Q40 307 58.5 360Q77 413 110.5 453Q144 493 191 516.5Q238 540 296 540Q376 540 420.5 507Q465 474 465 417Q465 391 453.5 378Q442 365 425 357H374V391Q374 433 352.5 461.5Q331 490 283 490Q247 490 218 474.5Q189 459 168 431.5Q147 404 135.5 366.5Q124 329 124 286Q124 237 136 196.5Q148 156 170.5 127Q193 98 226 82Q259 66 301 66Q353 66 388.5 88Q424 110 453 151L471 141Q449 65 396.5 27.5Q344 -10 268 -10H260L245 -48Q296 -49 325 -65Q354 -81 354 -122Q354 -148 340 -166.5Q326 -185 301.5 -197Q277 -209 244 -215Q211 -221 174 -221Z" glyph-name="ccedilla" horiz-adv-x="506" unicode="&#231;" /><glyph d="M124 286Q124 237 136 196.5Q148 156 170.5 127Q193 98 226 82Q259 66 301 66Q353 66 388.5 88Q424 110 453 151L471 141Q449 65 396.5 27.5Q344 -10 268 -10Q217 -10 175 9Q133 28 103 62.5Q73 97 56.5 144.5Q40 192 40 248Q40 307 58.5 360Q77 413 110.5 453Q144 493 191 516.5Q238 540 296 540Q376 540 420.5 507Q465 474 465 417Q465 391 453.5 378Q442 365 425 357H374V391Q374 433 352.5 461.5Q331 490 283 490Q247 490 218 474.5Q189 459 168 431.5Q147 404 135.5 366.5Q124 329 124 286ZM458 592H412L284 695L156 592H110L250 765H318Z" glyph-name="ccircumflex" horiz-adv-x="506" unicode="&#265;" /><glyph d="M124 286Q124 237 136 196.5Q148 156 170.5 127Q193 98 226 82Q259 66 301 66Q353 66 388.5 88Q424 110 453 151L471 141Q449 65 396.5 27.5Q344 -10 268 -10Q217 -10 175 9Q133 28 103 62.5Q73 97 56.5 144.5Q40 192 40 248Q40 307 58.5 360Q77 413 110.5 453Q144 493 191 516.5Q238 540 296 540Q376 540 420.5 507Q465 474 465 417Q465 391 453.5 378Q442 365 425 357H374V391Q374 433 352.5 461.5Q331 490 283 490Q247 490 218 474.5Q189 459 168 431.5Q147 404 135.5 366.5Q124 329 124 286ZM284 611Q257 611 238 630.5Q219 650 219 678Q219 706 238 725.5Q257 745 284 745Q311 745 330 725.5Q349 706 349 678Q349 650 330 630.5Q311 611 284 611Z" glyph-name="cdotaccent" horiz-adv-x="506" unicode="&#267;" /><glyph d="M332 672H376L347 537Q361 535 375 531Q408 523 431.5 507Q455 491 468 468Q481 445 481 417Q481 391 468.5 376Q456 361 438 353H390V387Q390 434 366 462Q355 475 335 482L248 74Q277 66 311 66Q365 66 403 88Q441 110 471 151L490 141Q467 65 411.5 27.5Q356 -10 276 -10Q253 -10 231 -6L210 -108H166L190 4Q183 7 177 9Q133 29 101.5 63.5Q70 98 52.5 145.5Q35 193 35 249Q35 310 53 363Q71 416 105.5 455.5Q140 495 189.5 517.5Q239 540 302 540H303ZM121 286Q121 184 170 125Q187 105 208 92L293 490H282Q247 490 217.5 475.5Q188 461 166.5 434Q145 407 133 369.5Q121 332 121 286Z" glyph-name="cent" horiz-adv-x="517" unicode="&#162;" /><glyph d="M424 592H378L250 695L122 592H76L216 765H284Z" glyph-name="circumflex" horiz-adv-x="500" unicode="&#710;" /><glyph d="M434 761H388L250 851L112 761H66L216 920H284Z" glyph-name="circumflex.cap" horiz-adv-x="500" /><glyph d="M69 63Q69 94 90 115Q111 136 142 136Q173 136 194 115Q215 94 215 63Q215 32 194 11Q173 -10 142 -10Q111 -10 90 11Q69 32 69 63ZM69 383Q69 414 90 435Q111 456 142 456Q173 456 194 435Q215 414 215 383Q215 352 194 331Q173 310 142 310Q111 310 90 331Q69 352 69 383Z" glyph-name="colon" horiz-adv-x="284" unicode=":" /><glyph d="M116 6Q95 11 83 25Q71 39 71 64Q71 93 90 110Q109 127 137 127Q175 127 193.5 100.5Q212 74 212 35Q212 4 203 -23.5Q194 -51 174.5 -72Q155 -93 124 -106.5Q93 -120 50 -123V-83Q105 -75 129.5 -52.5Q154 -30 154 6Z" glyph-name="comma" horiz-adv-x="284" unicode="," /><glyph d="M223 -153Q200 -148 190.5 -135Q181 -122 181 -105Q181 -81 198.5 -66.5Q216 -52 244 -52Q280 -52 299.5 -74Q319 -96 319 -128Q319 -172 291 -201Q263 -230 193 -230V-197Q271 -197 271 -153Z" glyph-name="commaaccent" horiz-adv-x="500" /><glyph d="M277 708Q300 703 309.5 690Q319 677 319 660Q319 636 301.5 621.5Q284 607 256 607Q220 607 200.5 629Q181 651 181 683Q181 727 209 756Q237 785 307 785V752Q229 752 229 708Z" glyph-name="commaturn" horiz-adv-x="500" /><glyph d="M82 351Q82 285 105 226Q128 167 170 123.5Q212 80 270 54.5Q328 29 398 29Q468 29 526 54.5Q584 80 626 123.5Q668 167 691 226Q714 285 714 351Q714 417 691 476Q668 535 626 578.5Q584 622 526 647.5Q468 673 398 673Q328 673 270 647.5Q212 622 170 578.5Q128 535 105 476Q82 417 82 351ZM40 351Q40 426 66.5 491.5Q93 557 140.5 606Q188 655 254 683.5Q320 712 398 712Q476 712 542 683.5Q608 655 655.5 606Q703 557 729.5 491.5Q756 426 756 351Q756 276 729.5 210.5Q703 145 655.5 96Q608 47 542 18.5Q476 -10 398 -10Q320 -10 254 18.5Q188 47 140.5 96Q93 145 66.5 210.5Q40 276 40 351ZM416 180Q438 180 454 187.5Q470 195 481.5 208.5Q493 222 502 241.5Q511 261 519 285H550L541 177Q512 163 482 152.5Q452 142 405 142Q361 142 324.5 157Q288 172 262 199Q236 226 221.5 263Q207 300 207 344Q207 395 223.5 436Q240 477 268 505.5Q296 534 334 549Q372 564 414 564Q460 564 490 552Q520 540 540 524V429H510Q489 526 415 526Q383 526 359 513Q335 500 319.5 477.5Q304 455 296.5 425.5Q289 396 289 362Q289 324 297 290.5Q305 257 321 232.5Q337 208 361 194Q385 180 416 180Z" glyph-name="copyright" horiz-adv-x="796" unicode="&#169;" /><glyph d="M418 79Q387 39 348 14.5Q309 -10 253 -10Q202 -10 162.5 9.5Q123 29 95.5 63Q68 97 54 142.5Q40 188 40 240Q40 309 59.5 364.5Q79 420 113 459Q147 498 193 519Q239 540 292 540Q333 540 366.5 525.5Q400 511 418 485V655L345 690V711L486 761H510V108Q510 82 521 74Q532 66 567 62L593 59V25L433 -10H418ZM289 494Q254 494 225 478Q196 462 175.5 433.5Q155 405 143.5 365Q132 325 132 277Q132 235 141.5 195.5Q151 156 170 125.5Q189 95 218.5 77Q248 59 288 59Q326 59 360.5 72.5Q395 86 418 110V355Q418 427 383 460.5Q348 494 289 494Z" glyph-name="d" horiz-adv-x="619" unicode="d" /><glyph d="M210 593 198 758H263L250 593L417 605V544L250 555L263 252H198L211 555L45 544V605Z" glyph-name="dagger" horiz-adv-x="462" unicode="&#8224;" /><glyph d="M55 554V615L220 603L208 758H273L260 603L427 615V554L259 565V444L427 456V395L260 406L273 252H208L220 406L55 395V456L222 444V565Z" glyph-name="daggerdbl" horiz-adv-x="482" unicode="&#8225;" /><glyph d="M418 79Q387 39 348 14.5Q309 -10 253 -10Q202 -10 162.5 9.5Q123 29 95.5 63Q68 97 54 142.5Q40 188 40 240Q40 309 59.5 364.5Q79 420 113 459Q147 498 193 519Q239 540 292 540Q333 540 366.5 525.5Q400 511 418 485V655L345 690V711L486 761H510V108Q510 82 521 74Q532 66 567 62L593 59V25L433 -10H418ZM289 494Q254 494 225 478Q196 462 175.5 433.5Q155 405 143.5 365Q132 325 132 277Q132 235 141.5 195.5Q151 156 170 125.5Q189 95 218.5 77Q248 59 288 59Q326 59 360.5 72.5Q395 86 418 110V355Q418 427 383 460.5Q348 494 289 494ZM635 556H600L620 761H717Z" glyph-name="dcaron" horiz-adv-x="627" unicode="&#271;" /><glyph d="M273 584V624H418V690H345V717L486 761H510V624H593V584H510V108Q510 82 521 74Q532 66 567 62L593 59V25L433 -10H418V79Q387 39 348 14.5Q309 -10 253 -10Q202 -10 162.5 9.5Q123 29 95.5 63Q68 97 54 142.5Q40 188 40 240Q40 309 59.5 363.5Q79 418 113 455Q147 492 193 511.5Q239 531 292 531Q333 531 366.5 516.5Q400 502 418 476V584ZM289 485Q218 485 175 429.5Q132 374 132 277Q132 235 141.5 195.5Q151 156 170 125.5Q189 95 218.5 77Q248 59 288 59Q326 59 360.5 72.5Q395 86 418 110V346Q418 418 383 451.5Q348 485 289 485Z" glyph-name="dcroat" horiz-adv-x="623" unicode="&#273;" /><glyph d="M85 561Q85 516 111.5 487Q138 458 183 458Q229 458 255.5 487Q282 516 282 561Q282 606 255.5 635.5Q229 665 183 665Q138 665 111.5 635.5Q85 606 85 561ZM30 561Q30 593 42 620.5Q54 648 74.5 668.5Q95 689 123 700.5Q151 712 183 712Q216 712 244 700.5Q272 689 292.5 668.5Q313 648 325 620.5Q337 593 337 561Q337 529 325 501.5Q313 474 292.5 454Q272 434 244 422.5Q216 411 183 411Q151 411 123 422.5Q95 434 74.5 454Q54 474 42 501.5Q30 529 30 561Z" glyph-name="degree" horiz-adv-x="367" unicode="&#176;" /><glyph d="M94 677Q94 702 111.5 719.5Q129 737 155 737Q181 737 198.5 719.5Q216 702 216 677Q216 651 198.5 633Q181 615 155 615Q129 615 111.5 633Q94 651 94 677ZM284 677Q284 702 301.5 719.5Q319 737 345 737Q371 737 388.5 719.5Q406 702 406 677Q406 651 388.5 633Q371 615 345 615Q319 615 301.5 633Q284 651 284 677Z" glyph-name="dieresis" horiz-adv-x="500" unicode="&#168;" /><glyph d="M89 832Q89 857 106.5 874.5Q124 892 150 892Q176 892 193.5 874.5Q211 857 211 832Q211 806 193.5 788Q176 770 150 770Q124 770 106.5 788Q89 806 89 832ZM289 832Q289 857 306.5 874.5Q324 892 350 892Q376 892 393.5 874.5Q411 857 411 832Q411 806 393.5 788Q376 770 350 770Q324 770 306.5 788Q289 806 289 832Z" glyph-name="dieresis.cap" horiz-adv-x="500" /><glyph d="M63 402H501V340H63ZM225 202Q225 226 241.5 243Q258 260 281 260Q304 260 321.5 243Q339 226 339 202Q339 179 321.5 162Q304 145 281 145Q258 145 241.5 162Q225 179 225 202ZM225 540Q225 563 241.5 579.5Q258 596 281 596Q304 596 321.5 579.5Q339 563 339 540Q339 517 321.5 499.5Q304 482 281 482Q258 482 241.5 499.5Q225 517 225 540Z" glyph-name="divide" horiz-adv-x="564" unicode="&#247;" /><glyph d="M184 -5Q141 2 105.5 16.5Q70 31 47 51L40 219H73Q88 163 117 119Q146 75 194 55L238 318L199 335Q168 348 140.5 363.5Q113 379 92 400.5Q71 422 59 451.5Q47 481 47 523Q47 563 62 597.5Q77 632 105 657.5Q133 683 173 697.5Q213 712 264 712Q274 712 284 711.5Q294 711 304 710L322 814H367L348 703Q384 695 415.5 682.5Q447 670 468 653V500H436Q424 551 400.5 587.5Q377 624 338 643L297 402L333 387Q369 372 399 356Q429 340 451 318Q473 296 485 265Q497 234 497 191Q497 143 477.5 105.5Q458 68 424.5 42.5Q391 17 346 3.5Q301 -10 250 -10Q244 -10 238.5 -10Q233 -10 228 -9L211 -113H166ZM280 301 237 44Q242 43 247.5 43Q253 43 259 43Q329 43 369.5 75.5Q410 108 410 162Q410 190 401.5 210Q393 230 377.5 245.5Q362 261 340.5 273Q319 285 292 296ZM133 552Q133 505 158 477Q183 449 233 429L255 419L295 656Q278 659 259 659Q198 659 165.5 629.5Q133 600 133 552Z" glyph-name="dollar" horiz-adv-x="537" unicode="$" /><glyph d="M250 611Q223 611 204 630.5Q185 650 185 678Q185 706 204 725.5Q223 745 250 745Q277 745 296 725.5Q315 706 315 678Q315 650 296 630.5Q277 611 250 611Z" glyph-name="dotaccent" horiz-adv-x="500" unicode="&#729;" /><glyph d="M250 767Q223 767 204 786.5Q185 806 185 834Q185 862 204 881.5Q223 901 250 901Q277 901 296 881.5Q315 862 315 834Q315 806 296 786.5Q277 767 250 767Z" glyph-name="dotaccent.cap" horiz-adv-x="500" /><glyph d="M209 92Q209 75 214.5 64.5Q220 54 230.5 48.5Q241 43 255 40Q269 37 286 35V0H40V35Q56 37 70.5 40Q85 43 95 48.5Q105 54 111 64.5Q117 75 117 92V434L45 469V490L184 540H209Z" glyph-name="dotlessi" horiz-adv-x="321" unicode="&#305;" /><glyph d="M191 86Q191 59 190.5 37Q190 15 187.5 -4Q185 -23 180 -40Q175 -57 166 -75Q146 -115 111 -146Q76 -177 33 -208L10 -183L42 -142Q61 -118 72.5 -95.5Q84 -73 90 -48Q96 -23 97.5 5.5Q99 34 99 70V434L26 469V490L167 540H191Z" glyph-name="dotlessj" horiz-adv-x="270" unicode="&#567;" /><glyph d="M280 540Q329 540 367 523.5Q405 507 430 477.5Q455 448 468 407Q481 366 481 317V286H123Q123 237 135.5 196.5Q148 156 172 127Q196 98 230 82Q264 66 306 66Q363 66 400 90.5Q437 115 465 152L482 143Q464 76 410.5 33Q357 -10 272 -10Q217 -10 174 10Q131 30 101 65Q71 100 55.5 147Q40 194 40 248Q40 314 58 367.5Q76 421 108 459.5Q140 498 184 519Q228 540 280 540ZM265 491Q235 491 211 478Q187 465 169.5 443.5Q152 422 141 393.5Q130 365 127 334H389Q389 406 358 448.5Q327 491 265 491Z" glyph-name="e" horiz-adv-x="522" unicode="e" /><glyph d="M280 540Q329 540 367 523.5Q405 507 430 477.5Q455 448 468 407Q481 366 481 317V286H123Q123 237 135.5 196.5Q148 156 172 127Q196 98 230 82Q264 66 306 66Q363 66 400 90.5Q437 115 465 152L482 143Q464 76 410.5 33Q357 -10 272 -10Q217 -10 174 10Q131 30 101 65Q71 100 55.5 147Q40 194 40 248Q40 314 58 367.5Q76 421 108 459.5Q140 498 184 519Q228 540 280 540ZM265 491Q235 491 211 478Q187 465 169.5 443.5Q152 422 141 393.5Q130 365 127 334H389Q389 406 358 448.5Q327 491 265 491ZM434 761 283 592H244L318 761Z" glyph-name="eacute" horiz-adv-x="522" unicode="&#233;" /><glyph d="M280 540Q329 540 367 523.5Q405 507 430 477.5Q455 448 468 407Q481 366 481 317V286H123Q123 237 135.5 196.5Q148 156 172 127Q196 98 230 82Q264 66 306 66Q363 66 400 90.5Q437 115 465 152L482 143Q464 76 410.5 33Q357 -10 272 -10Q217 -10 174 10Q131 30 101 65Q71 100 55.5 147Q40 194 40 248Q40 314 58 367.5Q76 421 108 459.5Q140 498 184 519Q228 540 280 540ZM265 491Q235 491 211 478Q187 465 169.5 443.5Q152 422 141 393.5Q130 365 127 334H389Q389 406 358 448.5Q327 491 265 491ZM277 593Q209 593 172.5 636.5Q136 680 136 761H175Q179 707 207.5 683Q236 659 277 659Q318 659 346.5 683Q375 707 379 761H418Q418 680 381.5 636.5Q345 593 277 593Z" glyph-name="ebreve" horiz-adv-x="522" unicode="&#277;" /><glyph d="M280 540Q329 540 367 523.5Q405 507 430 477.5Q455 448 468 407Q481 366 481 317V286H123Q123 237 135.5 196.5Q148 156 172 127Q196 98 230 82Q264 66 306 66Q363 66 400 90.5Q437 115 465 152L482 143Q464 76 410.5 33Q357 -10 272 -10Q217 -10 174 10Q131 30 101 65Q71 100 55.5 147Q40 194 40 248Q40 314 58 367.5Q76 421 108 459.5Q140 498 184 519Q228 540 280 540ZM265 491Q235 491 211 478Q187 465 169.5 443.5Q152 422 141 393.5Q130 365 127 334H389Q389 406 358 448.5Q327 491 265 491ZM311 596H243L103 769H149L277 666L405 769H451Z" glyph-name="ecaron" horiz-adv-x="522" unicode="&#283;" /><glyph d="M280 540Q329 540 367 523.5Q405 507 430 477.5Q455 448 468 407Q481 366 481 317V286H123Q123 237 135.5 196.5Q148 156 172 127Q196 98 230 82Q264 66 306 66Q363 66 400 90.5Q437 115 465 152L482 143Q464 76 410.5 33Q357 -10 272 -10Q217 -10 174 10Q131 30 101 65Q71 100 55.5 147Q40 194 40 248Q40 314 58 367.5Q76 421 108 459.5Q140 498 184 519Q228 540 280 540ZM265 491Q235 491 211 478Q187 465 169.5 443.5Q152 422 141 393.5Q130 365 127 334H389Q389 406 358 448.5Q327 491 265 491ZM452 592H406L278 695L150 592H104L244 765H312Z" glyph-name="ecircumflex" horiz-adv-x="522" unicode="&#234;" /><glyph d="M280 540Q329 540 367 523.5Q405 507 430 477.5Q455 448 468 407Q481 366 481 317V286H123Q123 237 135.5 196.5Q148 156 172 127Q196 98 230 82Q264 66 306 66Q363 66 400 90.5Q437 115 465 152L482 143Q464 76 410.5 33Q357 -10 272 -10Q217 -10 174 10Q131 30 101 65Q71 100 55.5 147Q40 194 40 248Q40 314 58 367.5Q76 421 108 459.5Q140 498 184 519Q228 540 280 540ZM265 491Q235 491 211 478Q187 465 169.5 443.5Q152 422 141 393.5Q130 365 127 334H389Q389 406 358 448.5Q327 491 265 491ZM120 677Q120 702 137.5 719.5Q155 737 181 737Q207 737 224.5 719.5Q242 702 242 677Q242 651 224.5 633Q207 615 181 615Q155 615 137.5 633Q120 651 120 677ZM310 677Q310 702 327.5 719.5Q345 737 371 737Q397 737 414.5 719.5Q432 702 432 677Q432 651 414.5 633Q397 615 371 615Q345 615 327.5 633Q310 651 310 677Z" glyph-name="edieresis" horiz-adv-x="522" unicode="&#235;" /><glyph d="M280 540Q329 540 367 523.5Q405 507 430 477.5Q455 448 468 407Q481 366 481 317V286H123Q123 237 135.5 196.5Q148 156 172 127Q196 98 230 82Q264 66 306 66Q363 66 400 90.5Q437 115 465 152L482 143Q464 76 410.5 33Q357 -10 272 -10Q217 -10 174 10Q131 30 101 65Q71 100 55.5 147Q40 194 40 248Q40 314 58 367.5Q76 421 108 459.5Q140 498 184 519Q228 540 280 540ZM265 491Q235 491 211 478Q187 465 169.5 443.5Q152 422 141 393.5Q130 365 127 334H389Q389 406 358 448.5Q327 491 265 491ZM275 611Q248 611 229 630.5Q210 650 210 678Q210 706 229 725.5Q248 745 275 745Q302 745 321 725.5Q340 706 340 678Q340 650 321 630.5Q302 611 275 611Z" glyph-name="edotaccent" horiz-adv-x="522" unicode="&#279;" /><glyph d="M280 540Q329 540 367 523.5Q405 507 430 477.5Q455 448 468 407Q481 366 481 317V286H123Q123 237 135.5 196.5Q148 156 172 127Q196 98 230 82Q264 66 306 66Q363 66 400 90.5Q437 115 465 152L482 143Q464 76 410.5 33Q357 -10 272 -10Q217 -10 174 10Q131 30 101 65Q71 100 55.5 147Q40 194 40 248Q40 314 58 367.5Q76 421 108 459.5Q140 498 184 519Q228 540 280 540ZM265 491Q235 491 211 478Q187 465 169.5 443.5Q152 422 141 393.5Q130 365 127 334H389Q389 406 358 448.5Q327 491 265 491ZM236 761 310 592H271L120 761Z" glyph-name="egrave" horiz-adv-x="522" unicode="&#232;" /><glyph d="M485 544Q485 514 473 488Q461 462 441.5 441.5Q422 421 397 406Q372 391 347 383L382 366Q439 337 475.5 294.5Q512 252 512 186Q512 147 498 111.5Q484 76 455.5 49Q427 22 382 6Q337 -10 276 -10Q223 -10 180 3.5Q137 17 105.5 41.5Q74 66 57 101Q40 136 40 178Q40 211 52 238.5Q64 266 84.5 288Q105 310 133 326.5Q161 343 193 354L181 360Q130 386 98.5 424.5Q67 463 67 528Q67 566 80.5 599.5Q94 633 120.5 658Q147 683 186 697.5Q225 712 276 712Q324 712 362.5 700Q401 688 428 665.5Q455 643 470 612Q485 581 485 544ZM219 341Q171 312 150.5 269.5Q130 227 130 178Q130 115 170 76Q210 37 276 37Q343 37 384 71Q425 105 425 165Q425 213 396 242Q367 271 325 291ZM321 397Q366 424 384 460Q402 496 402 544Q402 601 367.5 633Q333 665 276 665Q217 665 185 634Q153 603 153 554Q153 510 176.5 484.5Q200 459 245 436Z" glyph-name="eight" horiz-adv-x="552" unicode="8" /><glyph d="M69 63Q69 94 90 115Q111 136 142 136Q173 136 194 115Q215 94 215 63Q215 32 194 11Q173 -10 142 -10Q111 -10 90 11Q69 32 69 63ZM353 63Q353 94 374 115Q395 136 426 136Q457 136 478 115Q499 94 499 63Q499 32 478 11Q457 -10 426 -10Q395 -10 374 11Q353 32 353 63ZM637 63Q637 94 658 115Q679 136 710 136Q741 136 762 115Q783 94 783 63Q783 32 762 11Q741 -10 710 -10Q679 -10 658 11Q637 32 637 63Z" glyph-name="ellipsis" horiz-adv-x="852" unicode="&#8230;" /><glyph d="M280 540Q329 540 367 523.5Q405 507 430 477.5Q455 448 468 407Q481 366 481 317V286H123Q123 237 135.5 196.5Q148 156 172 127Q196 98 230 82Q264 66 306 66Q363 66 400 90.5Q437 115 465 152L482 143Q464 76 410.5 33Q357 -10 272 -10Q217 -10 174 10Q131 30 101 65Q71 100 55.5 147Q40 194 40 248Q40 314 58 367.5Q76 421 108 459.5Q140 498 184 519Q228 540 280 540ZM265 491Q235 491 211 478Q187 465 169.5 443.5Q152 422 141 393.5Q130 365 127 334H389Q389 406 358 448.5Q327 491 265 491ZM145 681H407V623H145Z" glyph-name="emacron" horiz-adv-x="522" unicode="&#275;" /><glyph d="M950 272H50V338H950Z" glyph-name="emdash" horiz-adv-x="1000" unicode="&#8212;" /><glyph d="M50 272V338H530V272Z" glyph-name="endash" horiz-adv-x="580" unicode="&#8211;" /><glyph d="M449 369Q449 423 426.5 444.5Q404 466 356 466Q317 466 277.5 451Q238 436 209 413V92Q209 75 214.5 64.5Q220 54 230.5 48.5Q241 43 255 40Q269 37 286 35V0H40V35Q56 37 70.5 40Q85 43 95 48.5Q105 54 111 64.5Q117 75 117 92V434L45 469V490L184 540H209V442Q227 460 248 477.5Q269 495 292.5 509Q316 523 343 531.5Q370 540 401 540Q467 540 504 502Q541 464 541 376V86Q541 59 540.5 37Q540 15 537.5 -4Q535 -23 530 -40Q525 -57 516 -75Q496 -115 461 -146Q426 -177 383 -208L360 -183L392 -142Q411 -118 422.5 -95.5Q434 -73 440 -48Q446 -23 447.5 5.5Q449 34 449 70Z" glyph-name="eng" horiz-adv-x="620" unicode="&#331;" /><glyph d="M280 540Q329 540 367 523.5Q405 507 430 477.5Q455 448 468 407Q481 366 481 317V286H123Q123 237 135.5 196.5Q148 156 172 127Q196 98 230 82Q264 66 306 66Q363 66 400 90.5Q437 115 465 152L482 143Q468 94 436 57Q404 20 354 3Q333 -7 313.5 -19.5Q294 -32 279 -46.5Q264 -61 255 -77.5Q246 -94 246 -112Q246 -131 258.5 -143Q271 -155 295 -155Q319 -155 341 -146Q363 -137 387 -118L399 -135Q388 -148 374.5 -161.5Q361 -175 344.5 -185.5Q328 -196 309 -203Q290 -210 269 -210Q231 -210 205 -188.5Q179 -167 179 -128Q179 -91 203 -62Q227 -33 264 -10Q211 -9 169.5 12Q128 33 99 67.5Q70 102 55 148.5Q40 195 40 248Q40 314 58 367.5Q76 421 108 459.5Q140 498 184 519Q228 540 280 540ZM265 491Q235 491 211 478Q187 465 169.5 443.5Q152 422 141 393.5Q130 365 127 334H389Q389 406 358 448.5Q327 491 265 491Z" glyph-name="eogonek" horiz-adv-x="522" unicode="&#281;" /><glyph d="M68 332H506V271H68ZM68 471H506V409H68Z" glyph-name="equal" horiz-adv-x="574" unicode="=" /><glyph d="M275 526Q321 526 356.5 504.5Q392 483 418 451Q401 494 372.5 537Q344 580 306 619L296 629L155 575L140 614L261 660Q242 676 221 690Q175 723 121 744L140 776Q237 746 310 697L327 685L438 728L453 689L365 655Q403 623 432 587Q482 525 507 452.5Q532 380 532 301Q532 220 512 161.5Q492 103 458.5 65Q425 27 379.5 8.5Q334 -10 283 -10Q227 -10 182.5 9.5Q138 29 106 64.5Q74 100 57 148.5Q40 197 40 255Q40 319 59.5 369.5Q79 420 111 455Q143 490 185.5 508Q228 526 275 526ZM295 42Q330 42 356.5 57.5Q383 73 400.5 101Q418 129 427 169Q436 209 436 257Q436 304 425.5 345.5Q415 387 394.5 417.5Q374 448 344.5 466Q315 484 277 484Q206 484 171 427Q136 370 136 273Q136 226 146.5 184Q157 142 177.5 110.5Q198 79 227.5 60.5Q257 42 295 42Z" glyph-name="eth" horiz-adv-x="572" unicode="&#240;" /><glyph d="M73 63Q73 94 94 115Q115 136 146 136Q177 136 198 115Q219 94 219 63Q219 32 198 11Q177 -10 146 -10Q115 -10 94 11Q73 32 73 63ZM168 203H123L80 702H211Z" glyph-name="exclam" horiz-adv-x="292" unicode="!" /><glyph d="M73 467Q73 498 94 519Q115 540 146 540Q177 540 198 519Q219 498 219 467Q219 436 198 415Q177 394 146 394Q115 394 94 415Q73 436 73 467ZM211 -172H80L123 327H168Z" glyph-name="exclamdown" horiz-adv-x="292" unicode="&#161;" /><glyph d="M209 96Q209 77 214 66.5Q219 56 230.5 50Q242 44 260.5 41Q279 38 306 35V0H40V35Q56 37 70.5 40Q85 43 95 48.5Q105 54 111 64.5Q117 75 117 92V477H43V510L117 536V554Q117 600 129.5 639Q142 678 166 706Q190 734 225.5 750Q261 766 307 766Q358 766 389.5 746Q421 726 421 688Q421 671 412 657.5Q403 644 389 636H339V662Q339 691 327.5 708.5Q316 726 284 726Q246 726 227.5 688.5Q209 651 209 580V530H341V477H209Z" glyph-name="f" horiz-adv-x="361" unicode="f" /><glyph d="M445 639Q426 677 393.5 702Q361 727 316 727Q262 727 235.5 687.5Q209 648 209 580V530H341V477H209V92Q209 75 214.5 64.5Q220 54 230.5 48.5Q241 43 255 40Q269 37 286 35V0H40V35Q56 37 70.5 40Q85 43 95 48.5Q105 54 111 64.5Q117 75 117 92V477H43V510L117 536V554Q117 600 132 639Q147 678 174 706Q201 734 238.5 750Q276 766 320 766Q357 766 388 756Q419 746 441 729L512 761H537V453Q568 493 610 516.5Q652 540 707 540Q758 540 797 520.5Q836 501 862.5 467Q889 433 902 387.5Q915 342 915 290Q915 221 895 165.5Q875 110 840 71Q805 32 758.5 11Q712 -10 659 -10Q584 -10 530 10.5Q476 31 445 57ZM666 36Q701 36 730 51Q759 66 779.5 93.5Q800 121 811.5 160.5Q823 200 823 248Q823 290 814.5 330.5Q806 371 787 402.5Q768 434 738.5 453.5Q709 473 667 473Q629 473 594.5 460.5Q560 448 537 424V175Q537 137 546 110.5Q555 84 572 67.5Q589 51 613 43.5Q637 36 666 36Z" glyph-name="f_b" horiz-adv-x="955" /><glyph d="M773 639Q754 677 721.5 702Q689 727 644 727Q590 727 563.5 687.5Q537 648 537 580V530H669V477H537V92Q537 75 542.5 64.5Q548 54 558.5 48.5Q569 43 583 40Q597 37 614 35V0H368V35Q384 37 398.5 40Q413 43 423 48.5Q433 54 439 64.5Q445 75 445 92V477H209V92Q209 75 214.5 64.5Q220 54 230.5 48.5Q241 43 255 40Q269 37 286 35V0H40V35Q56 37 70.5 40Q85 43 95 48.5Q105 54 111 64.5Q117 75 117 92V477H43V510L117 536V548Q117 594 133.5 632Q150 670 179 697Q208 724 247 739Q286 754 330 754Q388 754 430 735Q469 717 491 693Q496 700 502 706Q529 734 566.5 750Q604 766 648 766Q685 766 716 756Q747 746 769 729L840 761H865V453Q896 493 938 516.5Q980 540 1035 540Q1086 540 1125 520.5Q1164 501 1190.5 467Q1217 433 1230 387.5Q1243 342 1243 290Q1243 221 1223 165.5Q1203 110 1168 71Q1133 32 1086.5 11Q1040 -10 987 -10Q912 -10 858 10.5Q804 31 773 57ZM994 36Q1029 36 1058 51Q1087 66 1107.5 93.5Q1128 121 1139.5 160.5Q1151 200 1151 248Q1151 290 1142.5 330.5Q1134 371 1115 402.5Q1096 434 1066.5 453.5Q1037 473 995 473Q957 473 922.5 460.5Q888 448 865 424V175Q865 137 874 110.5Q883 84 900 67.5Q917 51 941 43.5Q965 36 994 36ZM405 684Q371 713 326 713Q272 713 240.5 677.5Q209 642 209 574V528H445V554Q445 589 454 620Q437 657 405 684Z" glyph-name="f_f_b" horiz-adv-x="1283" /><glyph d="M773 639Q754 677 721.5 702Q689 727 644 727Q590 727 563.5 687.5Q537 648 537 580V530H669V477H537V92Q537 75 542.5 64.5Q548 54 558.5 48.5Q569 43 583 40Q597 37 614 35V0H368V35Q384 37 398.5 40Q413 43 423 48.5Q433 54 439 64.5Q445 75 445 92V477H209V92Q209 75 214.5 64.5Q220 54 230.5 48.5Q241 43 255 40Q269 37 286 35V0H40V35Q56 37 70.5 40Q85 43 95 48.5Q105 54 111 64.5Q117 75 117 92V477H43V510L117 536V548Q117 594 133.5 632Q150 670 179 697Q208 724 247 739Q286 754 330 754Q388 754 430 735Q469 717 491 693Q496 700 502 706Q529 734 566.5 750Q604 766 648 766Q685 766 716 756Q747 746 769 729L840 761H865V442Q883 460 903.5 477.5Q924 495 947.5 509Q971 523 998 531.5Q1025 540 1056 540Q1122 540 1159 502Q1196 464 1196 376V92Q1196 75 1202 64.5Q1208 54 1218.5 48.5Q1229 43 1243 40Q1257 37 1274 35V0H1027V35Q1043 37 1057.5 40Q1072 43 1082 48.5Q1092 54 1098 64.5Q1104 75 1104 92V369Q1104 423 1081.5 444.5Q1059 466 1011 466Q972 466 933 451Q894 436 865 413V92Q865 75 871 64.5Q877 54 887 48.5Q897 43 911 40Q925 37 942 35V0H695V35Q712 37 726 40Q740 43 750.5 48.5Q761 54 767 64.5Q773 75 773 92ZM405 684Q371 713 326 713Q272 713 240.5 677.5Q209 642 209 574V528H445V554Q445 589 454 620Q437 657 405 684Z" glyph-name="f_f_h" horiz-adv-x="1299" /><glyph d="M537 477V92Q537 75 542.5 64.5Q548 54 558.5 48.5Q569 43 583 40Q597 37 614 35V0H368V35Q384 37 398.5 40Q413 43 423 48.5Q433 54 439 64.5Q445 75 445 92V477H209V92Q209 75 214.5 64.5Q220 54 230.5 48.5Q241 43 255 40Q269 37 286 35V0H40V35Q56 37 70.5 40Q85 43 95 48.5Q105 54 111 64.5Q117 75 117 92V477H43V510L117 536V548Q117 594 133.5 632Q150 670 179 697Q208 724 247 739Q286 754 330 754Q388 754 430 735Q470 717 492 692Q498 699 504 705Q532 734 572 750Q612 766 661 766Q723 766 763 747Q803 728 803 688Q803 669 793 654.5Q783 640 769 632H711V657Q711 695 694.5 711Q678 727 642 727Q599 727 568 689.5Q537 652 537 574V528H815L843 540H865V86Q865 59 864.5 37Q864 15 861.5 -4Q859 -23 854 -40Q849 -57 840 -75Q820 -115 785 -146Q750 -177 707 -208L684 -183L716 -142Q735 -118 746.5 -95.5Q758 -73 764 -48Q770 -23 771.5 5.5Q773 34 773 70V477ZM405 684Q371 713 326 713Q272 713 240.5 677.5Q209 642 209 574V528H445V550Q445 587 454 619Q438 656 405 684Z" glyph-name="f_f_j" horiz-adv-x="944" /><glyph d="M773 639Q754 677 721.5 702Q689 727 644 727Q590 727 563.5 687.5Q537 648 537 580V530H669V477H537V92Q537 75 542.5 64.5Q548 54 558.5 48.5Q569 43 583 40Q597 37 614 35V0H368V35Q384 37 398.5 40Q413 43 423 48.5Q433 54 439 64.5Q445 75 445 92V477H209V92Q209 75 214.5 64.5Q220 54 230.5 48.5Q241 43 255 40Q269 37 286 35V0H40V35Q56 37 70.5 40Q85 43 95 48.5Q105 54 111 64.5Q117 75 117 92V477H43V510L117 536V548Q117 594 133.5 632Q150 670 179 697Q208 724 247 739Q286 754 330 754Q388 754 430 735Q469 717 491 693Q496 700 502 706Q529 734 566.5 750Q604 766 648 766Q685 766 716 756Q747 746 769 729L840 761H865V92Q865 75 871 64.5Q877 54 887 48.5Q897 43 911 40Q925 37 942 35V0H695V35Q712 37 726 40Q740 43 750.5 48.5Q761 54 767 64.5Q773 75 773 92ZM1041 441Q1049 449 1053 454.5Q1057 460 1057 468Q1057 480 1041.5 484.5Q1026 489 981 495V530H1208V495Q1178 488 1161.5 480.5Q1145 473 1128 457L970 310L1227 27V0H1126L875 283ZM405 684Q371 713 326 713Q272 713 240.5 677.5Q209 642 209 574V528H445V554Q445 589 454 620Q437 657 405 684Z" glyph-name="f_f_k" horiz-adv-x="1231" /><glyph d="M445 639Q426 677 393.5 702Q361 727 316 727Q262 727 235.5 687.5Q209 648 209 580V530H341V477H209V92Q209 75 214.5 64.5Q220 54 230.5 48.5Q241 43 255 40Q269 37 286 35V0H40V35Q56 37 70.5 40Q85 43 95 48.5Q105 54 111 64.5Q117 75 117 92V477H43V510L117 536V554Q117 600 132 639Q147 678 174 706Q201 734 238.5 750Q276 766 320 766Q357 766 388 756Q419 746 441 729L512 761H537V442Q555 460 575.5 477.5Q596 495 619.5 509Q643 523 670 531.5Q697 540 728 540Q794 540 831 502Q868 464 868 376V92Q868 75 874 64.5Q880 54 890.5 48.5Q901 43 915 40Q929 37 946 35V0H699V35Q715 37 729.5 40Q744 43 754 48.5Q764 54 770 64.5Q776 75 776 92V369Q776 423 753.5 444.5Q731 466 683 466Q644 466 605 451Q566 436 537 413V92Q537 75 543 64.5Q549 54 559 48.5Q569 43 583 40Q597 37 614 35V0H367V35Q384 37 398 40Q412 43 422.5 48.5Q433 54 439 64.5Q445 75 445 92Z" glyph-name="f_h" horiz-adv-x="971" /><glyph d="M209 477V92Q209 75 214.5 64.5Q220 54 230.5 48.5Q241 43 255 40Q269 37 286 35V0H40V35Q56 37 70.5 40Q85 43 95 48.5Q105 54 111 64.5Q117 75 117 92V477H43V510L117 536V550Q117 598 132.5 637.5Q148 677 176 705.5Q204 734 244 750Q284 766 333 766Q395 766 435 747Q475 728 475 688Q475 669 465 654.5Q455 640 441 632H383V657Q383 695 366.5 711Q350 727 314 727Q271 727 240 689.5Q209 652 209 574V528H487L515 540H537V86Q537 59 536.5 37Q536 15 533.5 -4Q531 -23 526 -40Q521 -57 512 -75Q492 -115 457 -146Q422 -177 379 -208L356 -183L388 -142Q407 -118 418.5 -95.5Q430 -73 436 -48Q442 -23 443.5 5.5Q445 34 445 70V477Z" glyph-name="f_j" horiz-adv-x="616" /><glyph d="M713 441Q721 449 725 454.5Q729 460 729 468Q729 480 713.5 484.5Q698 489 653 495V530H880V495Q850 488 833.5 480.5Q817 473 800 457L642 310L899 27V0H798L547 283ZM445 639Q426 677 393.5 702Q361 727 316 727Q262 727 235.5 687.5Q209 648 209 580V530H341V477H209V92Q209 75 214.5 64.5Q220 54 230.5 48.5Q241 43 255 40Q269 37 286 35V0H40V35Q56 37 70.5 40Q85 43 95 48.5Q105 54 111 64.5Q117 75 117 92V477H43V510L117 536V554Q117 600 132 639Q147 678 174 706Q201 734 238.5 750Q276 766 320 766Q357 766 388 756Q419 746 441 729L512 761H537V92Q537 75 543 64.5Q549 54 559 48.5Q569 43 583 40Q597 37 614 35V0H367V35Q384 37 398 40Q412 43 422.5 48.5Q433 54 439 64.5Q445 75 445 92Z" glyph-name="f_k" horiz-adv-x="903" /><glyph d="M494 706Q518 734 553.5 750Q589 766 635 766Q686 766 717.5 746Q749 726 749 688Q749 671 740 657.5Q731 644 717 636H667V662Q667 691 655.5 708.5Q644 726 612 726Q574 726 555.5 688.5Q537 651 537 580V528H668V477H537V96Q537 77 542 66.5Q547 56 558.5 50Q570 44 588.5 41Q607 38 634 35V0H368V35Q384 37 398.5 40Q413 43 423 48.5Q433 54 439 64.5Q445 75 445 92V477H209V92Q209 75 214.5 64.5Q220 54 230.5 48.5Q241 43 255 40Q269 37 286 35V0H40V35Q56 37 70.5 40Q85 43 95 48.5Q105 54 111 64.5Q117 75 117 92V477H43V510L117 536V548Q117 594 133.5 632Q150 670 179 697Q208 724 247 739Q286 754 330 754Q388 754 430 735Q466 719 487 697Q490 702 494 706ZM405 684Q371 713 326 713Q272 713 240.5 677.5Q209 642 209 574V528H445V554Q445 590 453 622Q437 657 405 684Z" glyph-name="ff" horiz-adv-x="689" unicode="&#64256;" /><glyph d="M504 705Q532 734 572 750Q612 766 661 766Q723 766 763 747Q803 728 803 688Q803 669 793 654.5Q783 640 769 632H711V657Q711 695 694.5 711Q678 727 642 727Q599 727 568 689.5Q537 652 537 574V528H815L843 540H865V92Q865 75 870.5 64.5Q876 54 886.5 48.5Q897 43 911 40Q925 37 942 35V0H696V35Q712 37 726.5 40Q741 43 751 48.5Q761 54 767 64.5Q773 75 773 92V477H537V92Q537 75 542.5 64.5Q548 54 558.5 48.5Q569 43 583 40Q597 37 614 35V0H368V35Q384 37 398.5 40Q413 43 423 48.5Q433 54 439 64.5Q445 75 445 92V477H209V92Q209 75 214.5 64.5Q220 54 230.5 48.5Q241 43 255 40Q269 37 286 35V0H40V35Q56 37 70.5 40Q85 43 95 48.5Q105 54 111 64.5Q117 75 117 92V477H43V510L117 536V548Q117 594 133.5 632Q150 670 179 697Q208 724 247 739Q286 754 330 754Q388 754 430 735Q470 717 492 692Q498 699 504 705ZM209 528H445V550Q445 587 454 619Q438 656 405 684Q371 713 326 713Q272 713 240.5 677.5Q209 642 209 574Z" glyph-name="ffi" horiz-adv-x="977" unicode="&#64259;" /><glyph d="M117 548Q117 594 133.5 632Q150 670 179 697Q208 724 247 739Q286 754 330 754Q388 754 430 735Q469 717 491 693Q496 700 502 706Q529 734 566.5 750Q604 766 648 766Q685 766 716 756Q747 746 769 729L840 761H865V92Q865 75 871 64.5Q877 54 887 48.5Q897 43 911 40Q925 37 942 35V0H695V35Q712 37 726 40Q740 43 750.5 48.5Q761 54 767 64.5Q773 75 773 92V639Q754 677 721.5 702Q689 727 644 727Q590 727 563.5 687.5Q537 648 537 580V530H669V477H537V92Q537 75 542.5 64.5Q548 54 558.5 48.5Q569 43 583 40Q597 37 614 35V0H368V35Q384 37 398.5 40Q413 43 423 48.5Q433 54 439 64.5Q445 75 445 92V477H209V92Q209 75 214.5 64.5Q220 54 230.5 48.5Q241 43 255 40Q269 37 286 35V0H40V35Q56 37 70.5 40Q85 43 95 48.5Q105 54 111 64.5Q117 75 117 92V477H43V510L117 536ZM405 684Q371 713 326 713Q272 713 240.5 677.5Q209 642 209 574V528H445V554Q445 589 454 620Q437 657 405 684Z" glyph-name="ffl" horiz-adv-x="976" unicode="&#64260;" /><glyph d="M40 0V35Q56 37 70.5 40Q85 43 95 48.5Q105 54 111 64.5Q117 75 117 92V477H43V510L117 536V550Q117 598 132.5 637.5Q148 677 176 705.5Q204 734 244 750Q284 766 333 766Q395 766 435 747Q475 728 475 688Q475 669 465 654.5Q455 640 441 632H383V657Q383 695 366.5 711Q350 727 314 727Q271 727 240 689.5Q209 652 209 574V528H487L515 540H537V92Q537 75 542.5 64.5Q548 54 558.5 48.5Q569 43 583 40Q597 37 614 35V0H368V35Q384 37 398.5 40Q413 43 423 48.5Q433 54 439 64.5Q445 75 445 92V477H209V92Q209 75 214.5 64.5Q220 54 230.5 48.5Q241 43 255 40Q269 37 286 35V0Z" glyph-name="fi" horiz-adv-x="649" unicode="&#64257;" /><glyph d="M441 607H163L139 454Q210 451 271 436Q332 421 377 392Q422 363 448 319Q474 275 474 212Q474 163 457.5 122.5Q441 82 411 52.5Q381 23 338.5 6.5Q296 -10 245 -10Q191 -10 150.5 1.5Q110 13 82.5 32.5Q55 52 41 77.5Q27 103 27 130Q27 156 40.5 174.5Q54 193 69 201H127V167Q127 104 157.5 69.5Q188 35 250 35Q318 35 352.5 74Q387 113 387 177Q387 227 363.5 263.5Q340 300 298.5 323Q257 346 200 357.5Q143 369 76 369L129 702H441Z" glyph-name="five" horiz-adv-x="515" unicode="5" /><glyph d="M117 477H43V510L117 536V554Q117 600 132 639Q147 678 174 706Q201 734 238.5 750Q276 766 320 766Q357 766 388 756Q419 746 441 729L512 761H537V92Q537 75 543 64.5Q549 54 559 48.5Q569 43 583 40Q597 37 614 35V0H367V35Q384 37 398 40Q412 43 422.5 48.5Q433 54 439 64.5Q445 75 445 92V639Q426 677 393.5 702Q361 727 316 727Q262 727 235.5 687.5Q209 648 209 580V530H341V477H209V92Q209 75 214.5 64.5Q220 54 230.5 48.5Q241 43 255 40Q269 37 286 35V0H40V35Q56 37 70.5 40Q85 43 95 48.5Q105 54 111 64.5Q117 75 117 92Z" glyph-name="fl" horiz-adv-x="648" unicode="&#64258;" /><glyph d="M99 352H185L197 439Q206 504 221.5 554.5Q237 605 260.5 640Q284 675 316.5 693.5Q349 712 392 712Q446 712 468.5 690.5Q491 669 491 639Q491 614 476.5 600.5Q462 587 442 581H423Q422 620 411.5 646.5Q401 673 372 673Q346 673 332 648.5Q318 624 312 580L281 352H394L390 310H275L248 105Q231 -25 184.5 -96.5Q138 -168 53 -168Q-1 -168 -23.5 -146.5Q-46 -125 -46 -95Q-46 -70 -31.5 -56.5Q-17 -43 3 -37H22Q23 -76 33.5 -102.5Q44 -129 73 -129Q99 -129 113 -104.5Q127 -80 133 -36L179 310H93Z" glyph-name="florin" horiz-adv-x="501" unicode="&#402;" /><glyph d="M362 232V563L91 232ZM362 180H18V218L409 702H457V232H578V180H457V112Q457 89 463.5 75Q470 61 483.5 53.5Q497 46 516 43Q535 40 561 39V0H258V39Q283 40 302.5 43Q322 46 335.5 53.5Q349 61 355.5 75Q362 89 362 112Z" glyph-name="four" horiz-adv-x="605" unicode="4" /><glyph d="M336 741H396L-54 0H-113Z" glyph-name="fraction" horiz-adv-x="283" unicode="&#8260;" /><glyph d="M255 189Q214 189 178 200Q171 202 164 204Q142 182 133 167Q122 149 122 130Q122 98 159 98H385Q453 98 491 72Q529 46 529 -19Q529 -61 507.5 -95.5Q486 -130 447 -155Q408 -180 354.5 -193.5Q301 -207 237 -207Q131 -207 73 -176.5Q15 -146 15 -83Q15 -62 23 -46Q31 -30 44 -18Q57 -6 73.5 3.5Q90 13 108 21Q51 41 51 94Q51 136 83 167Q109 192 143 214Q128 222 114 232Q87 254 71 285.5Q55 317 55 359Q55 401 70 434.5Q85 468 112 491.5Q139 515 176 527.5Q213 540 257 540Q283 540 305.5 535Q328 530 346 522L527 535V467H490L387 490V485Q416 466 436 435Q456 404 456 364Q456 324 441.5 292Q427 260 401 237Q375 214 337.5 201.5Q300 189 255 189ZM123 12Q109 -3 103 -19Q97 -35 97 -52Q97 -81 109 -101.5Q121 -122 142 -134.5Q163 -147 192 -153Q221 -159 256 -159Q299 -159 335 -152Q371 -145 396.5 -130.5Q422 -116 436.5 -95Q451 -74 451 -47Q451 -10 429 1Q407 12 367 12ZM265 228Q316 228 341.5 263.5Q367 299 367 356Q367 385 359 411Q351 437 335.5 456.5Q320 476 298 487Q276 498 248 498Q197 498 172 462.5Q147 427 147 370Q147 341 154.5 315.5Q162 290 177 270.5Q192 251 214 239.5Q236 228 265 228Z" glyph-name="g" horiz-adv-x="544" unicode="g" /><glyph d="M255 189Q214 189 178 200Q171 202 164 204Q142 182 133 167Q122 149 122 130Q122 98 159 98H385Q453 98 491 72Q529 46 529 -19Q529 -61 507.5 -95.5Q486 -130 447 -155Q408 -180 354.5 -193.5Q301 -207 237 -207Q131 -207 73 -176.5Q15 -146 15 -83Q15 -62 23 -46Q31 -30 44 -18Q57 -6 73.5 3.5Q90 13 108 21Q51 41 51 94Q51 136 83 167Q109 192 143 214Q128 222 114 232Q87 254 71 285.5Q55 317 55 359Q55 401 70 434.5Q85 468 112 491.5Q139 515 176 527.5Q213 540 257 540Q283 540 305.5 535Q328 530 346 522L527 535V467H490L387 490V485Q416 466 436 435Q456 404 456 364Q456 324 441.5 292Q427 260 401 237Q375 214 337.5 201.5Q300 189 255 189ZM123 12Q109 -3 103 -19Q97 -35 97 -52Q97 -81 109 -101.5Q121 -122 142 -134.5Q163 -147 192 -153Q221 -159 256 -159Q299 -159 335 -152Q371 -145 396.5 -130.5Q422 -116 436.5 -95Q451 -74 451 -47Q451 -10 429 1Q407 12 367 12ZM265 228Q316 228 341.5 263.5Q367 299 367 356Q367 385 359 411Q351 437 335.5 456.5Q320 476 298 487Q276 498 248 498Q197 498 172 462.5Q147 427 147 370Q147 341 154.5 315.5Q162 290 177 270.5Q192 251 214 239.5Q236 228 265 228ZM276 593Q208 593 171.5 636.5Q135 680 135 761H174Q178 707 206.5 683Q235 659 276 659Q317 659 345.5 683Q374 707 378 761H417Q417 680 380.5 636.5Q344 593 276 593Z" glyph-name="gbreve" horiz-adv-x="544" unicode="&#287;" /><glyph d="M255 189Q214 189 178 200Q171 202 164 204Q142 182 133 167Q122 149 122 130Q122 98 159 98H385Q453 98 491 72Q529 46 529 -19Q529 -61 507.5 -95.5Q486 -130 447 -155Q408 -180 354.5 -193.5Q301 -207 237 -207Q131 -207 73 -176.5Q15 -146 15 -83Q15 -62 23 -46Q31 -30 44 -18Q57 -6 73.5 3.5Q90 13 108 21Q51 41 51 94Q51 136 83 167Q109 192 143 214Q128 222 114 232Q87 254 71 285.5Q55 317 55 359Q55 401 70 434.5Q85 468 112 491.5Q139 515 176 527.5Q213 540 257 540Q283 540 305.5 535Q328 530 346 522L527 535V467H490L387 490V485Q416 466 436 435Q456 404 456 364Q456 324 441.5 292Q427 260 401 237Q375 214 337.5 201.5Q300 189 255 189ZM123 12Q109 -3 103 -19Q97 -35 97 -52Q97 -81 109 -101.5Q121 -122 142 -134.5Q163 -147 192 -153Q221 -159 256 -159Q299 -159 335 -152Q371 -145 396.5 -130.5Q422 -116 436.5 -95Q451 -74 451 -47Q451 -10 429 1Q407 12 367 12ZM265 228Q316 228 341.5 263.5Q367 299 367 356Q367 385 359 411Q351 437 335.5 456.5Q320 476 298 487Q276 498 248 498Q197 498 172 462.5Q147 427 147 370Q147 341 154.5 315.5Q162 290 177 270.5Q192 251 214 239.5Q236 228 265 228ZM450 592H404L276 695L148 592H102L242 765H310Z" glyph-name="gcircumflex" horiz-adv-x="544" unicode="&#285;" /><glyph d="M255 189Q214 189 178 200Q171 202 164 204Q142 182 133 167Q122 149 122 130Q122 98 159 98H385Q453 98 491 72Q529 46 529 -19Q529 -61 507.5 -95.5Q486 -130 447 -155Q408 -180 354.5 -193.5Q301 -207 237 -207Q131 -207 73 -176.5Q15 -146 15 -83Q15 -62 23 -46Q31 -30 44 -18Q57 -6 73.5 3.5Q90 13 108 21Q51 41 51 94Q51 136 83 167Q109 192 143 214Q128 222 114 232Q87 254 71 285.5Q55 317 55 359Q55 401 70 434.5Q85 468 112 491.5Q139 515 176 527.5Q213 540 257 540Q283 540 305.5 535Q328 530 346 522L527 535V467H490L387 490V485Q416 466 436 435Q456 404 456 364Q456 324 441.5 292Q427 260 401 237Q375 214 337.5 201.5Q300 189 255 189ZM123 12Q109 -3 103 -19Q97 -35 97 -52Q97 -81 109 -101.5Q121 -122 142 -134.5Q163 -147 192 -153Q221 -159 256 -159Q299 -159 335 -152Q371 -145 396.5 -130.5Q422 -116 436.5 -95Q451 -74 451 -47Q451 -10 429 1Q407 12 367 12ZM265 228Q316 228 341.5 263.5Q367 299 367 356Q367 385 359 411Q351 437 335.5 456.5Q320 476 298 487Q276 498 248 498Q197 498 172 462.5Q147 427 147 370Q147 341 154.5 315.5Q162 290 177 270.5Q192 251 214 239.5Q236 228 265 228ZM303 708Q326 703 335.5 690Q345 677 345 660Q345 636 327.5 621.5Q310 607 282 607Q246 607 226.5 629Q207 651 207 683Q207 727 235 756Q263 785 333 785V752Q255 752 255 708Z" glyph-name="gcommaaccent" horiz-adv-x="544" unicode="&#291;" /><glyph d="M255 189Q214 189 178 200Q171 202 164 204Q142 182 133 167Q122 149 122 130Q122 98 159 98H385Q453 98 491 72Q529 46 529 -19Q529 -61 507.5 -95.5Q486 -130 447 -155Q408 -180 354.5 -193.5Q301 -207 237 -207Q131 -207 73 -176.5Q15 -146 15 -83Q15 -62 23 -46Q31 -30 44 -18Q57 -6 73.5 3.5Q90 13 108 21Q51 41 51 94Q51 136 83 167Q109 192 143 214Q128 222 114 232Q87 254 71 285.5Q55 317 55 359Q55 401 70 434.5Q85 468 112 491.5Q139 515 176 527.5Q213 540 257 540Q283 540 305.5 535Q328 530 346 522L527 535V467H490L387 490V485Q416 466 436 435Q456 404 456 364Q456 324 441.5 292Q427 260 401 237Q375 214 337.5 201.5Q300 189 255 189ZM123 12Q109 -3 103 -19Q97 -35 97 -52Q97 -81 109 -101.5Q121 -122 142 -134.5Q163 -147 192 -153Q221 -159 256 -159Q299 -159 335 -152Q371 -145 396.5 -130.5Q422 -116 436.5 -95Q451 -74 451 -47Q451 -10 429 1Q407 12 367 12ZM265 228Q316 228 341.5 263.5Q367 299 367 356Q367 385 359 411Q351 437 335.5 456.5Q320 476 298 487Q276 498 248 498Q197 498 172 462.5Q147 427 147 370Q147 341 154.5 315.5Q162 290 177 270.5Q192 251 214 239.5Q236 228 265 228ZM276 611Q249 611 230 630.5Q211 650 211 678Q211 706 230 725.5Q249 745 276 745Q303 745 322 725.5Q341 706 341 678Q341 650 322 630.5Q303 611 276 611Z" glyph-name="gdotaccent" horiz-adv-x="544" unicode="&#289;" /><glyph d="M392 409Q392 395 400 385Q408 375 422.5 365Q437 355 458 344Q479 333 506 317Q532 302 554 286.5Q576 271 591.5 252Q607 233 616 209.5Q625 186 625 153Q625 117 611 87Q597 57 573 35.5Q549 14 518 2.5Q487 -9 454 -9Q403 -9 364.5 5Q326 19 300 44L294 177H331Q346 113 372.5 74.5Q399 36 452 36Q494 36 518.5 58Q543 80 543 123Q543 146 535.5 163Q528 180 513.5 194.5Q499 209 477.5 223Q456 237 428 253Q403 267 383.5 280.5Q364 294 351 309.5Q338 325 331.5 343Q325 361 325 384Q325 414 343.5 438Q362 462 384 488Q406 514 424.5 545.5Q443 577 443 622Q443 671 420 698.5Q397 726 342 726Q281 726 245.5 679.5Q210 633 210 546V0H40V35Q56 37 70.5 40Q85 43 95 48.5Q105 54 111 64.5Q117 75 117 92V477H43V510L117 536Q117 589 133 631.5Q149 674 179.5 704Q210 734 253 750Q296 766 350 766Q435 766 481 729.5Q527 693 527 623Q527 595 517 574Q507 553 492 535.5Q477 518 459.5 503Q442 488 427 473.5Q412 459 402 443.5Q392 428 392 409Z" glyph-name="germandbls" horiz-adv-x="659" unicode="&#223;" /><glyph d="M271 761 345 592H306L155 761Z" glyph-name="grave" horiz-adv-x="500" unicode="`" /><glyph d="M273 910 347 761H308L153 910Z" glyph-name="grave.cap" horiz-adv-x="500" /><glyph d="M373 364 63 175V251L263 370L63 487V563L373 374Z" glyph-name="greater" horiz-adv-x="413" unicode="&gt;" /><glyph d="M383 399 73 233V305L263 404L73 503V574L383 408ZM383 144H73V205H383Z" glyph-name="greaterequal" horiz-adv-x="433" unicode="&#8805;" /><glyph d="M45 279 206 469H253L138 274L253 79H206L45 269ZM224 279 385 469H432L317 274L432 79H385L224 269Z" glyph-name="guillemotleft" horiz-adv-x="477" unicode="&#171;" /><glyph d="M253 269 92 79H45L160 274L45 469H92L253 279ZM432 269 271 79H224L339 274L224 469H271L432 279Z" glyph-name="guillemotright" horiz-adv-x="477" unicode="&#187;" /><glyph d="M45 279 206 469H253L138 274L253 79H206L45 269Z" glyph-name="guilsinglleft" horiz-adv-x="298" unicode="&#8249;" /><glyph d="M253 269 92 79H45L160 274L45 469H92L253 279Z" glyph-name="guilsinglright" horiz-adv-x="298" unicode="&#8250;" /><glyph d="M202 442Q220 460 240.5 477.5Q261 495 284.5 509Q308 523 335 531.5Q362 540 393 540Q459 540 496 502Q533 464 533 376V92Q533 75 539 64.5Q545 54 555.5 48.5Q566 43 580 40Q594 37 611 35V0H364V35Q380 37 394.5 40Q409 43 419 48.5Q429 54 435 64.5Q441 75 441 92V369Q441 423 418.5 444.5Q396 466 348 466Q309 466 270 451Q231 436 202 413V92Q202 75 208 64.5Q214 54 224 48.5Q234 43 248 40Q262 37 279 35V0H32V35Q49 37 63 40Q77 43 87.5 48.5Q98 54 104 64.5Q110 75 110 92V655L37 690V711L177 761H202Z" glyph-name="h" horiz-adv-x="636" unicode="h" /><glyph d="M43 584V624H116V690H43V717L183 761H208V624H363V584H208V433Q226 451 246.5 468.5Q267 486 290.5 500Q314 514 341 522.5Q368 531 399 531Q465 531 502 493Q539 455 539 367V92Q539 75 545 64.5Q551 54 561.5 48.5Q572 43 586 40Q600 37 617 35V0H370V35Q386 37 400.5 40Q415 43 425 48.5Q435 54 441 64.5Q447 75 447 92V360Q447 414 424.5 435.5Q402 457 354 457Q315 457 276 442Q237 427 208 404V92Q208 75 214 64.5Q220 54 230 48.5Q240 43 254 40Q268 37 285 35V0H38V35Q55 37 69 40Q83 43 93.5 48.5Q104 54 110 64.5Q116 75 116 92V584Z" glyph-name="hbar" horiz-adv-x="642" unicode="&#295;" /><glyph d="M202 442Q220 460 240.5 477.5Q261 495 284.5 509Q308 523 335 531.5Q362 540 393 540Q459 540 496 502Q533 464 533 376V92Q533 75 539 64.5Q545 54 555.5 48.5Q566 43 580 40Q594 37 611 35V0H364V35Q380 37 394.5 40Q409 43 419 48.5Q429 54 435 64.5Q441 75 441 92V369Q441 423 418.5 444.5Q396 466 348 466Q309 466 270 451Q231 436 202 413V92Q202 75 208 64.5Q214 54 224 48.5Q234 43 248 40Q262 37 279 35V0H32V35Q49 37 63 40Q77 43 87.5 48.5Q98 54 104 64.5Q110 75 110 92V655L37 690V711L177 761H202ZM492 795H446L308 885L170 795H124L274 954H342Z" glyph-name="hcircumflex" horiz-adv-x="636" unicode="&#293;" /><glyph d="M259 761 130 592H90L157 761ZM409 761 280 592H240L307 761Z" glyph-name="hungarumlaut" horiz-adv-x="500" unicode="&#733;" /><glyph d="M261 910 128 761H88L155 910ZM411 910 278 761H238L305 910Z" glyph-name="hungarumlaut.cap" horiz-adv-x="500" /><glyph d="M50 267V343H310V267Z" glyph-name="hyphen" horiz-adv-x="360" unicode="-" /><glyph d="M209 92Q209 75 214.5 64.5Q220 54 230.5 48.5Q241 43 255 40Q269 37 286 35V0H40V35Q56 37 70.5 40Q85 43 95 48.5Q105 54 111 64.5Q117 75 117 92V434L45 469V490L184 540H209ZM159 611Q132 611 113 630.5Q94 650 94 678Q94 706 113 725.5Q132 745 159 745Q186 745 205 725.5Q224 706 224 678Q224 650 205 630.5Q186 611 159 611Z" glyph-name="i" horiz-adv-x="321" unicode="i" /><glyph d="M209 92Q209 75 214.5 64.5Q220 54 230.5 48.5Q241 43 255 40Q269 37 286 35V0H40V35Q56 37 70.5 40Q85 43 95 48.5Q105 54 111 64.5Q117 75 117 92V434L45 469V490L184 540H209ZM320 761 169 592H130L204 761Z" glyph-name="iacute" horiz-adv-x="321" unicode="&#237;" /><glyph d="M209 92Q209 75 214.5 64.5Q220 54 230.5 48.5Q241 43 255 40Q269 37 286 35V0H40V35Q56 37 70.5 40Q85 43 95 48.5Q105 54 111 64.5Q117 75 117 92V434L45 469V490L184 540H209ZM161 593Q93 593 56.5 636.5Q20 680 20 761H59Q63 707 91.5 683Q120 659 161 659Q202 659 230.5 683Q259 707 263 761H302Q302 680 265.5 636.5Q229 593 161 593Z" glyph-name="ibreve" horiz-adv-x="321" unicode="&#301;" /><glyph d="M209 92Q209 75 214.5 64.5Q220 54 230.5 48.5Q241 43 255 40Q269 37 286 35V0H40V35Q56 37 70.5 40Q85 43 95 48.5Q105 54 111 64.5Q117 75 117 92V434L45 469V490L184 540H209ZM335 592H289L161 695L33 592H-13L127 765H195Z" glyph-name="icircumflex" horiz-adv-x="321" unicode="&#238;" /><glyph d="M209 92Q209 75 214.5 64.5Q220 54 230.5 48.5Q241 43 255 40Q269 37 286 35V0H40V35Q56 37 70.5 40Q85 43 95 48.5Q105 54 111 64.5Q117 75 117 92V434L45 469V490L184 540H209ZM5 677Q5 702 22.5 719.5Q40 737 66 737Q92 737 109.5 719.5Q127 702 127 677Q127 651 109.5 633Q92 615 66 615Q40 615 22.5 633Q5 651 5 677ZM195 677Q195 702 212.5 719.5Q230 737 256 737Q282 737 299.5 719.5Q317 702 317 677Q317 651 299.5 633Q282 615 256 615Q230 615 212.5 633Q195 651 195 677Z" glyph-name="idieresis" horiz-adv-x="321" unicode="&#239;" /><glyph d="M209 92Q209 75 214.5 64.5Q220 54 230.5 48.5Q241 43 255 40Q269 37 286 35V0H40V35Q56 37 70.5 40Q85 43 95 48.5Q105 54 111 64.5Q117 75 117 92V434L45 469V490L184 540H209ZM161 611Q134 611 115 630.5Q96 650 96 678Q96 706 115 725.5Q134 745 161 745Q188 745 207 725.5Q226 706 226 678Q226 650 207 630.5Q188 611 161 611Z" glyph-name="idotaccent" horiz-adv-x="321" /><glyph d="M209 92Q209 75 214.5 64.5Q220 54 230.5 48.5Q241 43 255 40Q269 37 286 35V0H40V35Q56 37 70.5 40Q85 43 95 48.5Q105 54 111 64.5Q117 75 117 92V434L45 469V490L184 540H209ZM112 761 186 592H147L-4 761Z" glyph-name="igrave" horiz-adv-x="321" unicode="&#236;" /><glyph d="M36 681H268V623H36ZM209 92Q209 75 214.5 64.5Q220 54 230.5 48.5Q241 43 255 40Q269 37 286 35V0H40V35Q56 37 70.5 40Q85 43 95 48.5Q105 54 111 64.5Q117 75 117 92V434L45 469V490L184 540H209Z" glyph-name="imacron" horiz-adv-x="321" unicode="&#299;" /><glyph d="M231 0Q208 -10 185 -21.5Q162 -33 144 -46.5Q126 -60 115 -76.5Q104 -93 104 -112Q104 -131 116.5 -143Q129 -155 153 -155Q177 -155 199 -146Q221 -137 245 -118L257 -135Q246 -148 232.5 -161.5Q219 -175 202.5 -185.5Q186 -196 167 -203Q148 -210 127 -210Q89 -210 63 -188.5Q37 -167 37 -128Q37 -100 52.5 -77Q68 -54 93.5 -36Q119 -18 151 -3Q155 -1 159 0H40V35Q56 37 70.5 40Q85 43 95 48.5Q105 54 111 64.5Q117 75 117 92V434L45 469V490L184 540H209V92Q209 75 214.5 64.5Q220 54 230.5 48.5Q241 43 255 40Q269 37 286 35V0ZM159 611Q132 611 113 630.5Q94 650 94 678Q94 706 113 725.5Q132 745 159 745Q186 745 205 725.5Q224 706 224 678Q224 650 205 630.5Q186 611 159 611Z" glyph-name="iogonek" horiz-adv-x="321" unicode="&#303;" /><glyph d="M330 731Q313 694 299 670.5Q285 647 271.5 634Q258 621 244 616Q230 611 212 611Q192 611 175.5 622Q159 633 145 646.5Q131 660 118.5 671.5Q106 683 93 683Q70 683 57.5 667.5Q45 652 28 621L-9 631Q8 668 22 691.5Q36 715 49.5 728Q63 741 77 746Q91 751 109 751Q130 751 146.5 739.5Q163 728 177.5 714.5Q192 701 204 690Q216 679 228 679Q251 679 263.5 694.5Q276 710 293 741ZM209 92Q209 75 214.5 64.5Q220 54 230.5 48.5Q241 43 255 40Q269 37 286 35V0H40V35Q56 37 70.5 40Q85 43 95 48.5Q105 54 111 64.5Q117 75 117 92V434L45 469V490L184 540H209Z" glyph-name="itilde" horiz-adv-x="321" unicode="&#297;" /><glyph d="M191 86Q191 59 190.5 37Q190 15 187.5 -4Q185 -23 180 -40Q175 -57 166 -75Q146 -115 111 -146Q76 -177 33 -208L10 -183L42 -142Q61 -118 72.5 -95.5Q84 -73 90 -48Q96 -23 97.5 5.5Q99 34 99 70V434L26 469V490L167 540H191ZM141 611Q114 611 95 630.5Q76 650 76 678Q76 706 95 725.5Q114 745 141 745Q168 745 187 725.5Q206 706 206 678Q206 650 187 630.5Q168 611 141 611Z" glyph-name="j" horiz-adv-x="270" unicode="j" /><glyph d="M191 86Q191 59 190.5 37Q190 15 187.5 -4Q185 -23 180 -40Q175 -57 166 -75Q146 -115 111 -146Q76 -177 33 -208L10 -183L42 -142Q61 -118 72.5 -95.5Q84 -73 90 -48Q96 -23 97.5 5.5Q99 34 99 70V434L26 469V490L167 540H191ZM316 592H270L142 695L14 592H-32L108 765H176Z" glyph-name="jcircumflex" horiz-adv-x="270" unicode="&#309;" /><glyph d="M378 441Q386 449 390 454.5Q394 460 394 468Q394 480 378.5 484.5Q363 489 318 495V530H545V495Q515 488 498.5 480.5Q482 473 465 457L307 310L564 27V0H463L212 283ZM202 92Q202 75 208 64.5Q214 54 224 48.5Q234 43 248 40Q262 37 279 35V0H32V35Q49 37 63 40Q77 43 87.5 48.5Q98 54 104 64.5Q110 75 110 92V655L37 690V711L177 761H202Z" glyph-name="k" horiz-adv-x="568" unicode="k" /><glyph d="M378 441Q386 449 390 454.5Q394 460 394 468Q394 480 378.5 484.5Q363 489 318 495V530H545V495Q515 488 498.5 480.5Q482 473 465 457L307 310L564 27V0H463L212 283ZM202 92Q202 75 208 64.5Q214 54 224 48.5Q234 43 248 40Q262 37 279 35V0H32V35Q49 37 63 40Q77 43 87.5 48.5Q98 54 104 64.5Q110 75 110 92V655L37 690V711L177 761H202ZM271 -153Q248 -148 238.5 -135Q229 -122 229 -105Q229 -81 246.5 -66.5Q264 -52 292 -52Q328 -52 347.5 -74Q367 -96 367 -128Q367 -172 339 -201Q311 -230 241 -230V-197Q319 -197 319 -153Z" glyph-name="kcommaaccent" horiz-adv-x="568" unicode="&#311;" /><glyph d="M378 441Q386 449 390 454.5Q394 460 394 468Q394 480 378.5 484.5Q363 489 318 495V530H545V495Q515 488 498.5 480.5Q482 473 465 457L307 310L564 27V0H463L212 283ZM202 92Q202 75 208 64.5Q214 54 224 48.5Q234 43 248 40Q262 37 279 35V0H32V35Q49 37 63 40Q77 43 87.5 48.5Q98 54 104 64.5Q110 75 110 92V436L37 471V492L177 542H202Z" glyph-name="kgreenlandic" horiz-adv-x="568" unicode="&#312;" /><glyph d="M202 92Q202 75 208 64.5Q214 54 224 48.5Q234 43 248 40Q262 37 279 35V0H32V35Q49 37 63 40Q77 43 87.5 48.5Q98 54 104 64.5Q110 75 110 92V655L37 690V711L177 761H202Z" glyph-name="l" horiz-adv-x="313" unicode="l" /><glyph d="M202 92Q202 75 208 64.5Q214 54 224 48.5Q234 43 248 40Q262 37 279 35V0H32V35Q49 37 63 40Q77 43 87.5 48.5Q98 54 104 64.5Q110 75 110 92V655L37 690V711L177 761H202ZM316 940 161 791H122L196 940Z" glyph-name="lacute" horiz-adv-x="313" unicode="&#314;" /><glyph d="M202 92Q202 75 208 64.5Q214 54 224 48.5Q234 43 248 40Q262 37 279 35V0H32V35Q49 37 63 40Q77 43 87.5 48.5Q98 54 104 64.5Q110 75 110 92V655L37 690V711L177 761H202ZM326 556H291L311 761H408Z" glyph-name="lcaron" horiz-adv-x="318" unicode="&#318;" /><glyph d="M202 92Q202 75 208 64.5Q214 54 224 48.5Q234 43 248 40Q262 37 279 35V0H32V35Q49 37 63 40Q77 43 87.5 48.5Q98 54 104 64.5Q110 75 110 92V655L37 690V711L177 761H202ZM128 -153Q105 -148 95.5 -135Q86 -122 86 -105Q86 -81 103.5 -66.5Q121 -52 149 -52Q185 -52 204.5 -74Q224 -96 224 -128Q224 -172 196 -201Q168 -230 98 -230V-197Q176 -197 176 -153Z" glyph-name="lcommaaccent" horiz-adv-x="313" unicode="&#316;" /><glyph d="M202 92Q202 75 208 64.5Q214 54 224 48.5Q234 43 248 40Q262 37 279 35V0H32V35Q49 37 63 40Q77 43 87.5 48.5Q98 54 104 64.5Q110 75 110 92V655L37 690V711L177 761H202ZM344 313Q317 313 298 332.5Q279 352 279 380Q279 408 298 427.5Q317 447 344 447Q371 447 390 427.5Q409 408 409 380Q409 352 390 332.5Q371 313 344 313Z" glyph-name="ldot" horiz-adv-x="389" unicode="&#320;" /><glyph d="M40 374 350 563V487L151 370L350 251V175L40 364Z" glyph-name="less" horiz-adv-x="413" unicode="&lt;" /><glyph d="M50 408 360 574V503L170 404L360 305V233L50 399ZM50 205H360V144H50Z" glyph-name="lessequal" horiz-adv-x="433" unicode="&#8804;" /><glyph d="M219 92Q219 75 225 64.5Q231 54 241 48.5Q251 43 265 40Q279 37 296 35V0H49V35Q66 37 80 40Q94 43 104.5 48.5Q115 54 121 64.5Q127 75 127 92V376L29 318V368L127 427V655L54 690V711L194 761H219V478L324 541V491L219 427Z" glyph-name="lslash" horiz-adv-x="347" unicode="&#322;" /><glyph d="M676 0V35Q693 37 707 40Q721 43 731.5 48.5Q742 54 748 64.5Q754 75 754 92V369Q754 423 734.5 444.5Q715 466 668 466Q629 466 593 451Q557 436 528 413V92Q528 75 534 64.5Q540 54 550 48.5Q560 43 574 40Q588 37 605 35V0H358V35Q375 37 389 40Q403 43 413.5 48.5Q424 54 430 64.5Q436 75 436 92V369Q436 423 416.5 444.5Q397 466 350 466Q311 466 274.5 451Q238 436 209 413V92Q209 75 214.5 64.5Q220 54 230.5 48.5Q241 43 255 40Q269 37 286 35V0H40V35Q56 37 70.5 40Q85 43 95 48.5Q105 54 111 64.5Q117 75 117 92V434L45 469V490L184 540H209V442Q227 460 247.5 477.5Q268 495 290.5 509Q313 523 339 531.5Q365 540 395 540Q447 540 479 516Q511 492 522 439Q540 457 561 475Q582 493 606 507.5Q630 522 656.5 531Q683 540 713 540Q779 540 812.5 501Q846 462 846 376V92Q846 75 852 64.5Q858 54 868 48.5Q878 43 892 40Q906 37 923 35V0Z" glyph-name="m" horiz-adv-x="948" unicode="m" /><glyph d="M119 681H381V623H119Z" glyph-name="macron" horiz-adv-x="500" unicode="&#175;" /><glyph d="M109 845H391V783H109Z" glyph-name="macron.cap" horiz-adv-x="500" /><glyph d="M63 402H501V340H63Z" glyph-name="minus" horiz-adv-x="564" unicode="&#8722;" /><glyph d="M63 504 107 548 243 409 381 548 425 504 287 366 425 229 381 187 243 323 107 187 63 229 200 366Z" glyph-name="multiply" horiz-adv-x="488" unicode="&#215;" /><glyph d="M449 369Q449 423 426.5 444.5Q404 466 356 466Q317 466 277.5 451Q238 436 209 413V92Q209 75 214.5 64.5Q220 54 230.5 48.5Q241 43 255 40Q269 37 286 35V0H40V35Q56 37 70.5 40Q85 43 95 48.5Q105 54 111 64.5Q117 75 117 92V434L45 469V490L184 540H209V442Q227 460 248 477.5Q269 495 292.5 509Q316 523 343 531.5Q370 540 401 540Q467 540 504 502Q541 464 541 376V92Q541 75 547 64.5Q553 54 563.5 48.5Q574 43 588 40Q602 37 619 35V0H372V35Q388 37 402.5 40Q417 43 427 48.5Q437 54 443 64.5Q449 75 449 92Z" glyph-name="n" horiz-adv-x="644" unicode="n" /><glyph d="M449 369Q449 423 426.5 444.5Q404 466 356 466Q317 466 277.5 451Q238 436 209 413V92Q209 75 214.5 64.5Q220 54 230.5 48.5Q241 43 255 40Q269 37 286 35V0H40V35Q56 37 70.5 40Q85 43 95 48.5Q105 54 111 64.5Q117 75 117 92V434L45 469V490L184 540H209V442Q227 460 248 477.5Q269 495 292.5 509Q316 523 343 531.5Q370 540 401 540Q467 540 504 502Q541 464 541 376V92Q541 75 547 64.5Q553 54 563.5 48.5Q574 43 588 40Q602 37 619 35V0H372V35Q388 37 402.5 40Q417 43 427 48.5Q437 54 443 64.5Q449 75 449 92ZM488 761 337 592H298L372 761Z" glyph-name="nacute" horiz-adv-x="644" unicode="&#324;" /><glyph d="M449 369Q449 423 426.5 444.5Q404 466 356 466Q317 466 277.5 451Q238 436 209 413V92Q209 75 214.5 64.5Q220 54 230.5 48.5Q241 43 255 40Q269 37 286 35V0H40V35Q56 37 70.5 40Q85 43 95 48.5Q105 54 111 64.5Q117 75 117 92V434L45 469V490L184 540H209V442Q227 460 248 477.5Q269 495 292.5 509Q316 523 343 531.5Q370 540 401 540Q467 540 504 502Q541 464 541 376V92Q541 75 547 64.5Q553 54 563.5 48.5Q574 43 588 40Q602 37 619 35V0H372V35Q388 37 402.5 40Q417 43 427 48.5Q437 54 443 64.5Q449 75 449 92ZM363 596H295L155 769H201L329 666L457 769H503Z" glyph-name="ncaron" horiz-adv-x="644" unicode="&#328;" /><glyph d="M449 369Q449 423 426.5 444.5Q404 466 356 466Q317 466 277.5 451Q238 436 209 413V92Q209 75 214.5 64.5Q220 54 230.5 48.5Q241 43 255 40Q269 37 286 35V0H40V35Q56 37 70.5 40Q85 43 95 48.5Q105 54 111 64.5Q117 75 117 92V434L45 469V490L184 540H209V442Q227 460 248 477.5Q269 495 292.5 509Q316 523 343 531.5Q370 540 401 540Q467 540 504 502Q541 464 541 376V92Q541 75 547 64.5Q553 54 563.5 48.5Q574 43 588 40Q602 37 619 35V0H372V35Q388 37 402.5 40Q417 43 427 48.5Q437 54 443 64.5Q449 75 449 92ZM302 -153Q279 -148 269.5 -135Q260 -122 260 -105Q260 -81 277.5 -66.5Q295 -52 323 -52Q359 -52 378.5 -74Q398 -96 398 -128Q398 -172 370 -201Q342 -230 272 -230V-197Q350 -197 350 -153Z" glyph-name="ncommaaccent" horiz-adv-x="644" unicode="&#326;" /><glyph d="M104 23Q176 44 232.5 77Q289 110 329.5 151Q370 192 393.5 240.5Q417 289 424 340Q392 303 344.5 281Q297 259 245 259Q200 259 162.5 273Q125 287 98 313.5Q71 340 56 378.5Q41 417 41 466Q41 522 59 567.5Q77 613 109 645Q141 677 184.5 694.5Q228 712 280 712Q340 712 386.5 690Q433 668 465.5 629.5Q498 591 514.5 538.5Q531 486 531 425Q531 339 503 266Q475 193 422.5 137.5Q370 82 294.5 44.5Q219 7 124 -9ZM298 325Q336 325 370.5 338Q405 351 426 367Q428 380 428.5 397Q429 414 429 424Q429 479 417.5 523.5Q406 568 385.5 599.5Q365 631 336.5 648Q308 665 274 665Q208 665 174 620Q140 575 140 497Q140 415 181 370Q222 325 298 325Z" glyph-name="nine" horiz-adv-x="576" unicode="9" /><glyph glyph-name="nonmarkingreturn" horiz-adv-x="225" unicode="" /><glyph d="M68 332H225L282 409H68V471H327L403 574H472L396 471H506V409H350L294 332H506V271H249L173 167H104L180 271H68Z" glyph-name="notequal" horiz-adv-x="574" unicode="&#8800;" /><glyph d="M449 369Q449 423 426.5 444.5Q404 466 356 466Q317 466 277.5 451Q238 436 209 413V92Q209 75 214.5 64.5Q220 54 230.5 48.5Q241 43 255 40Q269 37 286 35V0H40V35Q56 37 70.5 40Q85 43 95 48.5Q105 54 111 64.5Q117 75 117 92V434L45 469V490L184 540H209V442Q227 460 248 477.5Q269 495 292.5 509Q316 523 343 531.5Q370 540 401 540Q467 540 504 502Q541 464 541 376V92Q541 75 547 64.5Q553 54 563.5 48.5Q574 43 588 40Q602 37 619 35V0H372V35Q388 37 402.5 40Q417 43 427 48.5Q437 54 443 64.5Q449 75 449 92ZM513 731Q496 694 482 670.5Q468 647 454.5 634Q441 621 427 616Q413 611 395 611Q372 611 352.5 622Q333 633 315 646.5Q297 660 280.5 671.5Q264 683 248 683Q225 683 212.5 667.5Q200 652 183 621L146 631Q163 668 177 691.5Q191 715 204.5 728Q218 741 232 746Q246 751 264 751Q286 751 306 739.5Q326 728 344 714.5Q362 701 378.5 690Q395 679 411 679Q434 679 446.5 694.5Q459 710 476 741Z" glyph-name="ntilde" horiz-adv-x="644" unicode="&#241;" /><glyph d="M367 210 297 -10 246 8 310 210H183L113 -10L62 8L126 210H30V263H143L200 440H101V493H217L287 713L338 695L273 493H401L471 713L522 695L457 493H554V440H440L384 263H483V210ZM200 263H327L384 440H256Z" glyph-name="numbersign" horiz-adv-x="584" unicode="#" /><glyph d="M295 42Q330 42 356.5 57.5Q383 73 400.5 101Q418 129 427 169Q436 209 436 257Q436 304 425.5 346Q415 388 394.5 419.5Q374 451 344.5 469.5Q315 488 277 488Q242 488 215.5 472.5Q189 457 171.5 429Q154 401 145 361Q136 321 136 273Q136 226 146.5 184Q157 142 177.5 110.5Q198 79 227.5 60.5Q257 42 295 42ZM283 -10Q227 -10 182.5 9.5Q138 29 106 64.5Q74 100 57 148.5Q40 197 40 255Q40 319 60 372Q80 425 113.5 462Q147 499 192.5 519.5Q238 540 289 540Q344 540 389 520Q434 500 466 465Q498 430 515 381.5Q532 333 532 275Q532 210 512 157.5Q492 105 458.5 68Q425 31 379.5 10.5Q334 -10 283 -10Z" glyph-name="o" horiz-adv-x="572" unicode="o" /><glyph d="M295 42Q330 42 356.5 57.5Q383 73 400.5 101Q418 129 427 169Q436 209 436 257Q436 304 425.5 346Q415 388 394.5 419.5Q374 451 344.5 469.5Q315 488 277 488Q242 488 215.5 472.5Q189 457 171.5 429Q154 401 145 361Q136 321 136 273Q136 226 146.5 184Q157 142 177.5 110.5Q198 79 227.5 60.5Q257 42 295 42ZM283 -10Q227 -10 182.5 9.5Q138 29 106 64.5Q74 100 57 148.5Q40 197 40 255Q40 319 60 372Q80 425 113.5 462Q147 499 192.5 519.5Q238 540 289 540Q344 540 389 520Q434 500 466 465Q498 430 515 381.5Q532 333 532 275Q532 210 512 157.5Q492 105 458.5 68Q425 31 379.5 10.5Q334 -10 283 -10ZM445 761 294 592H255L329 761Z" glyph-name="oacute" horiz-adv-x="572" unicode="&#243;" /><glyph d="M295 42Q330 42 356.5 57.5Q383 73 400.5 101Q418 129 427 169Q436 209 436 257Q436 304 425.5 346Q415 388 394.5 419.5Q374 451 344.5 469.5Q315 488 277 488Q242 488 215.5 472.5Q189 457 171.5 429Q154 401 145 361Q136 321 136 273Q136 226 146.5 184Q157 142 177.5 110.5Q198 79 227.5 60.5Q257 42 295 42ZM283 -10Q227 -10 182.5 9.5Q138 29 106 64.5Q74 100 57 148.5Q40 197 40 255Q40 319 60 372Q80 425 113.5 462Q147 499 192.5 519.5Q238 540 289 540Q344 540 389 520Q434 500 466 465Q498 430 515 381.5Q532 333 532 275Q532 210 512 157.5Q492 105 458.5 68Q425 31 379.5 10.5Q334 -10 283 -10ZM286 593Q218 593 181.5 636.5Q145 680 145 761H184Q188 707 216.5 683Q245 659 286 659Q327 659 355.5 683Q384 707 388 761H427Q427 680 390.5 636.5Q354 593 286 593Z" glyph-name="obreve" horiz-adv-x="572" unicode="&#335;" /><glyph d="M295 42Q330 42 356.5 57.5Q383 73 400.5 101Q418 129 427 169Q436 209 436 257Q436 304 425.5 346Q415 388 394.5 419.5Q374 451 344.5 469.5Q315 488 277 488Q242 488 215.5 472.5Q189 457 171.5 429Q154 401 145 361Q136 321 136 273Q136 226 146.5 184Q157 142 177.5 110.5Q198 79 227.5 60.5Q257 42 295 42ZM283 -10Q227 -10 182.5 9.5Q138 29 106 64.5Q74 100 57 148.5Q40 197 40 255Q40 319 60 372Q80 425 113.5 462Q147 499 192.5 519.5Q238 540 289 540Q344 540 389 520Q434 500 466 465Q498 430 515 381.5Q532 333 532 275Q532 210 512 157.5Q492 105 458.5 68Q425 31 379.5 10.5Q334 -10 283 -10ZM460 592H414L286 695L158 592H112L252 765H320Z" glyph-name="ocircumflex" horiz-adv-x="572" unicode="&#244;" /><glyph d="M295 42Q330 42 356.5 57.5Q383 73 400.5 101Q418 129 427 169Q436 209 436 257Q436 304 425.5 346Q415 388 394.5 419.5Q374 451 344.5 469.5Q315 488 277 488Q242 488 215.5 472.5Q189 457 171.5 429Q154 401 145 361Q136 321 136 273Q136 226 146.5 184Q157 142 177.5 110.5Q198 79 227.5 60.5Q257 42 295 42ZM283 -10Q227 -10 182.5 9.5Q138 29 106 64.5Q74 100 57 148.5Q40 197 40 255Q40 319 60 372Q80 425 113.5 462Q147 499 192.5 519.5Q238 540 289 540Q344 540 389 520Q434 500 466 465Q498 430 515 381.5Q532 333 532 275Q532 210 512 157.5Q492 105 458.5 68Q425 31 379.5 10.5Q334 -10 283 -10ZM130 677Q130 702 147.5 719.5Q165 737 191 737Q217 737 234.5 719.5Q252 702 252 677Q252 651 234.5 633Q217 615 191 615Q165 615 147.5 633Q130 651 130 677ZM320 677Q320 702 337.5 719.5Q355 737 381 737Q407 737 424.5 719.5Q442 702 442 677Q442 651 424.5 633Q407 615 381 615Q355 615 337.5 633Q320 651 320 677Z" glyph-name="odieresis" horiz-adv-x="572" unicode="&#246;" /><glyph d="M468 88Q445 58 416 36Q387 14 353 2Q319 -10 283 -10Q227 -10 182.5 9.5Q138 29 106 64.5Q74 100 57 148.5Q40 197 40 255Q40 319 60 372Q80 425 113.5 462Q147 499 192.5 519.5Q238 540 289 540Q365 540 420 499Q461 469 487 427Q513 468 548 497Q601 540 677 540Q726 540 764 523.5Q802 507 827 477.5Q852 448 865 407Q878 366 878 317V286H520Q520 237 532.5 196.5Q545 156 569 127Q593 98 627 82Q661 66 703 66Q760 66 797 90.5Q834 115 862 152L879 143Q861 76 807.5 33Q754 -10 669 -10Q629 -10 594.5 2Q560 14 532.5 36Q505 58 485 87Q481 93 477 99Q473 93 468 88ZM295 42Q330 42 356.5 57.5Q383 73 400.5 101Q418 129 427 169Q436 209 436 257Q436 304 425.5 346Q415 388 394.5 419.5Q374 451 344.5 469.5Q315 488 277 488Q242 488 215.5 472.5Q189 457 171.5 429Q154 401 145 361Q136 321 136 273Q136 226 146.5 184Q157 142 177.5 110.5Q198 79 227.5 60.5Q257 42 295 42ZM662 491Q632 491 608 478Q584 465 566.5 443.5Q549 422 538 393.5Q527 365 524 334H786Q786 406 755 448.5Q724 491 662 491Z" glyph-name="oe" horiz-adv-x="919" unicode="&#339;" /><glyph d="M295 42Q330 42 356.5 57.5Q383 73 400.5 101Q418 129 427 169Q436 209 436 257Q436 304 425.5 346Q415 388 394.5 419.5Q374 451 344.5 469.5Q315 488 277 488Q242 488 215.5 472.5Q189 457 171.5 429Q154 401 145 361Q136 321 136 273Q136 226 146.5 184Q157 142 177.5 110.5Q198 79 227.5 60.5Q257 42 295 42ZM283 -10Q227 -10 182.5 9.5Q138 29 106 64.5Q74 100 57 148.5Q40 197 40 255Q40 319 60 372Q80 425 113.5 462Q147 499 192.5 519.5Q238 540 289 540Q344 540 389 520Q434 500 466 465Q498 430 515 381.5Q532 333 532 275Q532 210 512 157.5Q492 105 458.5 68Q425 31 379.5 10.5Q334 -10 283 -10ZM237 761 311 592H272L121 761Z" glyph-name="ograve" horiz-adv-x="572" unicode="&#242;" /><glyph d="M295 42Q330 42 356.5 57.5Q383 73 400.5 101Q418 129 427 169Q436 209 436 257Q436 304 425.5 346Q415 388 394.5 419.5Q374 451 344.5 469.5Q315 488 277 488Q242 488 215.5 472.5Q189 457 171.5 429Q154 401 145 361Q136 321 136 273Q136 226 146.5 184Q157 142 177.5 110.5Q198 79 227.5 60.5Q257 42 295 42ZM283 -10Q227 -10 182.5 9.5Q138 29 106 64.5Q74 100 57 148.5Q40 197 40 255Q40 319 60 372Q80 425 113.5 462Q147 499 192.5 519.5Q238 540 289 540Q344 540 389 520Q434 500 466 465Q498 430 515 381.5Q532 333 532 275Q532 210 512 157.5Q492 105 458.5 68Q425 31 379.5 10.5Q334 -10 283 -10ZM354 761 225 592H185L252 761ZM504 761 375 592H335L402 761Z" glyph-name="ohungarumlaut" horiz-adv-x="572" unicode="&#337;" /><glyph d="M295 42Q330 42 356.5 57.5Q383 73 400.5 101Q418 129 427 169Q436 209 436 257Q436 304 425.5 346Q415 388 394.5 419.5Q374 451 344.5 469.5Q315 488 277 488Q242 488 215.5 472.5Q189 457 171.5 429Q154 401 145 361Q136 321 136 273Q136 226 146.5 184Q157 142 177.5 110.5Q198 79 227.5 60.5Q257 42 295 42ZM283 -10Q227 -10 182.5 9.5Q138 29 106 64.5Q74 100 57 148.5Q40 197 40 255Q40 319 60 372Q80 425 113.5 462Q147 499 192.5 519.5Q238 540 289 540Q344 540 389 520Q434 500 466 465Q498 430 515 381.5Q532 333 532 275Q532 210 512 157.5Q492 105 458.5 68Q425 31 379.5 10.5Q334 -10 283 -10ZM155 681H417V623H155Z" glyph-name="omacron" horiz-adv-x="572" unicode="&#333;" /><glyph d="M272 711V112Q272 89 277 76Q282 63 296 56Q310 49 335 46Q360 43 401 40V0H36V40Q76 43 103 46Q130 49 145.5 56Q161 63 167.5 76Q174 89 174 112V576H36V607L67 611Q103 616 129 623Q155 630 176 641Q197 652 214.5 668.5Q232 685 250 711Z" glyph-name="one" horiz-adv-x="419" unicode="1" /><glyph d="M234 748V367Q234 352 239.5 343.5Q245 335 256.5 330Q268 325 286.5 323Q305 321 331 320V287H55V320Q108 323 130 330Q152 337 152 367V635H55V663L84 668Q107 672 125 678.5Q143 685 158 694.5Q173 704 186 717.5Q199 731 213 748ZM661 741H721L271 0H212ZM723 3Q743 3 756.5 5Q770 7 780.5 13.5Q791 20 801 33.5Q811 47 823 70H847L831 -72H511V-49L628 69Q658 99 679 123Q700 147 713 167Q726 187 732 205Q738 223 738 241Q738 281 714.5 302Q691 323 650 323Q631 323 615.5 318Q600 313 586.5 305Q573 297 561.5 287Q550 277 540 267L524 284Q535 304 550.5 323Q566 342 586 356.5Q606 371 630.5 380Q655 389 683 389Q750 389 786 355Q822 321 822 261Q822 226 805 195.5Q788 165 759.5 135Q731 105 692.5 73Q654 41 611 3Z" glyph-name="onehalf" horiz-adv-x="892" unicode="&#189;" /><glyph d="M677 92V290L513 92ZM677 -71V48H451V82L706 387H761V92H840V48H761V-71ZM234 748V367Q234 352 239.5 343.5Q245 335 256.5 330Q268 325 286.5 323Q305 321 331 320V287H55V320Q108 323 130 330Q152 337 152 367V635H55V663L84 668Q107 672 125 678.5Q143 685 158 694.5Q173 704 186 717.5Q199 731 213 748ZM661 741H721L271 0H212Z" glyph-name="onequarter" horiz-adv-x="890" unicode="&#188;" /><glyph d="M234 748V367Q234 352 239.5 343.5Q245 335 256.5 330Q268 325 286.5 323Q305 321 331 320V287H55V320Q108 323 130 330Q152 337 152 367V635H55V663L84 668Q107 672 125 678.5Q143 685 158 694.5Q173 704 186 717.5Q199 731 213 748Z" glyph-name="onesuperior" horiz-adv-x="376" unicode="&#185;" /><glyph d="M183 369Q207 369 225 376.5Q243 384 266 401V533L178 496Q128 475 128 430Q128 402 142.5 385.5Q157 369 183 369ZM346 598Q346 586 345.5 560.5Q345 535 344.5 507Q344 479 343.5 453.5Q343 428 343 416Q343 392 352.5 379.5Q362 367 377 367Q382 367 393 368Q404 369 413 371L416 350Q397 331 374 323Q351 315 331 315Q305 315 289 333.5Q273 352 268 381Q257 370 244 358.5Q231 347 215.5 337Q200 327 182 321Q164 315 143 315Q93 315 69 344Q45 373 45 414Q45 440 54.5 458Q64 476 78.5 488.5Q93 501 111.5 509.5Q130 518 148 524L266 566V603Q266 636 253.5 661Q241 686 202 686Q144 686 144 632Q144 622 145.5 613.5Q147 605 149 594L81 586Q73 594 68.5 603Q64 612 64 626Q64 671 104.5 696.5Q145 722 206 722Q274 722 310 690.5Q346 659 346 598Z" glyph-name="ordfeminine" horiz-adv-x="436" unicode="&#170;" /><glyph d="M232 355Q278 355 299.5 399.5Q321 444 321 513Q321 546 314 577Q307 608 293.5 631Q280 654 260 668Q240 682 214 682Q168 682 145.5 637.5Q123 593 123 524Q123 491 130 460Q137 429 151 406Q165 383 185 369Q205 355 232 355ZM220 315Q177 315 142.5 329.5Q108 344 84 370.5Q60 397 47.5 433Q35 469 35 512Q35 560 49 598.5Q63 637 88 664.5Q113 692 148 707Q183 722 224 722Q267 722 301.5 707.5Q336 693 360 666.5Q384 640 396.5 604Q409 568 409 525Q409 477 395 438.5Q381 400 356 372.5Q331 345 296.5 330Q262 315 220 315Z" glyph-name="ordmasculine" horiz-adv-x="444" unicode="&#186;" /><glyph d="M123 -61 82 -36 128 42Q116 52 106 64Q74 100 57 148.5Q40 197 40 255Q40 319 60 372Q80 425 113.5 462Q147 499 192.5 519.5Q238 540 289 540Q344 540 389 520Q397 516 405 512L449 586L490 561L445 485Q456 476 466 465Q498 430 515 381.5Q532 333 532 275Q532 210 512 157.5Q492 105 458.5 68Q425 31 379.5 10.5Q334 -10 283 -10Q227 -10 182 9Q175 12 168 16ZM349 470Q319 488 277 488Q242 488 215.5 472.5Q189 457 171.5 429Q154 401 145 361Q136 321 136 273Q136 224 145 182Q153 143 170 113L371 454Q360 463 349 470ZM295 42Q330 42 356.5 57.5Q383 73 400.5 101Q418 129 427 169Q436 209 436 257Q436 306 427 348Q419 385 403 413L203 74Q212 66 223 60Q253 42 295 42Z" glyph-name="oslash" horiz-adv-x="572" unicode="&#248;" /><glyph d="M123 -61 82 -36 128 42Q116 52 106 64Q74 100 57 148.5Q40 197 40 255Q40 319 60 372Q80 425 113.5 462Q147 499 192.5 519.5Q238 540 289 540Q344 540 389 520Q397 516 405 512L449 586L490 561L445 485Q456 476 466 465Q498 430 515 381.5Q532 333 532 275Q532 210 512 157.5Q492 105 458.5 68Q425 31 379.5 10.5Q334 -10 283 -10Q227 -10 182 9Q175 12 168 16ZM349 470Q319 488 277 488Q242 488 215.5 472.5Q189 457 171.5 429Q154 401 145 361Q136 321 136 273Q136 224 145 182Q153 143 170 113L371 454Q360 463 349 470ZM295 42Q330 42 356.5 57.5Q383 73 400.5 101Q418 129 427 169Q436 209 436 257Q436 306 427 348Q419 385 403 413L203 74Q212 66 223 60Q253 42 295 42ZM445 761 294 592H255L329 761Z" glyph-name="oslashacute" horiz-adv-x="572" unicode="&#511;" /><glyph d="M295 42Q330 42 356.5 57.5Q383 73 400.5 101Q418 129 427 169Q436 209 436 257Q436 304 425.5 346Q415 388 394.5 419.5Q374 451 344.5 469.5Q315 488 277 488Q242 488 215.5 472.5Q189 457 171.5 429Q154 401 145 361Q136 321 136 273Q136 226 146.5 184Q157 142 177.5 110.5Q198 79 227.5 60.5Q257 42 295 42ZM283 -10Q227 -10 182.5 9.5Q138 29 106 64.5Q74 100 57 148.5Q40 197 40 255Q40 319 60 372Q80 425 113.5 462Q147 499 192.5 519.5Q238 540 289 540Q344 540 389 520Q434 500 466 465Q498 430 515 381.5Q532 333 532 275Q532 210 512 157.5Q492 105 458.5 68Q425 31 379.5 10.5Q334 -10 283 -10ZM470 731Q453 694 439 670.5Q425 647 411.5 634Q398 621 384 616Q370 611 352 611Q329 611 309.5 622Q290 633 272 646.5Q254 660 237.5 671.5Q221 683 205 683Q182 683 169.5 667.5Q157 652 140 621L103 631Q120 668 134 691.5Q148 715 161.5 728Q175 741 189 746Q203 751 221 751Q243 751 263 739.5Q283 728 301 714.5Q319 701 335.5 690Q352 679 368 679Q391 679 403.5 694.5Q416 710 433 741Z" glyph-name="otilde" horiz-adv-x="572" unicode="&#245;" /><glyph d="M194 -105Q194 -122 200 -132.5Q206 -143 216.5 -148.5Q227 -154 241 -157Q255 -160 272 -162V-197H24V-162Q41 -160 55 -157Q69 -154 79.5 -148.5Q90 -143 96 -132.5Q102 -122 102 -105V434L29 469V490L170 540H194V453Q226 493 267.5 516.5Q309 540 365 540Q416 540 454.5 520.5Q493 501 519.5 467Q546 433 559 387.5Q572 342 572 290Q572 221 552 165.5Q532 110 498 71Q464 32 419 11Q374 -10 325 -10Q278 -10 244.5 5.5Q211 21 194 45ZM323 36Q358 36 387 51Q416 66 436.5 93.5Q457 121 468.5 160.5Q480 200 480 248Q480 290 471.5 330.5Q463 371 444 402.5Q425 434 395.5 453.5Q366 473 324 473Q287 473 252 460.5Q217 448 194 424V175Q194 106 229 71Q264 36 323 36Z" glyph-name="p" horiz-adv-x="612" unicode="p" /><glyph d="M323 224Q256 224 206.5 243Q157 262 124.5 295Q92 328 76 372.5Q60 417 60 468Q60 519 76 562Q92 605 124.5 636Q157 667 206.5 684.5Q256 702 323 702H596V663Q572 662 553 659Q534 656 521 648.5Q508 641 501 627Q494 613 494 590V-197H442V664H375V-197H323ZM323 664Q280 664 250.5 647Q221 630 203 602.5Q185 575 177 540Q169 505 169 468Q169 431 177 394.5Q185 358 203 328.5Q221 299 250.5 280.5Q280 262 323 262Z" glyph-name="paragraph" horiz-adv-x="620" unicode="&#182;" /><glyph d="M60 314Q60 376 72.5 439Q85 502 110 561.5Q135 621 172 674Q209 727 258 770H308Q260 719 228 664Q196 609 177.5 551.5Q159 494 151 434.5Q143 375 143 314Q143 253 151 193.5Q159 134 177.5 77Q196 20 228 -35Q260 -90 308 -141H258Q209 -98 172 -45Q135 8 110 67Q85 126 72.5 189Q60 252 60 314Z" glyph-name="parenleft" horiz-adv-x="338" unicode="(" /><glyph d="M278 314Q278 252 265.5 189Q253 126 228 67Q203 8 166 -45Q129 -98 80 -141H30Q78 -90 109.5 -35Q141 20 160 77Q179 134 186.5 193.5Q194 253 194 314Q194 375 186.5 434.5Q179 494 160 551.5Q141 609 109.5 664Q78 719 30 770H80Q129 727 166 674Q203 621 228 561.5Q253 502 265.5 439Q278 376 278 314Z" glyph-name="parenright" horiz-adv-x="338" unicode=")" /><glyph d="M121 530Q121 502 126 476.5Q131 451 142 431.5Q153 412 170.5 400.5Q188 389 214 389Q240 389 258 400.5Q276 412 287 431.5Q298 451 303 476.5Q308 502 308 530Q308 558 303 583.5Q298 609 287 628.5Q276 648 258 659.5Q240 671 214 671Q188 671 170.5 659.5Q153 648 142 628.5Q131 609 126 583.5Q121 558 121 530ZM628 722H687L237 -19H178ZM40 530Q40 572 54.5 606Q69 640 93 663.5Q117 687 148.5 699.5Q180 712 214 712Q248 712 280 699.5Q312 687 336 663.5Q360 640 374.5 606Q389 572 389 530Q389 488 374.5 454Q360 420 336 396.5Q312 373 280 360.5Q248 348 214 348Q180 348 148.5 360.5Q117 373 93 396.5Q69 420 54.5 454Q40 488 40 530ZM744 173Q744 201 739 226.5Q734 252 723 271.5Q712 291 694 302.5Q676 314 651 314Q625 314 607 302.5Q589 291 578 271.5Q567 252 562 226.5Q557 201 557 173Q557 145 562 119.5Q567 94 578 74.5Q589 55 607 43.5Q625 32 651 32Q676 32 694 43.5Q712 55 723 74.5Q734 94 739 119.5Q744 145 744 173ZM825 173Q825 131 810.5 97Q796 63 772 39.5Q748 16 716.5 3.5Q685 -9 651 -9Q616 -9 584.5 3.5Q553 16 529 39.5Q505 63 490.5 97Q476 131 476 173Q476 215 490.5 249Q505 283 529 306.5Q553 330 584.5 342.5Q616 355 651 355Q685 355 716.5 342.5Q748 330 772 306.5Q796 283 810.5 249Q825 215 825 173Z" glyph-name="percent" horiz-adv-x="865" unicode="%" /><glyph d="M69 63Q69 94 90 115Q111 136 142 136Q173 136 194 115Q215 94 215 63Q215 32 194 11Q173 -10 142 -10Q111 -10 90 11Q69 32 69 63Z" glyph-name="period" horiz-adv-x="284" unicode="." /><glyph d="M55 301Q55 332 76 353Q97 374 128 374Q159 374 180 353Q201 332 201 301Q201 270 180 249Q159 228 128 228Q97 228 76 249Q55 270 55 301Z" glyph-name="periodcentered" horiz-adv-x="256" unicode="&#183;" /><glyph d="M55 356Q55 387 76 408Q97 429 128 429Q159 429 180 408Q201 387 201 356Q201 325 180 304Q159 283 128 283Q97 283 76 304Q55 325 55 356Z" glyph-name="periodcentered.cap" horiz-adv-x="256" /><glyph d="M63 402H251V590H312V402H501V340H312V152H251V340H63Z" glyph-name="plus" horiz-adv-x="564" unicode="+" /><glyph d="M63 459H251V602H312V459H501V398H312V256H251V398H63ZM63 205H501V144H63Z" glyph-name="plusminus" horiz-adv-x="564" unicode="&#177;" /><glyph d="M296 540Q339 540 378 526Q417 512 441 484L493 548H518L510 436V-105Q510 -122 516 -132.5Q522 -143 532.5 -148.5Q543 -154 557 -157Q571 -160 588 -162V-197H341V-162Q357 -160 371.5 -157Q386 -154 396 -148.5Q406 -143 412 -132.5Q418 -122 418 -105V79Q387 39 348 14.5Q309 -10 253 -10Q202 -10 162.5 9.5Q123 29 95.5 63Q68 97 54 142.5Q40 188 40 240Q40 309 59.5 364.5Q79 420 113.5 459Q148 498 195 519Q242 540 296 540ZM289 494Q254 494 225 478Q196 462 175.5 433.5Q155 405 143.5 365Q132 325 132 277Q132 235 141.5 195.5Q151 156 170 125.5Q189 95 218.5 77Q248 59 288 59Q326 59 360.5 72.5Q395 86 418 110V355Q418 393 409 419.5Q400 446 383 462.5Q366 479 342 486.5Q318 494 289 494Z" glyph-name="q" horiz-adv-x="591" unicode="q" /><glyph d="M318 569Q318 614 291 639.5Q264 665 216 665Q169 665 148.5 640Q128 615 128 571V534H48Q27 553 27 582Q27 610 42 633.5Q57 657 82.5 674.5Q108 692 142 702Q176 712 214 712Q302 712 356.5 670.5Q411 629 411 545Q411 483 378 439Q345 395 290 355Q249 326 231 298Q213 270 213 225V193H184Q177 205 166 230.5Q155 256 155 283Q155 325 173 359.5Q191 394 234 429Q252 444 267 457.5Q282 471 293.5 487Q305 503 311.5 522.5Q318 542 318 569ZM125 63Q125 94 146 115Q167 136 198 136Q229 136 250 115Q271 94 271 63Q271 32 250 11Q229 -10 198 -10Q167 -10 146 11Q125 32 125 63Z" glyph-name="question" horiz-adv-x="438" unicode="?" /><glyph d="M134 -40Q134 -85 161 -110.5Q188 -136 236 -136Q283 -136 303.5 -111Q324 -86 324 -42V-5H404Q425 -24 425 -53Q425 -81 410 -104.5Q395 -128 369.5 -145.5Q344 -163 310 -173Q276 -183 238 -183Q150 -183 95.5 -141.5Q41 -100 41 -16Q41 46 74 90Q107 134 162 174Q203 203 221 231Q239 259 239 304V336H268Q275 324 286 298.5Q297 273 297 246Q297 204 279 169.5Q261 135 218 100Q200 85 185 71.5Q170 58 158.5 42Q147 26 140.5 6.5Q134 -13 134 -40ZM327 466Q327 435 306 414Q285 393 254 393Q223 393 202 414Q181 435 181 466Q181 497 202 518Q223 539 254 539Q285 539 306 518Q327 497 327 466Z" glyph-name="questiondown" horiz-adv-x="438" unicode="&#191;" /><glyph d="M98 472 70 616Q68 626 65.5 638.5Q63 651 60.5 663Q58 675 56.5 685Q55 695 55 701Q55 730 69 746Q83 762 109 762Q135 762 149 746Q163 730 163 701Q163 695 161.5 685Q160 675 157.5 663Q155 651 152.5 638.5Q150 626 148 616L120 472ZM270 472 242 616Q240 626 237.5 638.5Q235 651 232.5 663Q230 675 228.5 685Q227 695 227 701Q227 730 241 746Q255 762 281 762Q307 762 321 746Q335 730 335 701Q335 695 333.5 685Q332 675 329.5 663Q327 651 324.5 638.5Q322 626 320 616L292 472Z" glyph-name="quotedbl" horiz-adv-x="390" unicode="&quot;" /><glyph d="M313 16Q292 21 280 35Q268 49 268 74Q268 103 287 120Q306 137 334 137Q372 137 390.5 110.5Q409 84 409 45Q409 14 400 -13.5Q391 -41 371.5 -62Q352 -83 321 -96.5Q290 -110 247 -113V-73Q302 -65 326.5 -42.5Q351 -20 351 16ZM116 16Q95 21 83 35Q71 49 71 74Q71 103 90 120Q109 137 137 137Q175 137 193.5 110.5Q212 84 212 45Q212 14 203 -13.5Q194 -41 174.5 -62Q155 -83 124 -96.5Q93 -110 50 -113V-73Q105 -65 129.5 -42.5Q154 -20 154 16Z" glyph-name="quotedblbase" horiz-adv-x="465" unicode="&#8222;" /><glyph d="M155 632Q176 627 188 613Q200 599 200 574Q200 545 181 528Q162 511 134 511Q96 511 77.5 537.5Q59 564 59 603Q59 634 68 661.5Q77 689 96.5 710Q116 731 146.5 744.5Q177 758 221 761V721Q166 713 141.5 690.5Q117 668 117 632ZM352 632Q373 627 385 613Q397 599 397 574Q397 545 378 528Q359 511 331 511Q293 511 274.5 537.5Q256 564 256 603Q256 634 265 661.5Q274 689 293.5 710Q313 731 343.5 744.5Q374 758 418 761V721Q363 713 338.5 690.5Q314 668 314 632Z" glyph-name="quotedblleft" horiz-adv-x="465" unicode="&#8220;" /><glyph d="M313 640Q292 645 280 659Q268 673 268 698Q268 727 287 744Q306 761 334 761Q372 761 390.5 734.5Q409 708 409 669Q409 638 400 610.5Q391 583 371.5 562Q352 541 321 527.5Q290 514 247 511V551Q302 559 326.5 581.5Q351 604 351 640ZM116 640Q95 645 83 659Q71 673 71 698Q71 727 90 744Q109 761 137 761Q175 761 193.5 734.5Q212 708 212 669Q212 638 203 610.5Q194 583 174.5 562Q155 541 124 527.5Q93 514 50 511V551Q105 559 129.5 581.5Q154 604 154 640Z" glyph-name="quotedblright" horiz-adv-x="465" unicode="&#8221;" /><glyph d="M155 632Q176 627 188 613Q200 599 200 574Q200 545 181 528Q162 511 134 511Q96 511 77.5 537.5Q59 564 59 603Q59 634 68 661.5Q77 689 96.5 710Q116 731 146.5 744.5Q177 758 221 761V721Q166 713 141.5 690.5Q117 668 117 632Z" glyph-name="quoteleft" horiz-adv-x="268" unicode="&#8216;" /><glyph d="M116 640Q95 645 83 659Q71 673 71 698Q71 727 90 744Q109 761 137 761Q175 761 193.5 734.5Q212 708 212 669Q212 638 203 610.5Q194 583 174.5 562Q155 541 124 527.5Q93 514 50 511V551Q105 559 129.5 581.5Q154 604 154 640Z" glyph-name="quoteright" horiz-adv-x="268" unicode="&#8217;" /><glyph d="M116 16Q95 21 83 35Q71 49 71 74Q71 103 90 120Q109 137 137 137Q175 137 193.5 110.5Q212 84 212 45Q212 14 203 -13.5Q194 -41 174.5 -62Q155 -83 124 -96.5Q93 -110 50 -113V-73Q105 -65 129.5 -42.5Q154 -20 154 16Z" glyph-name="quotesinglbase" horiz-adv-x="268" unicode="&#8218;" /><glyph d="M98 472 70 616Q68 626 65.5 638.5Q63 651 60.5 663Q58 675 56.5 685Q55 695 55 701Q55 730 69 746Q83 762 109 762Q135 762 149 746Q163 730 163 701Q163 695 161.5 685Q160 675 157.5 663Q155 651 152.5 638.5Q150 626 148 616L120 472Z" glyph-name="quotesingle" horiz-adv-x="218" unicode="'" /><glyph d="M209 382Q233 425 251 455.5Q269 486 285.5 504.5Q302 523 319.5 531.5Q337 540 360 540Q385 540 397 526V437H376Q353 437 333 434.5Q313 432 293.5 423Q274 414 253.5 396.5Q233 379 209 350V96Q209 77 214 66.5Q219 56 230.5 50Q242 44 260.5 41Q279 38 306 35V0H40V35Q56 37 70.5 40Q85 43 95 48.5Q105 54 111 64.5Q117 75 117 92V434L45 469V490L183 540H209Z" glyph-name="r" horiz-adv-x="412" unicode="r" /><glyph d="M209 382Q233 425 251 455.5Q269 486 285.5 504.5Q302 523 319.5 531.5Q337 540 360 540Q385 540 397 526V437H376Q353 437 333 434.5Q313 432 293.5 423Q274 414 253.5 396.5Q233 379 209 350V96Q209 77 214 66.5Q219 56 230.5 50Q242 44 260.5 41Q279 38 306 35V0H40V35Q56 37 70.5 40Q85 43 95 48.5Q105 54 111 64.5Q117 75 117 92V434L45 469V490L183 540H209ZM405 761 254 592H215L289 761Z" glyph-name="racute" horiz-adv-x="412" unicode="&#341;" /><glyph d="M209 382Q233 425 251 455.5Q269 486 285.5 504.5Q302 523 319.5 531.5Q337 540 360 540Q385 540 397 526V437H376Q353 437 333 434.5Q313 432 293.5 423Q274 414 253.5 396.5Q233 379 209 350V96Q209 77 214 66.5Q219 56 230.5 50Q242 44 260.5 41Q279 38 306 35V0H40V35Q56 37 70.5 40Q85 43 95 48.5Q105 54 111 64.5Q117 75 117 92V434L45 469V490L183 540H209ZM280 596H212L72 769H118L246 666L374 769H420Z" glyph-name="rcaron" horiz-adv-x="412" unicode="&#345;" /><glyph d="M209 382Q233 425 251 455.5Q269 486 285.5 504.5Q302 523 319.5 531.5Q337 540 360 540Q385 540 397 526V437H376Q353 437 333 434.5Q313 432 293.5 423Q274 414 253.5 396.5Q233 379 209 350V96Q209 77 214 66.5Q219 56 230.5 50Q242 44 260.5 41Q279 38 306 35V0H40V35Q56 37 70.5 40Q85 43 95 48.5Q105 54 111 64.5Q117 75 117 92V434L45 469V490L183 540H209ZM145 -153Q122 -148 112.5 -135Q103 -122 103 -105Q103 -81 120.5 -66.5Q138 -52 166 -52Q202 -52 221.5 -74Q241 -96 241 -128Q241 -172 213 -201Q185 -230 115 -230V-197Q193 -197 193 -153Z" glyph-name="rcommaaccent" horiz-adv-x="412" unicode="&#343;" /><glyph d="M248 584V490H274Q300 490 314 503Q328 516 328 539Q328 584 274 584ZM282 606Q327 606 350.5 587Q374 568 374 539Q374 513 355.5 496Q337 479 314 474L354 419Q365 403 374 396.5Q383 390 396 390V371H345Q337 376 326.5 388Q316 400 307 414L270 469H248V414Q248 399 254.5 394.5Q261 390 277 390V371H174V390Q191 390 197.5 394.5Q204 399 204 414V562Q204 579 197.5 582Q191 585 174 587V606ZM87 484Q87 445 101 410Q115 375 140.5 348.5Q166 322 201 306.5Q236 291 277 291Q319 291 354 306.5Q389 322 414.5 348.5Q440 375 454 410Q468 445 468 484Q468 523 454 558Q440 593 414.5 620Q389 647 354 662.5Q319 678 277 678Q236 678 201 662.5Q166 647 140.5 620Q115 593 101 558Q87 523 87 484ZM50 484Q50 531 67 572.5Q84 614 114 645Q144 676 185.5 694Q227 712 277 712Q327 712 369 694Q411 676 441 645Q471 614 488 572.5Q505 531 505 484Q505 437 488 395.5Q471 354 441 323.5Q411 293 369 275Q327 257 277 257Q227 257 185.5 275Q144 293 114 323.5Q84 354 67 395.5Q50 437 50 484Z" glyph-name="registered" horiz-adv-x="555" unicode="&#174;" /><glyph d="M157 679Q157 718 182.5 744Q208 770 250 770Q292 770 317.5 744Q343 718 343 679Q343 640 317.5 614Q292 588 250 588Q208 588 182.5 614Q157 640 157 679ZM301 679Q301 702 288.5 717.5Q276 733 250 733Q224 733 211.5 717.5Q199 702 199 679Q199 656 211.5 640.5Q224 625 250 625Q276 625 288.5 640.5Q301 656 301 679Z" glyph-name="ring" horiz-adv-x="500" unicode="&#730;" /><glyph d="M157 835Q157 874 182.5 900Q208 926 250 926Q292 926 317.5 900Q343 874 343 835Q343 796 317.5 770Q292 744 250 744Q208 744 182.5 770Q157 796 157 835ZM301 835Q301 858 288.5 873.5Q276 889 250 889Q224 889 211.5 873.5Q199 858 199 835Q199 812 211.5 796.5Q224 781 250 781Q276 781 288.5 796.5Q301 812 301 835Z" glyph-name="ring.cap" horiz-adv-x="500" /><glyph d="M227 -10Q178 -10 130.5 0.5Q83 11 46 39L40 172H77Q92 108 129 71.5Q166 35 228 35Q276 35 303 56.5Q330 78 330 117Q330 141 321.5 158.5Q313 176 296 188.5Q279 201 253.5 211Q228 221 194 232Q161 242 133.5 255.5Q106 269 86.5 287Q67 305 56.5 330Q46 355 46 389Q46 422 58 449.5Q70 477 92.5 497.5Q115 518 147 529Q179 540 218 540Q269 540 309.5 528.5Q350 517 383 498V374H345Q324 494 215 494Q174 494 151 471.5Q128 449 128 415Q128 373 158 349Q188 325 246 307Q283 295 314 282.5Q345 270 367 252Q389 234 401 208.5Q413 183 413 145Q413 112 400 83.5Q387 55 363 34.5Q339 14 304.5 2Q270 -10 227 -10Z" glyph-name="s" horiz-adv-x="451" unicode="s" /><glyph d="M227 -10Q178 -10 130.5 0.5Q83 11 46 39L40 172H77Q92 108 129 71.5Q166 35 228 35Q276 35 303 56.5Q330 78 330 117Q330 141 321.5 158.5Q313 176 296 188.5Q279 201 253.5 211Q228 221 194 232Q161 242 133.5 255.5Q106 269 86.5 287Q67 305 56.5 330Q46 355 46 389Q46 422 58 449.5Q70 477 92.5 497.5Q115 518 147 529Q179 540 218 540Q269 540 309.5 528.5Q350 517 383 498V374H345Q324 494 215 494Q174 494 151 471.5Q128 449 128 415Q128 373 158 349Q188 325 246 307Q283 295 314 282.5Q345 270 367 252Q389 234 401 208.5Q413 183 413 145Q413 112 400 83.5Q387 55 363 34.5Q339 14 304.5 2Q270 -10 227 -10ZM391 761 240 592H201L275 761Z" glyph-name="sacute" horiz-adv-x="451" unicode="&#347;" /><glyph d="M227 -10Q178 -10 130.5 0.5Q83 11 46 39L40 172H77Q92 108 129 71.5Q166 35 228 35Q276 35 303 56.5Q330 78 330 117Q330 141 321.5 158.5Q313 176 296 188.5Q279 201 253.5 211Q228 221 194 232Q161 242 133.5 255.5Q106 269 86.5 287Q67 305 56.5 330Q46 355 46 389Q46 422 58 449.5Q70 477 92.5 497.5Q115 518 147 529Q179 540 218 540Q269 540 309.5 528.5Q350 517 383 498V374H345Q324 494 215 494Q174 494 151 471.5Q128 449 128 415Q128 373 158 349Q188 325 246 307Q283 295 314 282.5Q345 270 367 252Q389 234 401 208.5Q413 183 413 145Q413 112 400 83.5Q387 55 363 34.5Q339 14 304.5 2Q270 -10 227 -10ZM266 596H198L58 769H104L232 666L360 769H406Z" glyph-name="scaron" horiz-adv-x="451" unicode="&#353;" /><glyph d="M115 -188Q169 -188 200.5 -176.5Q232 -165 232 -142Q232 -119 207.5 -109Q183 -99 139 -97L176 -7Q153 -4 130 0Q83 11 46 39L40 172H77Q92 108 129 71.5Q166 35 228 35Q276 35 303 56.5Q330 78 330 117Q330 141 321.5 158.5Q313 176 296 188.5Q279 201 253.5 211Q228 221 194 232Q161 242 133.5 255.5Q106 269 86.5 287Q67 305 56.5 330Q46 355 46 389Q46 422 58 449.5Q70 477 92.5 497.5Q115 518 147 529Q179 540 218 540Q269 540 309.5 528.5Q350 517 383 498V374H345Q324 494 215 494Q174 494 151 471.5Q128 449 128 415Q128 373 158 349Q188 325 246 307Q283 295 314 282.5Q345 270 367 252Q389 234 401 208.5Q413 183 413 145Q413 112 400 83.5Q387 55 363 34.5Q339 14 304.5 2Q270 -10 227 -10Q217 -10 207 -9L192 -48Q243 -49 272 -65Q301 -81 301 -122Q301 -148 287 -166.5Q273 -185 248.5 -197Q224 -209 191 -215Q158 -221 121 -221Z" glyph-name="scedilla" horiz-adv-x="451" unicode="&#351;" /><glyph d="M227 -10Q178 -10 130.5 0.5Q83 11 46 39L40 172H77Q92 108 129 71.5Q166 35 228 35Q276 35 303 56.5Q330 78 330 117Q330 141 321.5 158.5Q313 176 296 188.5Q279 201 253.5 211Q228 221 194 232Q161 242 133.5 255.5Q106 269 86.5 287Q67 305 56.5 330Q46 355 46 389Q46 422 58 449.5Q70 477 92.5 497.5Q115 518 147 529Q179 540 218 540Q269 540 309.5 528.5Q350 517 383 498V374H345Q324 494 215 494Q174 494 151 471.5Q128 449 128 415Q128 373 158 349Q188 325 246 307Q283 295 314 282.5Q345 270 367 252Q389 234 401 208.5Q413 183 413 145Q413 112 400 83.5Q387 55 363 34.5Q339 14 304.5 2Q270 -10 227 -10ZM406 592H360L232 695L104 592H58L198 765H266Z" glyph-name="scircumflex" horiz-adv-x="451" unicode="&#349;" /><glyph d="M227 -10Q178 -10 130.5 0.5Q83 11 46 39L40 172H77Q92 108 129 71.5Q166 35 228 35Q276 35 303 56.5Q330 78 330 117Q330 141 321.5 158.5Q313 176 296 188.5Q279 201 253.5 211Q228 221 194 232Q161 242 133.5 255.5Q106 269 86.5 287Q67 305 56.5 330Q46 355 46 389Q46 422 58 449.5Q70 477 92.5 497.5Q115 518 147 529Q179 540 218 540Q269 540 309.5 528.5Q350 517 383 498V374H345Q324 494 215 494Q174 494 151 471.5Q128 449 128 415Q128 373 158 349Q188 325 246 307Q283 295 314 282.5Q345 270 367 252Q389 234 401 208.5Q413 183 413 145Q413 112 400 83.5Q387 55 363 34.5Q339 14 304.5 2Q270 -10 227 -10ZM205 -153Q182 -148 172.5 -135Q163 -122 163 -105Q163 -81 180.5 -66.5Q198 -52 226 -52Q262 -52 281.5 -74Q301 -96 301 -128Q301 -172 273 -201Q245 -230 175 -230V-197Q253 -197 253 -153Z" glyph-name="scommaaccent" horiz-adv-x="451" unicode="&#537;" /><glyph d="M223 -202Q154 -202 114.5 -176Q75 -150 75 -111Q75 -90 87 -78Q99 -66 113 -60H173V-76Q173 -110 195 -134Q217 -158 257 -158Q296 -158 317 -139Q338 -120 338 -90Q338 -63 322.5 -33Q307 -3 283.5 29Q260 61 231.5 95Q203 129 177 165Q124 238 90 312.5Q56 387 56 473Q56 528 74 572Q92 616 123.5 647Q155 678 199 695Q243 712 296 712Q365 712 404.5 686Q444 660 444 621Q444 600 432 588Q420 576 406 570H346V586Q346 620 324 644Q302 668 262 668Q223 668 202 649Q181 630 181 600Q181 573 196.5 543Q212 513 235.5 481Q259 449 287.5 415Q316 381 342 345Q395 272 429 197.5Q463 123 463 37Q463 -18 445 -62Q427 -106 395.5 -137Q364 -168 319.5 -185Q275 -202 223 -202ZM385 -96Q397 -77 406 -42.5Q415 -8 415 37Q415 104 383 177Q351 250 296 323Q270 357 241.5 393.5Q213 430 189 467Q165 504 149.5 539Q134 574 134 606Q122 587 113 552.5Q104 518 104 473Q104 406 136 333Q168 260 223 187Q248 153 276.5 116.5Q305 80 329 43Q353 6 369 -29.5Q385 -65 385 -96Z" glyph-name="section" horiz-adv-x="519" unicode="&#167;" /><glyph d="M69 383Q69 414 90 435Q111 456 142 456Q173 456 194 435Q215 414 215 383Q215 352 194 331Q173 310 142 310Q111 310 90 331Q69 352 69 383ZM116 6Q95 11 83 25Q71 39 71 64Q71 93 90 110Q109 127 137 127Q175 127 193.5 100.5Q212 74 212 35Q212 4 203 -23.5Q194 -51 174.5 -72Q155 -93 124 -106.5Q93 -120 50 -123V-83Q105 -75 129.5 -52.5Q154 -30 154 6Z" glyph-name="semicolon" horiz-adv-x="284" unicode=";" /><glyph d="M148 607Q129 607 115.5 604Q102 601 91.5 594Q81 587 71.5 574Q62 561 52 542H16L58 702H483V674L198 0H89L410 607Z" glyph-name="seven" horiz-adv-x="496" unicode="7" /><glyph d="M472 679Q400 658 343.5 625Q287 592 246.5 551Q206 510 182.5 461.5Q159 413 152 362Q184 399 231.5 421Q279 443 331 443Q376 443 413.5 429Q451 415 478 388.5Q505 362 520 323.5Q535 285 535 236Q535 180 517 134.5Q499 89 467 57Q435 25 391.5 7.5Q348 -10 296 -10Q236 -10 189.5 12Q143 34 110.5 72.5Q78 111 61.5 163.5Q45 216 45 277Q45 363 73 436Q101 509 153.5 564.5Q206 620 281.5 657.5Q357 695 452 711ZM278 377Q240 377 205.5 364Q171 351 150 335Q148 322 147.5 305Q147 288 147 278Q147 223 158.5 178.5Q170 134 190.5 102.5Q211 71 239.5 54Q268 37 302 37Q368 37 402 82Q436 127 436 205Q436 287 395 332Q354 377 278 377Z" glyph-name="six" horiz-adv-x="576" unicode="6" /><glyph d="M82 -141H20L297 770H359Z" glyph-name="slash" horiz-adv-x="397" unicode="/" /><glyph glyph-name="space" horiz-adv-x="225" unicode=" " /><glyph d="M104 384H217L230 466Q240 531 261 577.5Q282 624 312 654Q342 684 380.5 698Q419 712 464 712Q530 712 568.5 686.5Q607 661 607 613Q607 590 597 573Q587 556 572 549H512V585Q512 620 499 642.5Q486 665 447 665Q422 665 404 652Q386 639 373 614Q360 589 350.5 553Q341 517 334 471L319 384H484V341H312L292 217Q286 181 276 147Q319 122 369 103Q419 84 471 84Q496 84 516 89Q536 94 550.5 106Q565 118 573 139Q581 160 581 192H605Q611 184 618.5 165.5Q626 147 626 119Q626 84 615.5 59.5Q605 35 586.5 19.5Q568 4 542 -3Q516 -10 485 -10Q451 -10 417.5 -1Q384 8 354 23Q324 38 298 56.5Q272 75 252 93Q231 51 198.5 20.5Q166 -10 116 -10Q63 -10 39 17.5Q15 45 15 86Q15 132 45.5 161Q76 190 126 190Q157 190 186 181L210 341H104ZM109 39Q133 39 150.5 60Q168 81 177 130Q148 143 123 143Q93 143 79 126Q65 109 65 86Q65 64 77 51.5Q89 39 109 39Z" glyph-name="sterling" horiz-adv-x="656" unicode="&#163;" /><glyph d="M180 530H333V477H180V127Q180 85 198.5 69Q217 53 259 53Q282 53 306 59Q330 65 350 75L360 53Q334 25 296 7.5Q258 -10 208 -10Q156 -10 122.5 17Q89 44 89 108V477H15V507Q53 531 87 563.5Q121 596 154 644H180Z" glyph-name="t" horiz-adv-x="370" unicode="t" /><glyph d="M40 350H114V477H40V507Q78 531 112 563.5Q146 596 179 644H205V530H358V477H205V350H358V301H205V127Q205 85 223.5 69Q242 53 284 53Q307 53 331 59Q355 65 375 75L385 53Q359 25 321 7.5Q283 -10 233 -10Q181 -10 147.5 17Q114 44 114 108V301H40Z" glyph-name="tbar" horiz-adv-x="415" unicode="&#359;" /><glyph d="M180 530H333V477H180V127Q180 85 198.5 69Q217 53 259 53Q282 53 306 59Q330 65 350 75L360 53Q334 25 296 7.5Q258 -10 208 -10Q156 -10 122.5 17Q89 44 89 108V477H15V507Q53 531 87 563.5Q121 596 154 644H180ZM272 594H237L257 799H354Z" glyph-name="tcaron" horiz-adv-x="370" unicode="&#357;" /><glyph d="M180 530H333V477H180V127Q180 85 198.5 69Q217 53 259 53Q282 53 306 59Q330 65 350 75L360 53Q334 25 296 7.5Q258 -10 208 -10Q156 -10 122.5 17Q89 44 89 108V477H15V507Q53 531 87 563.5Q121 596 154 644H180ZM160 -153Q137 -148 127.5 -135Q118 -122 118 -105Q118 -81 135.5 -66.5Q153 -52 181 -52Q217 -52 236.5 -74Q256 -96 256 -128Q256 -172 228 -201Q200 -230 130 -230V-197Q208 -197 208 -153Z" glyph-name="tcommaaccent" horiz-adv-x="370" unicode="&#355;" /><glyph d="M175 175Q175 106 210 71Q245 36 304 36Q339 36 368 51Q397 66 417.5 93.5Q438 121 449.5 160.5Q461 200 461 248Q461 290 452.5 330.5Q444 371 425 402.5Q406 434 376.5 453.5Q347 473 305 473Q267 473 232.5 460.5Q198 448 175 424ZM83 655 10 690V711L150 761H175V453Q206 493 248 516.5Q290 540 345 540Q396 540 435 520.5Q474 501 500.5 467Q527 433 540 387.5Q553 342 553 290Q553 221 534 165.5Q515 110 481.5 71Q448 32 403 11Q358 -10 306 -10Q259 -10 225.5 5.5Q192 21 175 45V-105Q175 -122 181 -132.5Q187 -143 197.5 -148.5Q208 -154 222 -157Q236 -160 253 -162V-197H5V-162Q22 -160 36 -157Q50 -154 60.5 -148.5Q71 -143 77 -132.5Q83 -122 83 -105Z" glyph-name="thorn" horiz-adv-x="593" unicode="&#254;" /><glyph d="M285 397Q332 392 370 376Q408 360 435 335.5Q462 311 476.5 278.5Q491 246 491 208Q491 156 471.5 115.5Q452 75 418 47Q384 19 339.5 4.5Q295 -10 246 -10Q191 -10 149 1.5Q107 13 79 32.5Q51 52 36.5 77.5Q22 103 22 130Q22 156 36 174.5Q50 193 66 201H120V167Q120 104 154 69.5Q188 35 252 35Q319 35 354 73Q389 111 389 177Q389 217 373.5 246.5Q358 276 331 295.5Q304 315 267 325Q230 335 186 335H151L144 369Q187 380 225 393.5Q263 407 291 426Q319 445 335 471.5Q351 498 351 535Q351 583 320 609Q289 635 241 635Q190 635 151 608.5Q112 582 89 541L64 561Q77 591 96.5 618.5Q116 646 142.5 666.5Q169 687 202.5 699.5Q236 712 277 712Q318 712 350 700.5Q382 689 404 668.5Q426 648 437.5 620Q449 592 449 559Q449 524 434 497Q419 470 395 449.5Q371 429 342 416Q313 403 285 397Z" glyph-name="three" horiz-adv-x="527" unicode="3" /><glyph d="M221 537Q282 530 319 496.5Q356 463 356 410Q356 377 342 352.5Q328 328 304.5 311.5Q281 295 250.5 286.5Q220 278 187 278Q150 278 121.5 286Q93 294 74 307.5Q55 321 45 338.5Q35 356 35 375Q35 392 43.5 404Q52 416 63 422H113V399Q113 358 132.5 335Q152 312 194 312Q231 312 252.5 335Q274 358 274 403Q274 451 243 473.5Q212 496 159 496H135L132 520Q189 540 222 562.5Q255 585 255 621Q255 649 236 667Q217 685 179 685Q140 685 117 664.5Q94 644 80 618L54 635Q64 657 78.5 677Q93 697 113 712Q133 727 157.5 735.5Q182 744 212 744Q270 744 302.5 716Q335 688 335 646Q335 623 324 605.5Q313 588 296.5 574.5Q280 561 259.5 552Q239 543 221 537ZM689 92V290L525 92ZM689 -71V48H463V82L718 387H773V92H852V48H773V-71ZM673 741H733L283 0H224Z" glyph-name="threequarters" horiz-adv-x="902" unicode="&#190;" /><glyph d="M221 537Q282 530 319 496.5Q356 463 356 410Q356 377 342 352.5Q328 328 304.5 311.5Q281 295 250.5 286.5Q220 278 187 278Q150 278 121.5 286Q93 294 74 307.5Q55 321 45 338.5Q35 356 35 375Q35 392 43.5 404Q52 416 63 422H113V399Q113 358 132.5 335Q152 312 194 312Q231 312 252.5 335Q274 358 274 403Q274 451 243 473.5Q212 496 159 496H135L132 520Q189 540 222 562.5Q255 585 255 621Q255 649 236 667Q217 685 179 685Q140 685 117 664.5Q94 644 80 618L54 635Q64 657 78.5 677Q93 697 113 712Q133 727 157.5 735.5Q182 744 212 744Q270 744 302.5 716Q335 688 335 646Q335 623 324 605.5Q313 588 296.5 574.5Q280 561 259.5 552Q239 543 221 537Z" glyph-name="threesuperior" horiz-adv-x="406" unicode="&#179;" /><glyph d="M433 731Q416 694 402 670.5Q388 647 374.5 634Q361 621 347 616Q333 611 315 611Q292 611 272.5 622Q253 633 235 646.5Q217 660 200.5 671.5Q184 683 168 683Q145 683 132.5 667.5Q120 652 103 621L66 631Q83 668 97 691.5Q111 715 124.5 728Q138 741 152 746Q166 751 184 751Q206 751 226 739.5Q246 728 264 714.5Q282 701 298.5 690Q315 679 331 679Q354 679 366.5 694.5Q379 710 396 741Z" glyph-name="tilde" horiz-adv-x="500" unicode="&#732;" /><glyph d="M433 880Q416 843 402 819.5Q388 796 374.5 783Q361 770 347 765Q333 760 315 760Q292 760 272.5 771Q253 782 235 795.5Q217 809 200.5 820.5Q184 832 168 832Q145 832 132.5 816.5Q120 801 103 770L66 780Q83 817 97 840.5Q111 864 124.5 877Q138 890 152 895Q166 900 184 900Q206 900 226 888.5Q246 877 264 863.5Q282 850 298.5 839Q315 828 331 828Q354 828 366.5 843.5Q379 859 396 890Z" glyph-name="tilde.cap" horiz-adv-x="500" /><glyph d="M348 702 356 604H332Q323 623 316.5 635.5Q310 648 302.5 655.5Q295 663 285 666.5Q275 670 259 670H233V427Q233 409 246 404Q259 399 283 397V370H118V397Q141 399 154.5 404Q168 409 168 427V670H142Q126 670 116 666.5Q106 663 98.5 655.5Q91 648 85 635.5Q79 623 70 604H45L52 702ZM668 674Q672 684 675 702H770V675Q748 673 740 666.5Q732 660 731 646L760 421Q762 407 771 403Q780 399 800 397V370H653V397Q679 399 688.5 403.5Q698 408 698 422Q698 426 697 435.5Q696 445 694 454L674 607L585 370H556L466 607L446 455Q444 445 443.5 435Q443 425 443 422Q443 408 452.5 403.5Q462 399 488 397V370H368V397Q404 398 407 421L436 646Q435 660 427 666.5Q419 673 396 675V702H497Q500 684 504 674L585 461Z" glyph-name="trademark" horiz-adv-x="873" unicode="&#8482;" /><glyph d="M297 85Q328 85 351 88Q374 91 392 101.5Q410 112 426.5 132.5Q443 153 461 188H490L449 0H11V22L186 206Q236 259 268.5 298.5Q301 338 319.5 371Q338 404 345 433Q352 462 352 493Q352 559 317.5 594.5Q283 630 218 630Q189 630 165 622Q141 614 120.5 600.5Q100 587 82.5 570.5Q65 554 49 536L26 559Q41 588 62.5 615.5Q84 643 112.5 664.5Q141 686 176 699Q211 712 253 712Q350 712 402.5 657Q455 602 455 511Q455 456 428.5 407Q402 358 358 308Q314 258 255.5 203.5Q197 149 134 85Z" glyph-name="two" horiz-adv-x="516" unicode="2" /><glyph d="M238 362Q257 362 270.5 364Q284 366 295 372.5Q306 379 316 392.5Q326 406 338 429H362L346 287H25V311L143 428Q173 458 194 481.5Q215 505 228 525.5Q241 546 246.5 564Q252 582 252 600Q252 640 228.5 661Q205 682 165 682Q146 682 130.5 677Q115 672 101.5 664Q88 656 76.5 646Q65 636 55 626L39 643Q50 664 65.5 683Q81 702 101 716.5Q121 731 145 739.5Q169 748 198 748Q264 748 300.5 714Q337 680 337 620Q337 585 320 554.5Q303 524 274.5 494Q246 464 207 432Q168 400 125 362Z" glyph-name="twosuperior" horiz-adv-x="407" unicode="&#178;" /><glyph d="M425 88Q406 70 386 52.5Q366 35 343.5 21Q321 7 295.5 -1.5Q270 -10 239 -10Q173 -10 135.5 28Q98 66 98 154V429Q98 456 86 466Q74 476 38 481L22 483V517L175 540H190V168Q190 113 212.5 88.5Q235 64 283 64Q323 64 359.5 79Q396 94 425 117V429Q425 456 413 466Q401 476 365 481L349 483V517L501 540H517V108Q517 82 528 74Q539 66 573 62L599 59V25L439 -10H425Z" glyph-name="u" horiz-adv-x="629" unicode="u" /><glyph d="M425 88Q406 70 386 52.5Q366 35 343.5 21Q321 7 295.5 -1.5Q270 -10 239 -10Q173 -10 135.5 28Q98 66 98 154V429Q98 456 86 466Q74 476 38 481L22 483V517L175 540H190V168Q190 113 212.5 88.5Q235 64 283 64Q323 64 359.5 79Q396 94 425 117V429Q425 456 413 466Q401 476 365 481L349 483V517L501 540H517V108Q517 82 528 74Q539 66 573 62L599 59V25L439 -10H425ZM469 761 318 592H279L353 761Z" glyph-name="uacute" horiz-adv-x="629" unicode="&#250;" /><glyph d="M425 88Q406 70 386 52.5Q366 35 343.5 21Q321 7 295.5 -1.5Q270 -10 239 -10Q173 -10 135.5 28Q98 66 98 154V429Q98 456 86 466Q74 476 38 481L22 483V517L175 540H190V168Q190 113 212.5 88.5Q235 64 283 64Q323 64 359.5 79Q396 94 425 117V429Q425 456 413 466Q401 476 365 481L349 483V517L501 540H517V108Q517 82 528 74Q539 66 573 62L599 59V25L439 -10H425ZM310 593Q242 593 205.5 636.5Q169 680 169 761H208Q212 707 240.5 683Q269 659 310 659Q351 659 379.5 683Q408 707 412 761H451Q451 680 414.5 636.5Q378 593 310 593Z" glyph-name="ubreve" horiz-adv-x="629" unicode="&#365;" /><glyph d="M425 88Q406 70 386 52.5Q366 35 343.5 21Q321 7 295.5 -1.5Q270 -10 239 -10Q173 -10 135.5 28Q98 66 98 154V429Q98 456 86 466Q74 476 38 481L22 483V517L175 540H190V168Q190 113 212.5 88.5Q235 64 283 64Q323 64 359.5 79Q396 94 425 117V429Q425 456 413 466Q401 476 365 481L349 483V517L501 540H517V108Q517 82 528 74Q539 66 573 62L599 59V25L439 -10H425ZM484 592H438L310 695L182 592H136L276 765H344Z" glyph-name="ucircumflex" horiz-adv-x="629" unicode="&#251;" /><glyph d="M425 88Q406 70 386 52.5Q366 35 343.5 21Q321 7 295.5 -1.5Q270 -10 239 -10Q173 -10 135.5 28Q98 66 98 154V429Q98 456 86 466Q74 476 38 481L22 483V517L175 540H190V168Q190 113 212.5 88.5Q235 64 283 64Q323 64 359.5 79Q396 94 425 117V429Q425 456 413 466Q401 476 365 481L349 483V517L501 540H517V108Q517 82 528 74Q539 66 573 62L599 59V25L439 -10H425ZM154 677Q154 702 171.5 719.5Q189 737 215 737Q241 737 258.5 719.5Q276 702 276 677Q276 651 258.5 633Q241 615 215 615Q189 615 171.5 633Q154 651 154 677ZM344 677Q344 702 361.5 719.5Q379 737 405 737Q431 737 448.5 719.5Q466 702 466 677Q466 651 448.5 633Q431 615 405 615Q379 615 361.5 633Q344 651 344 677Z" glyph-name="udieresis" horiz-adv-x="629" unicode="&#252;" /><glyph d="M425 88Q406 70 386 52.5Q366 35 343.5 21Q321 7 295.5 -1.5Q270 -10 239 -10Q173 -10 135.5 28Q98 66 98 154V429Q98 456 86 466Q74 476 38 481L22 483V517L175 540H190V168Q190 113 212.5 88.5Q235 64 283 64Q323 64 359.5 79Q396 94 425 117V429Q425 456 413 466Q401 476 365 481L349 483V517L501 540H517V108Q517 82 528 74Q539 66 573 62L599 59V25L439 -10H425ZM261 761 335 592H296L145 761Z" glyph-name="ugrave" horiz-adv-x="629" unicode="&#249;" /><glyph d="M425 88Q406 70 386 52.5Q366 35 343.5 21Q321 7 295.5 -1.5Q270 -10 239 -10Q173 -10 135.5 28Q98 66 98 154V429Q98 456 86 466Q74 476 38 481L22 483V517L175 540H190V168Q190 113 212.5 88.5Q235 64 283 64Q323 64 359.5 79Q396 94 425 117V429Q425 456 413 466Q401 476 365 481L349 483V517L501 540H517V108Q517 82 528 74Q539 66 573 62L599 59V25L439 -10H425ZM378 761 249 592H209L276 761ZM528 761 399 592H359L426 761Z" glyph-name="uhungarumlaut" horiz-adv-x="629" unicode="&#369;" /><glyph d="M425 88Q406 70 386 52.5Q366 35 343.5 21Q321 7 295.5 -1.5Q270 -10 239 -10Q173 -10 135.5 28Q98 66 98 154V429Q98 456 86 466Q74 476 38 481L22 483V517L175 540H190V168Q190 113 212.5 88.5Q235 64 283 64Q323 64 359.5 79Q396 94 425 117V429Q425 456 413 466Q401 476 365 481L349 483V517L501 540H517V108Q517 82 528 74Q539 66 573 62L599 59V25L439 -10H425ZM179 681H441V623H179Z" glyph-name="umacron" horiz-adv-x="629" unicode="&#363;" /><glyph d="M20 -120V-66H420V-120Z" glyph-name="underscore" horiz-adv-x="440" unicode="_" /><glyph d="M599 25Q536 10 494.5 -6Q453 -22 428 -39Q403 -56 393 -74.5Q383 -93 383 -112Q383 -131 395.5 -143Q408 -155 432 -155Q456 -155 478 -146Q500 -137 524 -118L536 -135Q525 -148 511.5 -161.5Q498 -175 481.5 -185.5Q465 -196 446 -203Q427 -210 406 -210Q368 -210 342 -188.5Q316 -167 316 -128Q316 -106 325 -87.5Q334 -69 349 -54.5Q364 -40 383.5 -28Q403 -16 425 -5V88Q406 70 386 52.5Q366 35 343.5 21Q321 7 295.5 -1.5Q270 -10 239 -10Q173 -10 135.5 28Q98 66 98 154V429Q98 456 86 466Q74 476 38 481L22 483V517L175 540H190V168Q190 113 212.5 88.5Q235 64 283 64Q323 64 359.5 79Q396 94 425 117V429Q425 456 413 466Q401 476 365 481L349 483V517L501 540H517V108Q517 82 528 74Q539 66 573 62L599 59Z" glyph-name="uogonek" horiz-adv-x="629" unicode="&#371;" /><glyph d="M425 88Q406 70 386 52.5Q366 35 343.5 21Q321 7 295.5 -1.5Q270 -10 239 -10Q173 -10 135.5 28Q98 66 98 154V429Q98 456 86 466Q74 476 38 481L22 483V517L175 540H190V168Q190 113 212.5 88.5Q235 64 283 64Q323 64 359.5 79Q396 94 425 117V429Q425 456 413 466Q401 476 365 481L349 483V517L501 540H517V108Q517 82 528 74Q539 66 573 62L599 59V25L439 -10H425ZM217 679Q217 718 242.5 744Q268 770 310 770Q352 770 377.5 744Q403 718 403 679Q403 640 377.5 614Q352 588 310 588Q268 588 242.5 614Q217 640 217 679ZM361 679Q361 702 348.5 717.5Q336 733 310 733Q284 733 271.5 717.5Q259 702 259 679Q259 656 271.5 640.5Q284 625 310 625Q336 625 348.5 640.5Q361 656 361 679Z" glyph-name="uring" horiz-adv-x="629" unicode="&#367;" /><glyph d="M425 88Q406 70 386 52.5Q366 35 343.5 21Q321 7 295.5 -1.5Q270 -10 239 -10Q173 -10 135.5 28Q98 66 98 154V429Q98 456 86 466Q74 476 38 481L22 483V517L175 540H190V168Q190 113 212.5 88.5Q235 64 283 64Q323 64 359.5 79Q396 94 425 117V429Q425 456 413 466Q401 476 365 481L349 483V517L501 540H517V108Q517 82 528 74Q539 66 573 62L599 59V25L439 -10H425ZM494 731Q477 694 463 670.5Q449 647 435.5 634Q422 621 408 616Q394 611 376 611Q353 611 333.5 622Q314 633 296 646.5Q278 660 261.5 671.5Q245 683 229 683Q206 683 193.5 667.5Q181 652 164 621L127 631Q144 668 158 691.5Q172 715 185.5 728Q199 741 213 746Q227 751 245 751Q267 751 287 739.5Q307 728 325 714.5Q343 701 359.5 690Q376 679 392 679Q415 679 427.5 694.5Q440 710 457 741Z" glyph-name="utilde" horiz-adv-x="629" unicode="&#361;" /><glyph d="M548 495Q531 489 521 485Q511 481 505 477Q499 473 496 468Q493 463 489 455L291 -10H269L64 455Q60 463 57 468Q54 473 48 476.5Q42 480 32 484.5Q22 489 5 495V530H239V495Q200 490 183.5 483.5Q167 477 167 459Q167 449 174 432L296 127L421 432Q425 442 426.5 447.5Q428 453 428 459Q428 477 411 483.5Q394 490 356 495V530H548Z" glyph-name="v" horiz-adv-x="553" unicode="v" /></font>
</defs>
</svg>
