<?xml version="1.0" standalone="no"?>
<!-- Licensee: XOXO (#24568) - http://vllg.com -->
<!DOCTYPE svg PUBLIC "-//W3C//DTD SVG 1.1//EN" "http://www.w3.org/Graphics/SVG/1.1/DTD/svg11.dtd" ><svg version="1.1" xmlns="http://www.w3.org/2000/svg"><defs><font horiz-adv-x="0" id="font"><font-face ascent="750" bbox="-130 -252 1279 927" cap-height="700" descent="-250" font-family="Post Grotesk" font-stretch="normal" font-style="normal" font-weight="500" units-per-em="1000" x-height="472" /><missing-glyph d="M70 700H770V0H70ZM140 70H700V630H140ZM233 113 183 163 371 350 183 537 233 587 420 399 607 587 657 537 469 350 657 163 607 113 420 301Z" horiz-adv-x="840" /><glyph d="M609 0H518L450 190H172L104 0H19L274 700H354ZM309 587Q306 576 299 556Q292 536 283.5 511Q275 486 265.5 457.5Q256 429 246 401Q223 335 196 258H426Q399 335 376 401Q366 429 356 457.5Q346 486 337 511Q328 536 321 556Q314 576 311 587Z" glyph-name="A" horiz-adv-x="628" unicode="A" /><glyph d="M456 0V190H215L106 0H15L417 700H866V630H543V396H845V326H543V70H873V0ZM253 258H456V612H452Z" glyph-name="AE" horiz-adv-x="922" unicode="&#198;" /><glyph d="M433 855 255 748 226 792 392 916ZM609 0H518L450 190H172L104 0H19L274 700H354ZM309 587Q306 576 299 556Q292 536 283.5 511Q275 486 265.5 457.5Q256 429 246 401Q223 335 196 258H426Q399 335 376 401Q366 429 356 457.5Q346 486 337 511Q328 536 321 556Q314 576 311 587Z" glyph-name="Aacute" horiz-adv-x="628" unicode="&#193;" /><glyph d="M226 891Q231 860 254.5 838Q278 816 313 816Q348 816 371.5 838Q395 860 400 891L465 871Q454 822 413.5 791Q373 760 313 760Q253 760 212.5 791Q172 822 161 871ZM609 0H518L450 190H172L104 0H19L274 700H354ZM309 587Q306 576 299 556Q292 536 283.5 511Q275 486 265.5 457.5Q256 429 246 401Q223 335 196 258H426Q399 335 376 401Q366 429 356 457.5Q346 486 337 511Q328 536 321 556Q314 576 311 587Z" glyph-name="Abreve" horiz-adv-x="628" unicode="&#258;" /><glyph d="M283 900H342L456 784L414 745L312 843L213 745L171 784ZM609 0H518L450 190H172L104 0H19L274 700H354ZM309 587Q306 576 299 556Q292 536 283.5 511Q275 486 265.5 457.5Q256 429 246 401Q223 335 196 258H426Q399 335 376 401Q366 429 356 457.5Q346 486 337 511Q328 536 321 556Q314 576 311 587Z" glyph-name="Acircumflex" horiz-adv-x="628" unicode="&#194;" /><glyph d="M357 820Q357 843 372 857.5Q387 872 410 872Q433 872 448 857.5Q463 843 463 820Q463 798 448 782.5Q433 767 410 767Q387 767 372 782.5Q357 798 357 820ZM165 820Q165 843 180 857.5Q195 872 218 872Q241 872 256 857.5Q271 843 271 820Q271 798 256 782.5Q241 767 218 767Q195 767 180 782.5Q165 798 165 820ZM609 0H518L450 190H172L104 0H19L274 700H354ZM309 587Q306 576 299 556Q292 536 283.5 511Q275 486 265.5 457.5Q256 429 246 401Q223 335 196 258H426Q399 335 376 401Q366 429 356 457.5Q346 486 337 511Q328 536 321 556Q314 576 311 587Z" glyph-name="Adieresis" horiz-adv-x="628" unicode="&#196;" /><glyph d="M196 855 237 916 403 792 374 748ZM609 0H518L450 190H172L104 0H19L274 700H354ZM309 587Q306 576 299 556Q292 536 283.5 511Q275 486 265.5 457.5Q256 429 246 401Q223 335 196 258H426Q399 335 376 401Q366 429 356 457.5Q346 486 337 511Q328 536 321 556Q314 576 311 587Z" glyph-name="Agrave" horiz-adv-x="628" unicode="&#192;" /><glyph d="M183 836H442V777H183ZM609 0H518L450 190H172L104 0H19L274 700H354ZM309 587Q306 576 299 556Q292 536 283.5 511Q275 486 265.5 457.5Q256 429 246 401Q223 335 196 258H426Q399 335 376 401Q366 429 356 457.5Q346 486 337 511Q328 536 321 556Q314 576 311 587Z" glyph-name="Amacron" horiz-adv-x="628" unicode="&#256;" /><glyph d="M311 585H309L104 0H19L274 700H354L609 0H518Z" glyph-name="Anocross" horiz-adv-x="628" unicode="&#59185;" /><glyph d="M510 -104Q510 -121 520.5 -132Q531 -143 552 -143Q568 -143 581 -135Q594 -127 608 -106L639 -137Q617 -168 592 -181.5Q567 -195 538 -195Q523 -195 506.5 -191Q490 -187 476.5 -177.5Q463 -168 454 -152Q445 -136 445 -112Q445 -72 466 -47Q487 -22 517 0H518L450 190H172L104 0H19L274 700H354L609 0Q551 -28 530.5 -54.5Q510 -81 510 -104ZM309 587Q306 576 299 556Q292 536 283.5 511Q275 486 265.5 457.5Q256 429 246 401Q223 335 196 258H426Q399 335 376 401Q366 429 356 457.5Q346 486 337 511Q328 536 321 556Q314 576 311 587Z" glyph-name="Aogonek" horiz-adv-x="628" unicode="&#260;" /><glyph d="M216 835Q216 876 243 901.5Q270 927 314 927Q358 927 385 901.5Q412 876 412 835Q412 796 385 769Q358 742 314 742Q270 742 243 769Q216 796 216 835ZM264 835Q264 815 278 799.5Q292 784 314 784Q336 784 350 799.5Q364 815 364 835Q364 856 350 870.5Q336 885 314 885Q292 885 278 870.5Q264 856 264 835ZM609 0H518L450 190H172L104 0H19L274 700H354ZM309 587Q306 576 299 556Q292 536 283.5 511Q275 486 265.5 457.5Q256 429 246 401Q223 335 196 258H426Q399 335 376 401Q366 429 356 457.5Q346 486 337 511Q328 536 321 556Q314 576 311 587Z" glyph-name="Aring" horiz-adv-x="628" unicode="&#197;" /><glyph d="M244 875Q269 875 288 867Q307 859 322.5 849.5Q338 840 352 832Q366 824 383 824Q399 824 410 831Q421 838 429 847Q438 857 443 870L486 831Q476 813 461 799Q448 787 428 777Q408 767 379 767Q353 767 335 775Q317 783 301.5 792Q286 801 272 809Q258 817 241 817Q224 817 213.5 809.5Q203 802 195 794Q186 784 181 772L138 811Q147 829 162 843Q175 855 195 865Q215 875 244 875ZM609 0H518L450 190H172L104 0H19L274 700H354ZM309 587Q306 576 299 556Q292 536 283.5 511Q275 486 265.5 457.5Q256 429 246 401Q223 335 196 258H426Q399 335 376 401Q366 429 356 457.5Q346 486 337 511Q328 536 321 556Q314 576 311 587Z" glyph-name="Atilde" horiz-adv-x="628" unicode="&#195;" /><glyph d="M90 700H334Q440 700 492.5 654Q545 608 545 527Q545 489 534.5 461.5Q524 434 507.5 414.5Q491 395 470.5 383Q450 371 431 364Q459 360 484.5 348Q510 336 530 316Q550 296 562 267Q574 238 574 200Q574 156 557.5 119Q541 82 511 55.5Q481 29 439 14.5Q397 0 347 0H90ZM176 632V395H307Q380 395 419 426Q458 457 458 520Q458 632 318 632ZM176 68H317Q366 68 399 79Q432 90 451.5 108Q471 126 479 149.5Q487 173 487 199Q487 234 474.5 258.5Q462 283 439 298Q416 313 384 320Q352 327 314 327H176Z" glyph-name="B" horiz-adv-x="625" unicode="B" /><glyph d="M53 350Q53 431 74.5 497.5Q96 564 136.5 611.5Q177 659 235.5 685.5Q294 712 367 712Q469 712 533 662.5Q597 613 632 532L551 502Q540 531 523.5 556.5Q507 582 484 600.5Q461 619 431 630Q401 641 363 641Q312 641 271 620.5Q230 600 201.5 562Q173 524 158 470Q143 416 143 350Q143 285 157.5 231.5Q172 178 200 139.5Q228 101 269 80Q310 59 362 59Q435 59 481 97.5Q527 136 551 198L632 168Q597 84 532 36Q467 -12 366 -12Q292 -12 234 14.5Q176 41 135.5 89Q95 137 74 203.5Q53 270 53 350Z" glyph-name="C" horiz-adv-x="667" unicode="C" /><glyph d="M467 855 289 748 260 792 426 916ZM53 350Q53 431 74.5 497.5Q96 564 136.5 611.5Q177 659 235.5 685.5Q294 712 367 712Q469 712 533 662.5Q597 613 632 532L551 502Q540 531 523.5 556.5Q507 582 484 600.5Q461 619 431 630Q401 641 363 641Q312 641 271 620.5Q230 600 201.5 562Q173 524 158 470Q143 416 143 350Q143 285 157.5 231.5Q172 178 200 139.5Q228 101 269 80Q310 59 362 59Q435 59 481 97.5Q527 136 551 198L632 168Q597 84 532 36Q467 -12 366 -12Q292 -12 234 14.5Q176 41 135.5 89Q95 137 74 203.5Q53 270 53 350Z" glyph-name="Cacute" horiz-adv-x="667" unicode="&#262;" /><glyph d="M221 868 264 907 363 809 464 907 506 868 393 752H333ZM53 350Q53 431 74.5 497.5Q96 564 136.5 611.5Q177 659 235.5 685.5Q294 712 367 712Q469 712 533 662.5Q597 613 632 532L551 502Q540 531 523.5 556.5Q507 582 484 600.5Q461 619 431 630Q401 641 363 641Q312 641 271 620.5Q230 600 201.5 562Q173 524 158 470Q143 416 143 350Q143 285 157.5 231.5Q172 178 200 139.5Q228 101 269 80Q310 59 362 59Q435 59 481 97.5Q527 136 551 198L632 168Q597 84 532 36Q467 -12 366 -12Q292 -12 234 14.5Q176 41 135.5 89Q95 137 74 203.5Q53 270 53 350Z" glyph-name="Ccaron" horiz-adv-x="667" unicode="&#268;" /><glyph d="M311 -156Q318 -162 330.5 -168.5Q343 -175 362 -175Q382 -175 393 -163.5Q404 -152 404 -133Q404 -93 364 -93Q351 -93 342 -97Q333 -101 326 -106L299 -79L327 -10Q262 -3 211 26Q160 55 125 102Q90 149 71.5 212Q53 275 53 350Q53 431 74.5 497.5Q96 564 136.5 611.5Q177 659 235.5 685.5Q294 712 367 712Q469 712 533 662.5Q597 613 632 532L551 502Q540 531 523.5 556.5Q507 582 484 600.5Q461 619 431 630Q401 641 363 641Q312 641 271 620.5Q230 600 201.5 562Q173 524 158 470Q143 416 143 350Q143 285 157.5 231.5Q172 178 200 139.5Q228 101 269 80Q310 59 362 59Q435 59 481 97.5Q527 136 551 198L632 168Q597 85 533.5 37.5Q470 -10 371 -12L354 -56Q366 -49 384 -49Q417 -49 439.5 -70.5Q462 -92 462 -131Q462 -174 434 -198.5Q406 -223 362 -223Q332 -223 312 -213.5Q292 -204 283 -195Z" glyph-name="Ccedilla" horiz-adv-x="667" unicode="&#199;" /><glyph d="M333 900H392L506 784L464 745L362 843L263 745L221 784ZM53 350Q53 431 74.5 497.5Q96 564 136.5 611.5Q177 659 235.5 685.5Q294 712 367 712Q469 712 533 662.5Q597 613 632 532L551 502Q540 531 523.5 556.5Q507 582 484 600.5Q461 619 431 630Q401 641 363 641Q312 641 271 620.5Q230 600 201.5 562Q173 524 158 470Q143 416 143 350Q143 285 157.5 231.5Q172 178 200 139.5Q228 101 269 80Q310 59 362 59Q435 59 481 97.5Q527 136 551 198L632 168Q597 84 532 36Q467 -12 366 -12Q292 -12 234 14.5Q176 41 135.5 89Q95 137 74 203.5Q53 270 53 350Z" glyph-name="Ccircumflex" horiz-adv-x="667" unicode="&#264;" /><glyph d="M312 819Q312 843 327.5 858.5Q343 874 368 874Q393 874 408.5 858.5Q424 843 424 819Q424 796 408.5 780.5Q393 765 368 765Q343 765 327.5 780.5Q312 796 312 819ZM53 350Q53 431 74.5 497.5Q96 564 136.5 611.5Q177 659 235.5 685.5Q294 712 367 712Q469 712 533 662.5Q597 613 632 532L551 502Q540 531 523.5 556.5Q507 582 484 600.5Q461 619 431 630Q401 641 363 641Q312 641 271 620.5Q230 600 201.5 562Q173 524 158 470Q143 416 143 350Q143 285 157.5 231.5Q172 178 200 139.5Q228 101 269 80Q310 59 362 59Q435 59 481 97.5Q527 136 551 198L632 168Q597 84 532 36Q467 -12 366 -12Q292 -12 234 14.5Q176 41 135.5 89Q95 137 74 203.5Q53 270 53 350Z" glyph-name="Cdotaccent" horiz-adv-x="667" unicode="&#266;" /><glyph d="M90 700H326Q399 700 458 676Q517 652 558 607Q599 562 621 497Q643 432 643 350Q643 267 621 202Q599 137 558 92Q517 47 458 23.5Q399 0 326 0H90ZM553 350Q553 413 539 464.5Q525 516 495 552.5Q465 589 419.5 609.5Q374 630 311 630H177V70H311Q374 70 419.5 90.5Q465 111 495 147.5Q525 184 539 235.5Q553 287 553 350Z" glyph-name="D" horiz-adv-x="698" unicode="D" /><glyph d="M166 868 209 907 308 809 409 907 451 868 338 752H278ZM90 700H326Q399 700 458 676Q517 652 558 607Q599 562 621 497Q643 432 643 350Q643 267 621 202Q599 137 558 92Q517 47 458 23.5Q399 0 326 0H90ZM553 350Q553 413 539 464.5Q525 516 495 552.5Q465 589 419.5 609.5Q374 630 311 630H177V70H311Q374 70 419.5 90.5Q465 111 495 147.5Q525 184 539 235.5Q553 287 553 350Z" glyph-name="Dcaron" horiz-adv-x="698" unicode="&#270;" /><glyph d="M109 397V700H345Q418 700 477 676Q536 652 577 607Q618 562 640 497Q662 432 662 350Q662 267 640 202Q618 137 577 92Q536 47 477 23.5Q418 0 345 0H109V334H20V397ZM572 350Q572 413 558 464.5Q544 516 514 552.5Q484 589 438.5 609.5Q393 630 330 630H196V397H385V334H196V70H330Q393 70 438.5 90.5Q484 111 514 147.5Q544 184 558 235.5Q572 287 572 350Z" glyph-name="Dcroat" horiz-adv-x="717" unicode="&#272;" /><glyph d="M636 0H45L298 700H385ZM152 66H527L339 600Z" glyph-name="Delta" horiz-adv-x="681" unicode="&#8710;" /><glyph d="M90 0V700H500V630H177V396H479V326H177V70H507V0Z" glyph-name="E" horiz-adv-x="556" unicode="E" /><glyph d="M416 855 238 748 209 792 375 916ZM90 0V700H500V630H177V396H479V326H177V70H507V0Z" glyph-name="Eacute" horiz-adv-x="556" unicode="&#201;" /><glyph d="M210 891Q215 860 238.5 838Q262 816 297 816Q332 816 355.5 838Q379 860 384 891L449 871Q438 822 397.5 791Q357 760 297 760Q237 760 196.5 791Q156 822 145 871ZM90 0V700H500V630H177V396H479V326H177V70H507V0Z" glyph-name="Ebreve" horiz-adv-x="556" unicode="&#276;" /><glyph d="M154 868 197 907 296 809 397 907 439 868 326 752H266ZM90 0V700H500V630H177V396H479V326H177V70H507V0Z" glyph-name="Ecaron" horiz-adv-x="556" unicode="&#282;" /><glyph d="M264 900H323L437 784L395 745L293 843L194 745L152 784ZM90 0V700H500V630H177V396H479V326H177V70H507V0Z" glyph-name="Ecircumflex" horiz-adv-x="556" unicode="&#202;" /><glyph d="M340 820Q340 843 355 857.5Q370 872 393 872Q416 872 431 857.5Q446 843 446 820Q446 798 431 782.5Q416 767 393 767Q370 767 355 782.5Q340 798 340 820ZM148 820Q148 843 163 857.5Q178 872 201 872Q224 872 239 857.5Q254 843 254 820Q254 798 239 782.5Q224 767 201 767Q178 767 163 782.5Q148 798 148 820ZM90 0V700H500V630H177V396H479V326H177V70H507V0Z" glyph-name="Edieresis" horiz-adv-x="556" unicode="&#203;" /><glyph d="M242 819Q242 843 257.5 858.5Q273 874 298 874Q323 874 338.5 858.5Q354 843 354 819Q354 796 338.5 780.5Q323 765 298 765Q273 765 257.5 780.5Q242 796 242 819ZM90 0V700H500V630H177V396H479V326H177V70H507V0Z" glyph-name="Edotaccent" horiz-adv-x="556" unicode="&#278;" /><glyph d="M192 855 233 916 399 792 370 748ZM90 0V700H500V630H177V396H479V326H177V70H507V0Z" glyph-name="Egrave" horiz-adv-x="556" unicode="&#200;" /><glyph d="M168 836H427V777H168ZM90 0V700H500V630H177V396H479V326H177V70H507V0Z" glyph-name="Emacron" horiz-adv-x="556" unicode="&#274;" /><glyph d="M90 700H182Q265 573 338 462Q369 415 400.5 366.5Q432 318 460.5 274Q489 230 512.5 194.5Q536 159 550 137H552V700H633V-32Q633 -120 588.5 -166Q544 -212 464 -212Q414 -212 379.5 -194.5Q345 -177 318 -149L374 -92Q397 -118 416.5 -130.5Q436 -143 462 -143Q485 -143 502 -133.5Q519 -124 530 -107.5Q541 -91 546 -69Q551 -47 551 -22V-7Q541 8 514.5 48Q488 88 452.5 142Q417 196 376 258.5Q335 321 296 380Q257 439 224.5 489Q192 539 173 569H171V0H90Z" glyph-name="Eng" horiz-adv-x="723" unicode="&#330;" /><glyph d="M365 -104Q365 -121 375.5 -132Q386 -143 407 -143Q423 -143 436 -135Q449 -127 463 -106L494 -137Q472 -168 447 -181.5Q422 -195 393 -195Q378 -195 361.5 -191Q345 -187 331.5 -177.5Q318 -168 309 -152Q300 -136 300 -112Q300 -72 323.5 -47Q347 -22 380 0H90V700H500V630H177V396H479V326H177V70H507V0H464Q408 -31 386.5 -56Q365 -81 365 -104Z" glyph-name="Eogonek" horiz-adv-x="556" unicode="&#280;" /><glyph d="M109 397V700H345Q418 700 477 676Q536 652 577 607Q618 562 640 497Q662 432 662 350Q662 267 640 202Q618 137 577 92Q536 47 477 23.5Q418 0 345 0H109V334H20V397ZM572 350Q572 413 558 464.5Q544 516 514 552.5Q484 589 438.5 609.5Q393 630 330 630H196V397H385V334H196V70H330Q393 70 438.5 90.5Q484 111 514 147.5Q544 184 558 235.5Q572 287 572 350Z" glyph-name="Eth" horiz-adv-x="717" unicode="&#208;" /><glyph d="M91 339Q91 349 91 358.5Q91 368 92 378H30V435H99Q110 492 134 540Q158 588 194.5 623.5Q231 659 280.5 678.5Q330 698 391 698Q467 698 517 669.5Q567 641 599 598L537 552Q513 586 478 608Q443 630 391 630Q315 630 259 579.5Q203 529 184 435H445V378H177Q176 370 176 362.5Q176 355 176 347Q176 338 176 329Q176 320 177 312H445V255H184Q204 159 258.5 107.5Q313 56 391 56Q441 56 476 77Q511 98 538 135L600 87Q564 43 515.5 15.5Q467 -12 391 -12Q329 -12 279 7.5Q229 27 192 62Q155 97 131 146.5Q107 196 97 255H30V312H92Q91 319 91 325.5Q91 332 91 339Z" glyph-name="Euro" horiz-adv-x="630" unicode="&#8364;" /><glyph d="M90 0V700H501V630H177V396H480V326H177V0Z" glyph-name="F" horiz-adv-x="540" unicode="F" /><glyph d="M350 344H637V0H557V74Q547 60 531 45Q515 30 491.5 17Q468 4 436 -4Q404 -12 363 -12Q288 -12 230 16Q172 44 133 92.5Q94 141 73.5 207Q53 273 53 350Q53 429 75 495.5Q97 562 138.5 610Q180 658 239.5 685Q299 712 373 712Q468 712 535 665Q602 618 640 532L559 502Q535 564 488.5 602.5Q442 641 368 641Q318 641 276.5 621.5Q235 602 205.5 564.5Q176 527 159.5 472Q143 417 143 345Q143 208 202 133.5Q261 59 367 59Q406 59 440 69Q474 79 498.5 100Q523 121 537.5 152.5Q552 184 552 226V276H350Z" glyph-name="G" horiz-adv-x="717" unicode="G" /><glyph d="M285 891Q290 860 313.5 838Q337 816 372 816Q407 816 430.5 838Q454 860 459 891L524 871Q513 822 472.5 791Q432 760 372 760Q312 760 271.5 791Q231 822 220 871ZM350 344H637V0H557V74Q547 60 531 45Q515 30 491.5 17Q468 4 436 -4Q404 -12 363 -12Q288 -12 230 16Q172 44 133 92.5Q94 141 73.5 207Q53 273 53 350Q53 429 75 495.5Q97 562 138.5 610Q180 658 239.5 685Q299 712 373 712Q468 712 535 665Q602 618 640 532L559 502Q535 564 488.5 602.5Q442 641 368 641Q318 641 276.5 621.5Q235 602 205.5 564.5Q176 527 159.5 472Q143 417 143 345Q143 208 202 133.5Q261 59 367 59Q406 59 440 69Q474 79 498.5 100Q523 121 537.5 152.5Q552 184 552 226V276H350Z" glyph-name="Gbreve" horiz-adv-x="717" unicode="&#286;" /><glyph d="M341 900H400L514 784L472 745L370 843L271 745L229 784ZM350 344H637V0H557V74Q547 60 531 45Q515 30 491.5 17Q468 4 436 -4Q404 -12 363 -12Q288 -12 230 16Q172 44 133 92.5Q94 141 73.5 207Q53 273 53 350Q53 429 75 495.5Q97 562 138.5 610Q180 658 239.5 685Q299 712 373 712Q468 712 535 665Q602 618 640 532L559 502Q535 564 488.5 602.5Q442 641 368 641Q318 641 276.5 621.5Q235 602 205.5 564.5Q176 527 159.5 472Q143 417 143 345Q143 208 202 133.5Q261 59 367 59Q406 59 440 69Q474 79 498.5 100Q523 121 537.5 152.5Q552 184 552 226V276H350Z" glyph-name="Gcircumflex" horiz-adv-x="717" unicode="&#284;" /><glyph d="M350 344H637V0H557V74Q547 60 531 45Q515 30 491.5 17Q468 4 436 -4Q404 -12 363 -12Q288 -12 230 16Q172 44 133 92.5Q94 141 73.5 207Q53 273 53 350Q53 429 75 495.5Q97 562 138.5 610Q180 658 239.5 685Q299 712 373 712Q468 712 535 665Q602 618 640 532L559 502Q535 564 488.5 602.5Q442 641 368 641Q318 641 276.5 621.5Q235 602 205.5 564.5Q176 527 159.5 472Q143 417 143 345Q143 208 202 133.5Q261 59 367 59Q406 59 440 69Q474 79 498.5 100Q523 121 537.5 152.5Q552 184 552 226V276H350ZM420 -123Q420 -135 416.5 -151Q413 -167 404 -182Q395 -197 379 -208.5Q363 -220 337 -224L324 -191Q340 -191 355 -178.5Q370 -166 370 -149V-146Q369 -147 368 -147H361Q344 -147 330 -134Q316 -121 316 -101Q316 -84 328 -68.5Q340 -53 365 -53Q394 -53 407 -74Q420 -95 420 -123Z" glyph-name="Gcommaaccent" horiz-adv-x="717" unicode="&#290;" /><glyph d="M317 819Q317 843 332.5 858.5Q348 874 373 874Q398 874 413.5 858.5Q429 843 429 819Q429 796 413.5 780.5Q398 765 373 765Q348 765 332.5 780.5Q317 796 317 819ZM350 344H637V0H557V74Q547 60 531 45Q515 30 491.5 17Q468 4 436 -4Q404 -12 363 -12Q288 -12 230 16Q172 44 133 92.5Q94 141 73.5 207Q53 273 53 350Q53 429 75 495.5Q97 562 138.5 610Q180 658 239.5 685Q299 712 373 712Q468 712 535 665Q602 618 640 532L559 502Q535 564 488.5 602.5Q442 641 368 641Q318 641 276.5 621.5Q235 602 205.5 564.5Q176 527 159.5 472Q143 417 143 345Q143 208 202 133.5Q261 59 367 59Q406 59 440 69Q474 79 498.5 100Q523 121 537.5 152.5Q552 184 552 226V276H350Z" glyph-name="Gdotaccent" horiz-adv-x="717" unicode="&#288;" /><glyph d="M90 700H177V397H517V700H604V0H517V327H177V0H90Z" glyph-name="H" horiz-adv-x="694" unicode="H" /><glyph d="M90 570V700H177V570H517V700H604V570H684V502H604V0H517V327H177V0H90V502H10V570ZM517 397V502H177V397Z" glyph-name="Hbar" horiz-adv-x="694" unicode="&#294;" /><glyph d="M317 900H376L490 784L448 745L346 843L247 745L205 784ZM90 700H177V397H517V700H604V0H517V327H177V0H90Z" glyph-name="Hcircumflex" horiz-adv-x="694" unicode="&#292;" /><glyph d="M90 700H177V0H90Z" glyph-name="I" horiz-adv-x="267" unicode="I" /><glyph d="M412 58Q467 58 490 100Q513 142 513 231V700H600V231Q600 183 593 139Q586 95 566.5 61.5Q547 28 511 8Q475 -12 417 -12Q356 -12 319.5 9Q283 30 254 64L310 121Q337 89 358 73.5Q379 58 412 58ZM90 700H177V0H90Z" glyph-name="IJ" horiz-adv-x="685" unicode="&#306;" /><glyph d="M234 855 56 748 27 792 193 916ZM90 700H177V0H90Z" glyph-name="Iacute" horiz-adv-x="267" unicode="&#205;" /><glyph d="M46 891Q51 860 74.5 838Q98 816 133 816Q168 816 191.5 838Q215 860 220 891L285 871Q274 822 233.5 791Q193 760 133 760Q73 760 32.5 791Q-8 822 -19 871ZM90 700H177V0H90Z" glyph-name="Ibreve" horiz-adv-x="267" unicode="&#300;" /><glyph d="M103 900H162L276 784L234 745L132 843L33 745L-9 784ZM90 700H177V0H90Z" glyph-name="Icircumflex" horiz-adv-x="267" unicode="&#206;" /><glyph d="M176 820Q176 843 191 857.5Q206 872 229 872Q252 872 267 857.5Q282 843 282 820Q282 798 267 782.5Q252 767 229 767Q206 767 191 782.5Q176 798 176 820ZM-16 820Q-16 843 -1 857.5Q14 872 37 872Q60 872 75 857.5Q90 843 90 820Q90 798 75 782.5Q60 767 37 767Q14 767 -1 782.5Q-16 798 -16 820ZM90 700H177V0H90Z" glyph-name="Idieresis" horiz-adv-x="267" unicode="&#207;" /><glyph d="M77 819Q77 843 92.5 858.5Q108 874 133 874Q158 874 173.5 858.5Q189 843 189 819Q189 796 173.5 780.5Q158 765 133 765Q108 765 92.5 780.5Q77 796 77 819ZM90 700H177V0H90Z" glyph-name="Idotaccent" horiz-adv-x="267" unicode="&#304;" /><glyph d="M33 855 74 916 240 792 211 748ZM90 700H177V0H90Z" glyph-name="Igrave" horiz-adv-x="267" unicode="&#204;" /><glyph d="M4 836H263V777H4ZM90 700H177V0H90Z" glyph-name="Imacron" horiz-adv-x="267" unicode="&#298;" /><glyph d="M78 -104Q78 -121 88.5 -132Q99 -143 120 -143Q136 -143 149 -135Q162 -127 176 -106L207 -137Q185 -168 160 -181.5Q135 -195 106 -195Q91 -195 74.5 -191Q58 -187 44.5 -177.5Q31 -168 22 -152Q13 -136 13 -112Q13 -72 35.5 -47Q58 -22 90 0V700H177V0Q121 -29 99.5 -55Q78 -81 78 -104Z" glyph-name="Iogonek" horiz-adv-x="267" unicode="&#302;" /><glyph d="M65 875Q90 875 109 867Q128 859 143.5 849.5Q159 840 173 832Q187 824 204 824Q220 824 231 831Q242 838 250 847Q259 857 264 870L307 831Q297 813 282 799Q269 787 249 777Q229 767 200 767Q174 767 156 775Q138 783 122.5 792Q107 801 93 809Q79 817 62 817Q45 817 34.5 809.5Q24 802 16 794Q7 784 2 772L-41 811Q-32 829 -17 843Q-4 855 16 865Q36 875 65 875ZM90 700H177V0H90Z" glyph-name="Itilde" horiz-adv-x="267" unicode="&#296;" /><glyph d="M163 58Q218 58 241 100Q264 142 264 231V700H351V231Q351 183 344 139Q337 95 317.5 61.5Q298 28 262 8Q226 -12 168 -12Q107 -12 70.5 9Q34 30 5 64L61 121Q88 89 109 73.5Q130 58 163 58Z" glyph-name="J" horiz-adv-x="436" unicode="J" /><glyph d="M276 900H335L449 784L407 745L305 843L206 745L164 784ZM163 58Q218 58 241 100Q264 142 264 231V700H351V231Q351 183 344 139Q337 95 317.5 61.5Q298 28 262 8Q226 -12 168 -12Q107 -12 70.5 9Q34 30 5 64L61 121Q88 89 109 73.5Q130 58 163 58Z" glyph-name="Jcircumflex" horiz-adv-x="436" unicode="&#308;" /><glyph d="M254 358 177 278V0H90V700H177V383L478 700H582L314 418L605 0H500Z" glyph-name="K" horiz-adv-x="618" unicode="K" /><glyph d="M254 358 177 278V0H90V700H177V383L478 700H582L314 418L605 0H500ZM376 -123Q376 -135 372.5 -151Q369 -167 360 -182Q351 -197 335 -208.5Q319 -220 293 -224L280 -191Q296 -191 311 -178.5Q326 -166 326 -149V-146Q325 -147 324 -147H317Q300 -147 286 -134Q272 -121 272 -101Q272 -84 284 -68.5Q296 -53 321 -53Q350 -53 363 -74Q376 -95 376 -123Z" glyph-name="Kcommaaccent" horiz-adv-x="618" unicode="&#310;" /><glyph d="M90 700H177V70H487V0H90Z" glyph-name="L" horiz-adv-x="509" unicode="L" /><glyph d="M290 855 112 748 83 792 249 916ZM90 700H177V70H487V0H90Z" glyph-name="Lacute" horiz-adv-x="509" unicode="&#313;" /><glyph d="M370 690 310 531 263 543 302 708ZM90 700H177V70H487V0H90Z" glyph-name="Lcaron" horiz-adv-x="509" unicode="&#317;" /><glyph d="M90 700H177V70H487V0H90ZM341 -123Q341 -135 337.5 -151Q334 -167 325 -182Q316 -197 300 -208.5Q284 -220 258 -224L245 -191Q261 -191 276 -178.5Q291 -166 291 -149V-146Q290 -147 289 -147H282Q265 -147 251 -134Q237 -121 237 -101Q237 -84 249 -68.5Q261 -53 286 -53Q315 -53 328 -74Q341 -95 341 -123Z" glyph-name="Lcommaaccent" horiz-adv-x="509" unicode="&#315;" /><glyph d="M90 700H177V70H487V0H90ZM306 350Q306 375 321.5 390Q337 405 361 405Q385 405 400.5 390Q416 375 416 350Q416 328 400.5 312Q385 296 361 296Q337 296 321.5 312Q306 328 306 350Z" glyph-name="Ldot" horiz-adv-x="509" unicode="&#319;" /><glyph d="M115 336V700H202V390L345 479L380 423L202 312V70H512V0H115V258L55 221L20 277Z" glyph-name="Lslash" horiz-adv-x="534" unicode="&#321;" /><glyph d="M389 0Q376 32 358 77Q340 122 319.5 174.5Q299 227 277.5 283.5Q256 340 236 394Q216 448 199 496.5Q182 545 171 581H169V0H90V700H205Q259 555 306 433Q325 381 345 329Q365 277 382 232Q399 187 411.5 154Q424 121 430 106Q435 121 447.5 154Q460 187 476.5 232Q493 277 512 329Q531 381 550 433Q595 555 649 700H763V0H684V581H682Q670 544 652 493.5Q634 443 613 387Q592 331 570 273Q548 215 528 163Q508 111 491 68.5Q474 26 464 0Z" glyph-name="M" horiz-adv-x="853" unicode="M" /><glyph d="M90 700H182Q265 572 338 460Q369 412 400.5 363Q432 314 460.5 269.5Q489 225 512.5 189Q536 153 550 131H552V700H633V0H541Q460 125 388 236Q357 283 325.5 332Q294 381 265 425.5Q236 470 212 507.5Q188 545 173 569H171V0H90Z" glyph-name="N" horiz-adv-x="723" unicode="N" /><glyph glyph-name="NULL" horiz-adv-x="0" /><glyph d="M494 855 316 748 287 792 453 916ZM90 700H182Q265 572 338 460Q369 412 400.5 363Q432 314 460.5 269.5Q489 225 512.5 189Q536 153 550 131H552V700H633V0H541Q460 125 388 236Q357 283 325.5 332Q294 381 265 425.5Q236 470 212 507.5Q188 545 173 569H171V0H90Z" glyph-name="Nacute" horiz-adv-x="723" unicode="&#323;" /><glyph d="M219 868 262 907 361 809 462 907 504 868 391 752H331ZM90 700H182Q265 572 338 460Q369 412 400.5 363Q432 314 460.5 269.5Q489 225 512.5 189Q536 153 550 131H552V700H633V0H541Q460 125 388 236Q357 283 325.5 332Q294 381 265 425.5Q236 470 212 507.5Q188 545 173 569H171V0H90Z" glyph-name="Ncaron" horiz-adv-x="723" unicode="&#327;" /><glyph d="M90 700H182Q265 572 338 460Q369 412 400.5 363Q432 314 460.5 269.5Q489 225 512.5 189Q536 153 550 131H552V700H633V0H541Q460 125 388 236Q357 283 325.5 332Q294 381 265 425.5Q236 470 212 507.5Q188 545 173 569H171V0H90ZM424 -123Q424 -135 420.5 -151Q417 -167 408 -182Q399 -197 383 -208.5Q367 -220 341 -224L328 -191Q344 -191 359 -178.5Q374 -166 374 -149V-146Q373 -147 372 -147H365Q348 -147 334 -134Q320 -121 320 -101Q320 -84 332 -68.5Q344 -53 369 -53Q398 -53 411 -74Q424 -95 424 -123Z" glyph-name="Ncommaaccent" horiz-adv-x="723" unicode="&#325;" /><glyph d="M293 875Q318 875 337 867Q356 859 371.5 849.5Q387 840 401 832Q415 824 432 824Q448 824 459 831Q470 838 478 847Q487 857 492 870L535 831Q525 813 510 799Q497 787 477 777Q457 767 428 767Q402 767 384 775Q366 783 350.5 792Q335 801 321 809Q307 817 290 817Q273 817 262.5 809.5Q252 802 244 794Q235 784 230 772L187 811Q196 829 211 843Q224 855 244 865Q264 875 293 875ZM90 700H182Q265 572 338 460Q369 412 400.5 363Q432 314 460.5 269.5Q489 225 512.5 189Q536 153 550 131H552V700H633V0H541Q460 125 388 236Q357 283 325.5 332Q294 381 265 425.5Q236 470 212 507.5Q188 545 173 569H171V0H90Z" glyph-name="Ntilde" horiz-adv-x="723" unicode="&#209;" /><glyph d="M53 350Q53 434 75.5 501Q98 568 139.5 615Q181 662 238.5 687Q296 712 365 712Q434 712 491.5 687Q549 662 590.5 615Q632 568 654.5 501Q677 434 677 350Q677 266 654.5 199Q632 132 590.5 85Q549 38 491.5 13Q434 -12 365 -12Q296 -12 238.5 13Q181 38 139.5 85Q98 132 75.5 199Q53 266 53 350ZM143 350Q143 289 157 236Q171 183 198.5 143.5Q226 104 267.5 81.5Q309 59 365 59Q420 59 462 81.5Q504 104 531.5 143.5Q559 183 573 236Q587 289 587 350Q587 411 573 464Q559 517 531.5 556.5Q504 596 462 618.5Q420 641 365 641Q309 641 267.5 618.5Q226 596 198.5 556.5Q171 517 157 464Q143 411 143 350Z" glyph-name="O" horiz-adv-x="730" unicode="O" /><glyph d="M53 350Q53 433 75.5 500Q98 567 139 614Q180 661 237 686.5Q294 712 362 712Q430 712 485 684.5Q540 657 573 603V700H983V630H660V396H962V326H660V70H990V0H573V96Q539 42 485 15Q431 -12 363 -12Q294 -12 237 13.5Q180 39 139 86Q98 133 75.5 200Q53 267 53 350ZM142 350Q142 289 156 236Q170 183 198 143.5Q226 104 266.5 81.5Q307 59 361 59Q412 59 452 80.5Q492 102 519 140Q546 178 560 228.5Q574 279 574 338V362Q574 421 560 471.5Q546 522 519 559.5Q492 597 452 618Q412 639 361 639Q307 639 266.5 617Q226 595 198 556Q170 517 156 464Q142 411 142 350Z" glyph-name="OE" horiz-adv-x="1039" unicode="&#338;" /><glyph d="M466 855 288 748 259 792 425 916ZM53 350Q53 434 75.5 501Q98 568 139.5 615Q181 662 238.5 687Q296 712 365 712Q434 712 491.5 687Q549 662 590.5 615Q632 568 654.5 501Q677 434 677 350Q677 266 654.5 199Q632 132 590.5 85Q549 38 491.5 13Q434 -12 365 -12Q296 -12 238.5 13Q181 38 139.5 85Q98 132 75.5 199Q53 266 53 350ZM143 350Q143 289 157 236Q171 183 198.5 143.5Q226 104 267.5 81.5Q309 59 365 59Q420 59 462 81.5Q504 104 531.5 143.5Q559 183 573 236Q587 289 587 350Q587 411 573 464Q559 517 531.5 556.5Q504 596 462 618.5Q420 641 365 641Q309 641 267.5 618.5Q226 596 198.5 556.5Q171 517 157 464Q143 411 143 350Z" glyph-name="Oacute" horiz-adv-x="730" unicode="&#211;" /><glyph d="M278 891Q283 860 306.5 838Q330 816 365 816Q400 816 423.5 838Q447 860 452 891L517 871Q506 822 465.5 791Q425 760 365 760Q305 760 264.5 791Q224 822 213 871ZM53 350Q53 434 75.5 501Q98 568 139.5 615Q181 662 238.5 687Q296 712 365 712Q434 712 491.5 687Q549 662 590.5 615Q632 568 654.5 501Q677 434 677 350Q677 266 654.5 199Q632 132 590.5 85Q549 38 491.5 13Q434 -12 365 -12Q296 -12 238.5 13Q181 38 139.5 85Q98 132 75.5 199Q53 266 53 350ZM143 350Q143 289 157 236Q171 183 198.5 143.5Q226 104 267.5 81.5Q309 59 365 59Q420 59 462 81.5Q504 104 531.5 143.5Q559 183 573 236Q587 289 587 350Q587 411 573 464Q559 517 531.5 556.5Q504 596 462 618.5Q420 641 365 641Q309 641 267.5 618.5Q226 596 198.5 556.5Q171 517 157 464Q143 411 143 350Z" glyph-name="Obreve" horiz-adv-x="730" unicode="&#334;" /><glyph d="M336 900H395L509 784L467 745L365 843L266 745L224 784ZM53 350Q53 434 75.5 501Q98 568 139.5 615Q181 662 238.5 687Q296 712 365 712Q434 712 491.5 687Q549 662 590.5 615Q632 568 654.5 501Q677 434 677 350Q677 266 654.5 199Q632 132 590.5 85Q549 38 491.5 13Q434 -12 365 -12Q296 -12 238.5 13Q181 38 139.5 85Q98 132 75.5 199Q53 266 53 350ZM143 350Q143 289 157 236Q171 183 198.5 143.5Q226 104 267.5 81.5Q309 59 365 59Q420 59 462 81.5Q504 104 531.5 143.5Q559 183 573 236Q587 289 587 350Q587 411 573 464Q559 517 531.5 556.5Q504 596 462 618.5Q420 641 365 641Q309 641 267.5 618.5Q226 596 198.5 556.5Q171 517 157 464Q143 411 143 350Z" glyph-name="Ocircumflex" horiz-adv-x="730" unicode="&#212;" /><glyph d="M408 820Q408 843 423 857.5Q438 872 461 872Q484 872 499 857.5Q514 843 514 820Q514 798 499 782.5Q484 767 461 767Q438 767 423 782.5Q408 798 408 820ZM216 820Q216 843 231 857.5Q246 872 269 872Q292 872 307 857.5Q322 843 322 820Q322 798 307 782.5Q292 767 269 767Q246 767 231 782.5Q216 798 216 820ZM53 350Q53 434 75.5 501Q98 568 139.5 615Q181 662 238.5 687Q296 712 365 712Q434 712 491.5 687Q549 662 590.5 615Q632 568 654.5 501Q677 434 677 350Q677 266 654.5 199Q632 132 590.5 85Q549 38 491.5 13Q434 -12 365 -12Q296 -12 238.5 13Q181 38 139.5 85Q98 132 75.5 199Q53 266 53 350ZM143 350Q143 289 157 236Q171 183 198.5 143.5Q226 104 267.5 81.5Q309 59 365 59Q420 59 462 81.5Q504 104 531.5 143.5Q559 183 573 236Q587 289 587 350Q587 411 573 464Q559 517 531.5 556.5Q504 596 462 618.5Q420 641 365 641Q309 641 267.5 618.5Q226 596 198.5 556.5Q171 517 157 464Q143 411 143 350Z" glyph-name="Odieresis" horiz-adv-x="730" unicode="&#214;" /><glyph d="M265 855 306 916 472 792 443 748ZM53 350Q53 434 75.5 501Q98 568 139.5 615Q181 662 238.5 687Q296 712 365 712Q434 712 491.5 687Q549 662 590.5 615Q632 568 654.5 501Q677 434 677 350Q677 266 654.5 199Q632 132 590.5 85Q549 38 491.5 13Q434 -12 365 -12Q296 -12 238.5 13Q181 38 139.5 85Q98 132 75.5 199Q53 266 53 350ZM143 350Q143 289 157 236Q171 183 198.5 143.5Q226 104 267.5 81.5Q309 59 365 59Q420 59 462 81.5Q504 104 531.5 143.5Q559 183 573 236Q587 289 587 350Q587 411 573 464Q559 517 531.5 556.5Q504 596 462 618.5Q420 641 365 641Q309 641 267.5 618.5Q226 596 198.5 556.5Q171 517 157 464Q143 411 143 350Z" glyph-name="Ograve" horiz-adv-x="730" unicode="&#210;" /><glyph d="M601 856 432 749 403 792 558 916ZM403 856 234 749 204 792 360 916ZM53 350Q53 434 75.5 501Q98 568 139.5 615Q181 662 238.5 687Q296 712 365 712Q434 712 491.5 687Q549 662 590.5 615Q632 568 654.5 501Q677 434 677 350Q677 266 654.5 199Q632 132 590.5 85Q549 38 491.5 13Q434 -12 365 -12Q296 -12 238.5 13Q181 38 139.5 85Q98 132 75.5 199Q53 266 53 350ZM143 350Q143 289 157 236Q171 183 198.5 143.5Q226 104 267.5 81.5Q309 59 365 59Q420 59 462 81.5Q504 104 531.5 143.5Q559 183 573 236Q587 289 587 350Q587 411 573 464Q559 517 531.5 556.5Q504 596 462 618.5Q420 641 365 641Q309 641 267.5 618.5Q226 596 198.5 556.5Q171 517 157 464Q143 411 143 350Z" glyph-name="Ohungarumlaut" horiz-adv-x="730" unicode="&#336;" /><glyph d="M236 836H495V777H236ZM53 350Q53 434 75.5 501Q98 568 139.5 615Q181 662 238.5 687Q296 712 365 712Q434 712 491.5 687Q549 662 590.5 615Q632 568 654.5 501Q677 434 677 350Q677 266 654.5 199Q632 132 590.5 85Q549 38 491.5 13Q434 -12 365 -12Q296 -12 238.5 13Q181 38 139.5 85Q98 132 75.5 199Q53 266 53 350ZM143 350Q143 289 157 236Q171 183 198.5 143.5Q226 104 267.5 81.5Q309 59 365 59Q420 59 462 81.5Q504 104 531.5 143.5Q559 183 573 236Q587 289 587 350Q587 411 573 464Q559 517 531.5 556.5Q504 596 462 618.5Q420 641 365 641Q309 641 267.5 618.5Q226 596 198.5 556.5Q171 517 157 464Q143 411 143 350Z" glyph-name="Omacron" horiz-adv-x="730" unicode="&#332;" /><glyph d="M53 350Q53 434 75.5 501Q98 568 139.5 615Q181 662 238.5 687Q296 712 365 712Q457 712 527 668L579 752L633 719L577 628Q625 580 651 510.5Q677 441 677 350Q677 266 654.5 199Q632 132 590.5 85Q549 38 491.5 13Q434 -12 365 -12Q274 -12 205 30L150 -59L95 -26L154 70Q106 117 79.5 188Q53 259 53 350ZM143 350Q143 287 157 234Q171 181 199 142L486 603Q462 621 431.5 631Q401 641 365 641Q309 641 267.5 618.5Q226 596 198.5 556.5Q171 517 157 464Q143 411 143 350ZM587 350Q587 411 573 463.5Q559 516 532 556L246 95Q296 59 365 59Q420 59 462 81.5Q504 104 531.5 143.5Q559 183 573 236Q587 289 587 350Z" glyph-name="Oslash" horiz-adv-x="730" unicode="&#216;" /><glyph d="M297 875Q322 875 341 867Q360 859 375.5 849.5Q391 840 405 832Q419 824 436 824Q452 824 463 831Q474 838 482 847Q491 857 496 870L539 831Q529 813 514 799Q501 787 481 777Q461 767 432 767Q406 767 388 775Q370 783 354.5 792Q339 801 325 809Q311 817 294 817Q277 817 266.5 809.5Q256 802 248 794Q239 784 234 772L191 811Q200 829 215 843Q228 855 248 865Q268 875 297 875ZM53 350Q53 434 75.5 501Q98 568 139.5 615Q181 662 238.5 687Q296 712 365 712Q434 712 491.5 687Q549 662 590.5 615Q632 568 654.5 501Q677 434 677 350Q677 266 654.5 199Q632 132 590.5 85Q549 38 491.5 13Q434 -12 365 -12Q296 -12 238.5 13Q181 38 139.5 85Q98 132 75.5 199Q53 266 53 350ZM143 350Q143 289 157 236Q171 183 198.5 143.5Q226 104 267.5 81.5Q309 59 365 59Q420 59 462 81.5Q504 104 531.5 143.5Q559 183 573 236Q587 289 587 350Q587 411 573 464Q559 517 531.5 556.5Q504 596 462 618.5Q420 641 365 641Q309 641 267.5 618.5Q226 596 198.5 556.5Q171 517 157 464Q143 411 143 350Z" glyph-name="Otilde" horiz-adv-x="730" unicode="&#213;" /><glyph d="M177 285V0H90V700H332Q386 700 430 688.5Q474 677 505 652Q536 627 553 588Q570 549 570 494Q570 441 552.5 401.5Q535 362 503.5 336Q472 310 428 297.5Q384 285 332 285ZM482 494Q482 569 440.5 599.5Q399 630 311 630H177V355H311Q397 355 439.5 388.5Q482 422 482 494Z" glyph-name="P" horiz-adv-x="601" unicode="P" /><glyph d="M507 20Q445 -12 365 -12Q296 -12 238.5 13Q181 38 139.5 85Q98 132 75.5 199Q53 266 53 350Q53 434 75.5 501Q98 568 139.5 615Q181 662 238.5 687Q296 712 365 712Q434 712 491.5 687Q549 662 590.5 615Q632 568 654.5 501Q677 434 677 350Q677 253 647.5 180Q618 107 565 60L641 -20L590 -66ZM143 350Q143 289 157 236Q171 183 198.5 143.5Q226 104 267.5 81.5Q309 59 365 59Q414 59 453 77L384 151L434 197L510 117Q548 157 567.5 217.5Q587 278 587 350Q587 411 573 464Q559 517 531.5 556.5Q504 596 462 618.5Q420 641 365 641Q309 641 267.5 618.5Q226 596 198.5 556.5Q171 517 157 464Q143 411 143 350Z" glyph-name="Q" horiz-adv-x="730" unicode="Q" /><glyph d="M568 513Q568 435 524 383Q480 331 408 314L596 0H490L312 308H176V0H90V700H336Q367 700 407 693Q447 686 483 666Q519 646 543.5 609.5Q568 573 568 513ZM481 508Q481 571 438.5 600.5Q396 630 315 630H176V377H330Q371 377 399.5 387.5Q428 398 446 416Q464 434 472.5 457.5Q481 481 481 508Z" glyph-name="R" horiz-adv-x="635" unicode="R" /><glyph d="M425 855 247 748 218 792 384 916ZM568 513Q568 435 524 383Q480 331 408 314L596 0H490L312 308H176V0H90V700H336Q367 700 407 693Q447 686 483 666Q519 646 543.5 609.5Q568 573 568 513ZM481 508Q481 571 438.5 600.5Q396 630 315 630H176V377H330Q371 377 399.5 387.5Q428 398 446 416Q464 434 472.5 457.5Q481 481 481 508Z" glyph-name="Racute" horiz-adv-x="635" unicode="&#340;" /><glyph d="M166 868 209 907 308 809 409 907 451 868 338 752H278ZM568 513Q568 435 524 383Q480 331 408 314L596 0H490L312 308H176V0H90V700H336Q367 700 407 693Q447 686 483 666Q519 646 543.5 609.5Q568 573 568 513ZM481 508Q481 571 438.5 600.5Q396 630 315 630H176V377H330Q371 377 399.5 387.5Q428 398 446 416Q464 434 472.5 457.5Q481 481 481 508Z" glyph-name="Rcaron" horiz-adv-x="635" unicode="&#344;" /><glyph d="M568 513Q568 435 524 383Q480 331 408 314L596 0H490L312 308H176V0H90V700H336Q367 700 407 693Q447 686 483 666Q519 646 543.5 609.5Q568 573 568 513ZM481 508Q481 571 438.5 600.5Q396 630 315 630H176V377H330Q371 377 399.5 387.5Q428 398 446 416Q464 434 472.5 457.5Q481 481 481 508ZM374 -123Q374 -135 370.5 -151Q367 -167 358 -182Q349 -197 333 -208.5Q317 -220 291 -224L278 -191Q294 -191 309 -178.5Q324 -166 324 -149V-146Q323 -147 322 -147H315Q298 -147 284 -134Q270 -121 270 -101Q270 -84 282 -68.5Q294 -53 319 -53Q348 -53 361 -74Q374 -95 374 -123Z" glyph-name="Rcommaaccent" horiz-adv-x="635" unicode="&#342;" /><glyph d="M158 522Q158 495 166 476Q174 457 193.5 443Q213 429 244.5 419.5Q276 410 324 402Q382 393 428 378Q474 363 505.5 339.5Q537 316 554 282Q571 248 571 199Q571 152 553.5 113Q536 74 503.5 46.5Q471 19 423.5 3.5Q376 -12 316 -12Q252 -12 203.5 4Q155 20 121.5 48.5Q88 77 70 115Q52 153 50 197L136 210Q138 182 148 154.5Q158 127 179 105.5Q200 84 233.5 70.5Q267 57 316 57Q396 57 437.5 93Q479 129 479 192Q479 220 470 241.5Q461 263 440.5 279Q420 295 386 305.5Q352 316 303 323Q188 339 128 383Q68 427 68 514Q68 560 85.5 596.5Q103 633 134.5 658.5Q166 684 210.5 698Q255 712 308 712Q413 712 477.5 663Q542 614 556 528L470 506Q461 569 423 605.5Q385 642 307 642Q230 642 194 609Q158 576 158 522Z" glyph-name="S" horiz-adv-x="623" unicode="S" /><glyph d="M422 855 244 748 215 792 381 916ZM158 522Q158 495 166 476Q174 457 193.5 443Q213 429 244.5 419.5Q276 410 324 402Q382 393 428 378Q474 363 505.5 339.5Q537 316 554 282Q571 248 571 199Q571 152 553.5 113Q536 74 503.5 46.5Q471 19 423.5 3.5Q376 -12 316 -12Q252 -12 203.5 4Q155 20 121.5 48.5Q88 77 70 115Q52 153 50 197L136 210Q138 182 148 154.5Q158 127 179 105.5Q200 84 233.5 70.5Q267 57 316 57Q396 57 437.5 93Q479 129 479 192Q479 220 470 241.5Q461 263 440.5 279Q420 295 386 305.5Q352 316 303 323Q188 339 128 383Q68 427 68 514Q68 560 85.5 596.5Q103 633 134.5 658.5Q166 684 210.5 698Q255 712 308 712Q413 712 477.5 663Q542 614 556 528L470 506Q461 569 423 605.5Q385 642 307 642Q230 642 194 609Q158 576 158 522Z" glyph-name="Sacute" horiz-adv-x="623" unicode="&#346;" /><glyph d="M168 868 211 907 310 809 411 907 453 868 340 752H280ZM158 522Q158 495 166 476Q174 457 193.5 443Q213 429 244.5 419.5Q276 410 324 402Q382 393 428 378Q474 363 505.5 339.5Q537 316 554 282Q571 248 571 199Q571 152 553.5 113Q536 74 503.5 46.5Q471 19 423.5 3.5Q376 -12 316 -12Q252 -12 203.5 4Q155 20 121.5 48.5Q88 77 70 115Q52 153 50 197L136 210Q138 182 148 154.5Q158 127 179 105.5Q200 84 233.5 70.5Q267 57 316 57Q396 57 437.5 93Q479 129 479 192Q479 220 470 241.5Q461 263 440.5 279Q420 295 386 305.5Q352 316 303 323Q188 339 128 383Q68 427 68 514Q68 560 85.5 596.5Q103 633 134.5 658.5Q166 684 210.5 698Q255 712 308 712Q413 712 477.5 663Q542 614 556 528L470 506Q461 569 423 605.5Q385 642 307 642Q230 642 194 609Q158 576 158 522Z" glyph-name="Scaron" horiz-adv-x="623" unicode="&#352;" /><glyph d="M255 -156Q262 -162 274.5 -168.5Q287 -175 306 -175Q326 -175 337 -163.5Q348 -152 348 -133Q348 -93 308 -93Q295 -93 286 -97Q277 -101 270 -106L243 -79L271 -10Q218 -4 177.5 14Q137 32 109 59.5Q81 87 66 122Q51 157 50 197L136 210Q138 182 148 154.5Q158 127 179 105.5Q200 84 233.5 70.5Q267 57 316 57Q396 57 437.5 93Q479 129 479 192Q479 220 470 241.5Q461 263 440.5 279Q420 295 386 305.5Q352 316 303 323Q188 339 128 383Q68 427 68 514Q68 560 85.5 596.5Q103 633 134.5 658.5Q166 684 210.5 698Q255 712 308 712Q413 712 477.5 663Q542 614 556 528L470 506Q461 569 423 605.5Q385 642 307 642Q230 642 194 609Q158 576 158 522Q158 495 166 476Q174 457 193.5 443Q213 429 244.5 419.5Q276 410 324 402Q382 393 428 378Q474 363 505.5 339.5Q537 316 554 282Q571 248 571 199Q571 152 553.5 113Q536 74 503.5 46.5Q471 19 423.5 3.5Q376 -12 316 -12H315L298 -56Q310 -49 328 -49Q361 -49 383.5 -70.5Q406 -92 406 -131Q406 -174 378 -198.5Q350 -223 306 -223Q276 -223 256 -213.5Q236 -204 227 -195Z" glyph-name="Scedilla" horiz-adv-x="623" unicode="&#350;" /><glyph d="M280 900H339L453 784L411 745L309 843L210 745L168 784ZM158 522Q158 495 166 476Q174 457 193.5 443Q213 429 244.5 419.5Q276 410 324 402Q382 393 428 378Q474 363 505.5 339.5Q537 316 554 282Q571 248 571 199Q571 152 553.5 113Q536 74 503.5 46.5Q471 19 423.5 3.5Q376 -12 316 -12Q252 -12 203.5 4Q155 20 121.5 48.5Q88 77 70 115Q52 153 50 197L136 210Q138 182 148 154.5Q158 127 179 105.5Q200 84 233.5 70.5Q267 57 316 57Q396 57 437.5 93Q479 129 479 192Q479 220 470 241.5Q461 263 440.5 279Q420 295 386 305.5Q352 316 303 323Q188 339 128 383Q68 427 68 514Q68 560 85.5 596.5Q103 633 134.5 658.5Q166 684 210.5 698Q255 712 308 712Q413 712 477.5 663Q542 614 556 528L470 506Q461 569 423 605.5Q385 642 307 642Q230 642 194 609Q158 576 158 522Z" glyph-name="Scircumflex" horiz-adv-x="623" unicode="&#348;" /><glyph d="M158 522Q158 495 166 476Q174 457 193.5 443Q213 429 244.5 419.5Q276 410 324 402Q382 393 428 378Q474 363 505.5 339.5Q537 316 554 282Q571 248 571 199Q571 152 553.5 113Q536 74 503.5 46.5Q471 19 423.5 3.5Q376 -12 316 -12Q252 -12 203.5 4Q155 20 121.5 48.5Q88 77 70 115Q52 153 50 197L136 210Q138 182 148 154.5Q158 127 179 105.5Q200 84 233.5 70.5Q267 57 316 57Q396 57 437.5 93Q479 129 479 192Q479 220 470 241.5Q461 263 440.5 279Q420 295 386 305.5Q352 316 303 323Q188 339 128 383Q68 427 68 514Q68 560 85.5 596.5Q103 633 134.5 658.5Q166 684 210.5 698Q255 712 308 712Q413 712 477.5 663Q542 614 556 528L470 506Q461 569 423 605.5Q385 642 307 642Q230 642 194 609Q158 576 158 522ZM372 -123Q372 -135 368.5 -151Q365 -167 356 -182Q347 -197 331 -208.5Q315 -220 289 -224L276 -191Q292 -191 307 -178.5Q322 -166 322 -149V-146Q321 -147 320 -147H313Q296 -147 282 -134Q268 -121 268 -101Q268 -84 280 -68.5Q292 -53 317 -53Q346 -53 359 -74Q372 -95 372 -123Z" glyph-name="Scommaaccent" horiz-adv-x="623" unicode="&#536;" /><glyph d="M23 700H524V630H317V0H230V630H23Z" glyph-name="T" horiz-adv-x="547" unicode="T" /><glyph d="M317 362V0H230V362H92V430H230V630H23V700H524V630H317V430H455V362Z" glyph-name="Tbar" horiz-adv-x="547" unicode="&#358;" /><glyph d="M131 868 174 907 273 809 374 907 416 868 303 752H243ZM23 700H524V630H317V0H230V630H23Z" glyph-name="Tcaron" horiz-adv-x="547" unicode="&#356;" /><glyph d="M23 700H524V630H317V0H230V630H23ZM329 -123Q329 -135 325.5 -151Q322 -167 313 -182Q304 -197 288 -208.5Q272 -220 246 -224L233 -191Q249 -191 264 -178.5Q279 -166 279 -149V-146Q278 -147 277 -147H270Q253 -147 239 -134Q225 -121 225 -101Q225 -84 237 -68.5Q249 -53 274 -53Q303 -53 316 -74Q329 -95 329 -123Z" glyph-name="Tcommaaccent" horiz-adv-x="547" unicode="&#354;" /><glyph d="M90 0V700H177V572H332Q386 572 430 560.5Q474 549 505 524Q536 499 553 460Q570 421 570 366Q570 313 552.5 273.5Q535 234 503.5 208Q472 182 428 169.5Q384 157 332 157H177V0ZM482 366Q482 441 440.5 471.5Q399 502 311 502H177V227H311Q397 227 439.5 260.5Q482 294 482 366Z" glyph-name="Thorn" horiz-adv-x="601" unicode="&#222;" /><glyph d="M340 -12Q209 -12 147 53.5Q85 119 85 249V700H172V248Q172 212 180 178Q188 144 207.5 117.5Q227 91 259.5 74.5Q292 58 340 58Q388 58 420.5 74.5Q453 91 472.5 117.5Q492 144 500 178Q508 212 508 248V700H595V249Q595 119 533 53.5Q471 -12 340 -12Z" glyph-name="U" horiz-adv-x="680" unicode="U" /><glyph d="M459 855 281 748 252 792 418 916ZM340 -12Q209 -12 147 53.5Q85 119 85 249V700H172V248Q172 212 180 178Q188 144 207.5 117.5Q227 91 259.5 74.5Q292 58 340 58Q388 58 420.5 74.5Q453 91 472.5 117.5Q492 144 500 178Q508 212 508 248V700H595V249Q595 119 533 53.5Q471 -12 340 -12Z" glyph-name="Uacute" horiz-adv-x="680" unicode="&#218;" /><glyph d="M254 891Q259 860 282.5 838Q306 816 341 816Q376 816 399.5 838Q423 860 428 891L493 871Q482 822 441.5 791Q401 760 341 760Q281 760 240.5 791Q200 822 189 871ZM340 -12Q209 -12 147 53.5Q85 119 85 249V700H172V248Q172 212 180 178Q188 144 207.5 117.5Q227 91 259.5 74.5Q292 58 340 58Q388 58 420.5 74.5Q453 91 472.5 117.5Q492 144 500 178Q508 212 508 248V700H595V249Q595 119 533 53.5Q471 -12 340 -12Z" glyph-name="Ubreve" horiz-adv-x="680" unicode="&#364;" /><glyph d="M310 900H369L483 784L441 745L339 843L240 745L198 784ZM340 -12Q209 -12 147 53.5Q85 119 85 249V700H172V248Q172 212 180 178Q188 144 207.5 117.5Q227 91 259.5 74.5Q292 58 340 58Q388 58 420.5 74.5Q453 91 472.5 117.5Q492 144 500 178Q508 212 508 248V700H595V249Q595 119 533 53.5Q471 -12 340 -12Z" glyph-name="Ucircumflex" horiz-adv-x="680" unicode="&#219;" /><glyph d="M383 820Q383 843 398 857.5Q413 872 436 872Q459 872 474 857.5Q489 843 489 820Q489 798 474 782.5Q459 767 436 767Q413 767 398 782.5Q383 798 383 820ZM191 820Q191 843 206 857.5Q221 872 244 872Q267 872 282 857.5Q297 843 297 820Q297 798 282 782.5Q267 767 244 767Q221 767 206 782.5Q191 798 191 820ZM340 -12Q209 -12 147 53.5Q85 119 85 249V700H172V248Q172 212 180 178Q188 144 207.5 117.5Q227 91 259.5 74.5Q292 58 340 58Q388 58 420.5 74.5Q453 91 472.5 117.5Q492 144 500 178Q508 212 508 248V700H595V249Q595 119 533 53.5Q471 -12 340 -12Z" glyph-name="Udieresis" horiz-adv-x="680" unicode="&#220;" /><glyph d="M221 855 262 916 428 792 399 748ZM340 -12Q209 -12 147 53.5Q85 119 85 249V700H172V248Q172 212 180 178Q188 144 207.5 117.5Q227 91 259.5 74.5Q292 58 340 58Q388 58 420.5 74.5Q453 91 472.5 117.5Q492 144 500 178Q508 212 508 248V700H595V249Q595 119 533 53.5Q471 -12 340 -12Z" glyph-name="Ugrave" horiz-adv-x="680" unicode="&#217;" /><glyph d="M587 856 418 749 389 792 544 916ZM389 856 220 749 190 792 346 916ZM340 -12Q209 -12 147 53.5Q85 119 85 249V700H172V248Q172 212 180 178Q188 144 207.5 117.5Q227 91 259.5 74.5Q292 58 340 58Q388 58 420.5 74.5Q453 91 472.5 117.5Q492 144 500 178Q508 212 508 248V700H595V249Q595 119 533 53.5Q471 -12 340 -12Z" glyph-name="Uhungarumlaut" horiz-adv-x="680" unicode="&#368;" /><glyph d="M211 836H470V777H211ZM340 -12Q209 -12 147 53.5Q85 119 85 249V700H172V248Q172 212 180 178Q188 144 207.5 117.5Q227 91 259.5 74.5Q292 58 340 58Q388 58 420.5 74.5Q453 91 472.5 117.5Q492 144 500 178Q508 212 508 248V700H595V249Q595 119 533 53.5Q471 -12 340 -12Z" glyph-name="Umacron" horiz-adv-x="680" unicode="&#362;" /><glyph d="M340 -12Q209 -12 147 53.5Q85 119 85 249V700H172V248Q172 212 180 178Q188 144 207.5 117.5Q227 91 259.5 74.5Q292 58 340 58Q388 58 420.5 74.5Q453 91 472.5 117.5Q492 144 500 178Q508 212 508 248V700H595V249Q595 159 566 101.5Q537 44 478 10Q422 -22 395 -48.5Q368 -75 368 -104Q368 -121 378.5 -132Q389 -143 410 -143Q426 -143 439 -135Q452 -127 466 -106L497 -137Q475 -168 450 -181.5Q425 -195 396 -195Q381 -195 364.5 -191Q348 -187 334.5 -177.5Q321 -168 312 -152Q303 -136 303 -112Q303 -77 321 -53Q339 -29 366 -11Q359 -12 353 -12Q347 -12 340 -12Z" glyph-name="Uogonek" horiz-adv-x="680" unicode="&#370;" /><glyph d="M242 835Q242 876 269 901.5Q296 927 340 927Q384 927 411 901.5Q438 876 438 835Q438 796 411 769Q384 742 340 742Q296 742 269 769Q242 796 242 835ZM290 835Q290 815 304 799.5Q318 784 340 784Q362 784 376 799.5Q390 815 390 835Q390 856 376 870.5Q362 885 340 885Q318 885 304 870.5Q290 856 290 835ZM340 -12Q209 -12 147 53.5Q85 119 85 249V700H172V248Q172 212 180 178Q188 144 207.5 117.5Q227 91 259.5 74.5Q292 58 340 58Q388 58 420.5 74.5Q453 91 472.5 117.5Q492 144 500 178Q508 212 508 248V700H595V249Q595 119 533 53.5Q471 -12 340 -12Z" glyph-name="Uring" horiz-adv-x="680" unicode="&#366;" /><glyph d="M273 875Q298 875 317 867Q336 859 351.5 849.5Q367 840 381 832Q395 824 412 824Q428 824 439 831Q450 838 458 847Q467 857 472 870L515 831Q505 813 490 799Q477 787 457 777Q437 767 408 767Q382 767 364 775Q346 783 330.5 792Q315 801 301 809Q287 817 270 817Q253 817 242.5 809.5Q232 802 224 794Q215 784 210 772L167 811Q176 829 191 843Q204 855 224 865Q244 875 273 875ZM340 -12Q209 -12 147 53.5Q85 119 85 249V700H172V248Q172 212 180 178Q188 144 207.5 117.5Q227 91 259.5 74.5Q292 58 340 58Q388 58 420.5 74.5Q453 91 472.5 117.5Q492 144 500 178Q508 212 508 248V700H595V249Q595 119 533 53.5Q471 -12 340 -12Z" glyph-name="Utilde" horiz-adv-x="680" unicode="&#360;" /><glyph d="M109 700Q151 582 191 472Q208 425 225.5 375.5Q243 326 259.5 278.5Q276 231 290 188.5Q304 146 315 113H317Q327 146 341.5 188.5Q356 231 372.5 278.5Q389 326 407 375.5Q425 425 442 472Q482 582 525 700H612L353 0H273L17 700Z" glyph-name="V" horiz-adv-x="629" unicode="V" /><glyph d="M892 700 695 0H609Q575 123 545 234Q532 281 519 330Q506 379 494.5 424.5Q483 470 473.5 508.5Q464 547 458 574H456Q450 547 439.5 508.5Q429 470 416.5 424.5Q404 379 390.5 330Q377 281 364 234Q333 123 298 0H212L17 700H106Q141 574 171 460Q184 412 197 361.5Q210 311 222 265Q234 219 243.5 179.5Q253 140 259 113H261Q267 140 277 179.5Q287 219 299 265Q311 311 324.5 361.5Q338 412 352 460Q383 574 419 700H500Q535 569 566 454Q579 405 592.5 354.5Q606 304 617.5 258Q629 212 638.5 174.5Q648 137 653 113H655Q660 137 670 174.5Q680 212 692 258Q704 304 717.5 354.5Q731 405 745 454Q777 569 813 700Z" glyph-name="W" horiz-adv-x="909" unicode="W" /><glyph d="M577 855 399 748 370 792 536 916ZM892 700 695 0H609Q575 123 545 234Q532 281 519 330Q506 379 494.5 424.5Q483 470 473.5 508.5Q464 547 458 574H456Q450 547 439.5 508.5Q429 470 416.5 424.5Q404 379 390.5 330Q377 281 364 234Q333 123 298 0H212L17 700H106Q141 574 171 460Q184 412 197 361.5Q210 311 222 265Q234 219 243.5 179.5Q253 140 259 113H261Q267 140 277 179.5Q287 219 299 265Q311 311 324.5 361.5Q338 412 352 460Q383 574 419 700H500Q535 569 566 454Q579 405 592.5 354.5Q606 304 617.5 258Q629 212 638.5 174.5Q648 137 653 113H655Q660 137 670 174.5Q680 212 692 258Q704 304 717.5 354.5Q731 405 745 454Q777 569 813 700Z" glyph-name="Wacute" horiz-adv-x="909" unicode="&#7810;" /><glyph d="M429 900H488L602 784L560 745L458 843L359 745L317 784ZM892 700 695 0H609Q575 123 545 234Q532 281 519 330Q506 379 494.5 424.5Q483 470 473.5 508.5Q464 547 458 574H456Q450 547 439.5 508.5Q429 470 416.5 424.5Q404 379 390.5 330Q377 281 364 234Q333 123 298 0H212L17 700H106Q141 574 171 460Q184 412 197 361.5Q210 311 222 265Q234 219 243.5 179.5Q253 140 259 113H261Q267 140 277 179.5Q287 219 299 265Q311 311 324.5 361.5Q338 412 352 460Q383 574 419 700H500Q535 569 566 454Q579 405 592.5 354.5Q606 304 617.5 258Q629 212 638.5 174.5Q648 137 653 113H655Q660 137 670 174.5Q680 212 692 258Q704 304 717.5 354.5Q731 405 745 454Q777 569 813 700Z" glyph-name="Wcircumflex" horiz-adv-x="909" unicode="&#372;" /><glyph d="M501 820Q501 843 516 857.5Q531 872 554 872Q577 872 592 857.5Q607 843 607 820Q607 798 592 782.5Q577 767 554 767Q531 767 516 782.5Q501 798 501 820ZM309 820Q309 843 324 857.5Q339 872 362 872Q385 872 400 857.5Q415 843 415 820Q415 798 400 782.5Q385 767 362 767Q339 767 324 782.5Q309 798 309 820ZM892 700 695 0H609Q575 123 545 234Q532 281 519 330Q506 379 494.5 424.5Q483 470 473.5 508.5Q464 547 458 574H456Q450 547 439.5 508.5Q429 470 416.5 424.5Q404 379 390.5 330Q377 281 364 234Q333 123 298 0H212L17 700H106Q141 574 171 460Q184 412 197 361.5Q210 311 222 265Q234 219 243.5 179.5Q253 140 259 113H261Q267 140 277 179.5Q287 219 299 265Q311 311 324.5 361.5Q338 412 352 460Q383 574 419 700H500Q535 569 566 454Q579 405 592.5 354.5Q606 304 617.5 258Q629 212 638.5 174.5Q648 137 653 113H655Q660 137 670 174.5Q680 212 692 258Q704 304 717.5 354.5Q731 405 745 454Q777 569 813 700Z" glyph-name="Wdieresis" horiz-adv-x="909" unicode="&#7812;" /><glyph d="M341 855 382 916 548 792 519 748ZM892 700 695 0H609Q575 123 545 234Q532 281 519 330Q506 379 494.5 424.5Q483 470 473.5 508.5Q464 547 458 574H456Q450 547 439.5 508.5Q429 470 416.5 424.5Q404 379 390.5 330Q377 281 364 234Q333 123 298 0H212L17 700H106Q141 574 171 460Q184 412 197 361.5Q210 311 222 265Q234 219 243.5 179.5Q253 140 259 113H261Q267 140 277 179.5Q287 219 299 265Q311 311 324.5 361.5Q338 412 352 460Q383 574 419 700H500Q535 569 566 454Q579 405 592.5 354.5Q606 304 617.5 258Q629 212 638.5 174.5Q648 137 653 113H655Q660 137 670 174.5Q680 212 692 258Q704 304 717.5 354.5Q731 405 745 454Q777 569 813 700Z" glyph-name="Wgrave" horiz-adv-x="909" unicode="&#7808;" /><glyph d="M373 369 632 0H528L321 297L116 0H17L272 365L40 700H144L326 436L506 700H604Z" glyph-name="X" horiz-adv-x="649" unicode="X" /><glyph d="M265 307 11 700H111L312 385L514 700H607L352 307V0H265Z" glyph-name="Y" horiz-adv-x="618" unicode="Y" /><glyph d="M436 855 258 748 229 792 395 916ZM265 307 11 700H111L312 385L514 700H607L352 307V0H265Z" glyph-name="Yacute" horiz-adv-x="618" unicode="&#221;" /><glyph d="M282 900H341L455 784L413 745L311 843L212 745L170 784ZM265 307 11 700H111L312 385L514 700H607L352 307V0H265Z" glyph-name="Ycircumflex" horiz-adv-x="618" unicode="&#374;" /><glyph d="M356 820Q356 843 371 857.5Q386 872 409 872Q432 872 447 857.5Q462 843 462 820Q462 798 447 782.5Q432 767 409 767Q386 767 371 782.5Q356 798 356 820ZM164 820Q164 843 179 857.5Q194 872 217 872Q240 872 255 857.5Q270 843 270 820Q270 798 255 782.5Q240 767 217 767Q194 767 179 782.5Q164 798 164 820ZM265 307 11 700H111L312 385L514 700H607L352 307V0H265Z" glyph-name="Ydieresis" horiz-adv-x="618" unicode="&#376;" /><glyph d="M56 700H568V641L152 69H566V0H45V57L463 630H56Z" glyph-name="Z" horiz-adv-x="613" unicode="Z" /><glyph d="M438 855 260 748 231 792 397 916ZM56 700H568V641L152 69H566V0H45V57L463 630H56Z" glyph-name="Zacute" horiz-adv-x="613" unicode="&#377;" /><glyph d="M172 868 215 907 314 809 415 907 457 868 344 752H284ZM56 700H568V641L152 69H566V0H45V57L463 630H56Z" glyph-name="Zcaron" horiz-adv-x="613" unicode="&#142;" /><glyph d="M259 819Q259 843 274.5 858.5Q290 874 315 874Q340 874 355.5 858.5Q371 843 371 819Q371 796 355.5 780.5Q340 765 315 765Q290 765 274.5 780.5Q259 796 259 819ZM56 700H568V641L152 69H566V0H45V57L463 630H56Z" glyph-name="Zdotaccent" horiz-adv-x="613" unicode="&#379;" /><glyph d="M366 0Q362 8 358.5 25Q355 42 355 62Q329 30 291 9Q253 -12 194 -12Q161 -12 133 -2.5Q105 7 84 24Q63 41 51.5 66Q40 91 40 121Q40 168 65.5 199.5Q91 231 134.5 249.5Q178 268 235 275.5Q292 283 354 283V312Q354 360 329 390Q304 420 250 420Q196 420 170.5 393.5Q145 367 143 329L59 341Q63 377 80 403.5Q97 430 123.5 448Q150 466 183.5 475Q217 484 253 484Q338 484 387 440Q436 396 436 320V64Q436 41 439 27.5Q442 14 447 0ZM219 53Q245 53 269.5 62Q294 71 312.5 87.5Q331 104 342.5 128Q354 152 354 182V223Q303 223 261 217.5Q219 212 189 200.5Q159 189 142 170.5Q125 152 125 127Q125 91 150.5 72Q176 53 219 53Z" glyph-name="a" horiz-adv-x="507" unicode="a" /><glyph d="M44 236Q44 293 60 339Q76 385 104.5 417.5Q133 450 171.5 467Q210 484 256 484Q316 484 352 458.5Q388 433 406 401V472H485V0H406V71Q396 55 382.5 40Q369 25 351 13.5Q333 2 309.5 -5Q286 -12 256 -12Q210 -12 171.5 5Q133 22 104.5 54.5Q76 87 60 133Q44 179 44 236ZM265 415Q234 415 209 401.5Q184 388 167 364Q150 340 140.5 307Q131 274 131 236Q131 198 140.5 165Q150 132 167 108Q184 84 209 70.5Q234 57 265 57Q285 57 309 64Q333 71 353.5 88.5Q374 106 387.5 134.5Q401 163 401 205V267Q401 309 387 337.5Q373 366 352.5 383.5Q332 401 308.5 408Q285 415 265 415Z" glyph-name="a.school" horiz-adv-x="565" unicode="&#57681;" /><glyph d="M511 0H424L372 147H153L100 0H19L225 564H305ZM261 461Q258 453 253.5 437.5Q249 422 242.5 403Q236 384 228.5 362.5Q221 341 214 320Q196 270 176 213H349Q329 270 311 320Q303 341 296 362.5Q289 384 282.5 403Q276 422 271 437.5Q266 453 263 461Z" glyph-name="a.smcp" horiz-adv-x="530" unicode="&#57857;" /><glyph d="M238 288Q235 293 233 304Q231 315 231 327Q215 306 191.5 293Q168 280 132 280Q87 280 59.5 303Q32 326 32 365Q32 395 48 415Q64 435 91.5 447Q119 459 155 464Q191 469 230 469V488Q230 514 215.5 531Q201 548 170 548Q138 548 123.5 533Q109 518 107 496L45 506Q50 551 86.5 573.5Q123 596 172 596Q226 596 259 568.5Q292 541 292 489V329Q292 315 294 306Q296 297 299 288ZM150 328Q181 328 205.5 347Q230 366 230 401V426Q170 426 133 413.5Q96 401 96 370Q96 349 111 338.5Q126 328 150 328Z" glyph-name="a.superior" horiz-adv-x="343" unicode="&#58209;" /><glyph d="M264 288V333Q251 312 228.5 296Q206 280 168 280Q110 280 72 322.5Q34 365 34 438Q34 512 72.5 554Q111 596 169 596Q205 596 228 581Q251 566 264 545V588H324V288ZM179 331Q192 331 206.5 335.5Q221 340 233 351Q245 362 253 379Q261 396 261 422V454Q261 479 253 496.5Q245 514 233 524.5Q221 535 207 540Q193 545 180 545Q142 545 121 514.5Q100 484 100 438Q100 392 121 361.5Q142 331 179 331Z" glyph-name="a.superiorschool" horiz-adv-x="380" /><glyph d="M356 639 178 532 149 576 315 700ZM366 0Q362 8 358.5 25Q355 42 355 62Q329 30 291 9Q253 -12 194 -12Q161 -12 133 -2.5Q105 7 84 24Q63 41 51.5 66Q40 91 40 121Q40 168 65.5 199.5Q91 231 134.5 249.5Q178 268 235 275.5Q292 283 354 283V312Q354 360 329 390Q304 420 250 420Q196 420 170.5 393.5Q145 367 143 329L59 341Q63 377 80 403.5Q97 430 123.5 448Q150 466 183.5 475Q217 484 253 484Q338 484 387 440Q436 396 436 320V64Q436 41 439 27.5Q442 14 447 0ZM219 53Q245 53 269.5 62Q294 71 312.5 87.5Q331 104 342.5 128Q354 152 354 182V223Q303 223 261 217.5Q219 212 189 200.5Q159 189 142 170.5Q125 152 125 127Q125 91 150.5 72Q176 53 219 53Z" glyph-name="aacute" horiz-adv-x="507" unicode="&#225;" /><glyph d="M371 639 193 532 164 576 330 700ZM44 236Q44 293 60 339Q76 385 104.5 417.5Q133 450 171.5 467Q210 484 256 484Q316 484 352 458.5Q388 433 406 401V472H485V0H406V71Q396 55 382.5 40Q369 25 351 13.5Q333 2 309.5 -5Q286 -12 256 -12Q210 -12 171.5 5Q133 22 104.5 54.5Q76 87 60 133Q44 179 44 236ZM265 415Q234 415 209 401.5Q184 388 167 364Q150 340 140.5 307Q131 274 131 236Q131 198 140.5 165Q150 132 167 108Q184 84 209 70.5Q234 57 265 57Q285 57 309 64Q333 71 353.5 88.5Q374 106 387.5 134.5Q401 163 401 205V267Q401 309 387 337.5Q373 366 352.5 383.5Q332 401 308.5 408Q285 415 265 415Z" glyph-name="aacute.school" horiz-adv-x="565" unicode="&#57683;" /><glyph d="M377 717 199 610 170 654 336 778ZM511 0H424L372 147H153L100 0H19L225 564H305ZM261 461Q258 453 253.5 437.5Q249 422 242.5 403Q236 384 228.5 362.5Q221 341 214 320Q196 270 176 213H349Q329 270 311 320Q303 341 296 362.5Q289 384 282.5 403Q276 422 271 437.5Q266 453 263 461Z" glyph-name="aacute.smcp" horiz-adv-x="530" unicode="&#57889;" /><glyph d="M162 673Q167 642 190.5 620Q214 598 249 598Q284 598 307.5 620Q331 642 336 673L401 653Q390 604 349.5 573Q309 542 249 542Q189 542 148.5 573Q108 604 97 653ZM366 0Q362 8 358.5 25Q355 42 355 62Q329 30 291 9Q253 -12 194 -12Q161 -12 133 -2.5Q105 7 84 24Q63 41 51.5 66Q40 91 40 121Q40 168 65.5 199.5Q91 231 134.5 249.5Q178 268 235 275.5Q292 283 354 283V312Q354 360 329 390Q304 420 250 420Q196 420 170.5 393.5Q145 367 143 329L59 341Q63 377 80 403.5Q97 430 123.5 448Q150 466 183.5 475Q217 484 253 484Q338 484 387 440Q436 396 436 320V64Q436 41 439 27.5Q442 14 447 0ZM219 53Q245 53 269.5 62Q294 71 312.5 87.5Q331 104 342.5 128Q354 152 354 182V223Q303 223 261 217.5Q219 212 189 200.5Q159 189 142 170.5Q125 152 125 127Q125 91 150.5 72Q176 53 219 53Z" glyph-name="abreve" horiz-adv-x="507" unicode="&#259;" /><glyph d="M178 673Q183 642 206.5 620Q230 598 265 598Q300 598 323.5 620Q347 642 352 673L417 653Q406 604 365.5 573Q325 542 265 542Q205 542 164.5 573Q124 604 113 653ZM44 236Q44 293 60 339Q76 385 104.5 417.5Q133 450 171.5 467Q210 484 256 484Q316 484 352 458.5Q388 433 406 401V472H485V0H406V71Q396 55 382.5 40Q369 25 351 13.5Q333 2 309.5 -5Q286 -12 256 -12Q210 -12 171.5 5Q133 22 104.5 54.5Q76 87 60 133Q44 179 44 236ZM265 415Q234 415 209 401.5Q184 388 167 364Q150 340 140.5 307Q131 274 131 236Q131 198 140.5 165Q150 132 167 108Q184 84 209 70.5Q234 57 265 57Q285 57 309 64Q333 71 353.5 88.5Q374 106 387.5 134.5Q401 163 401 205V267Q401 309 387 337.5Q373 366 352.5 383.5Q332 401 308.5 408Q285 415 265 415Z" glyph-name="abreve.school" horiz-adv-x="565" unicode="&#57690;" /><glyph d="M178 749Q183 718 206.5 696Q230 674 265 674Q300 674 323.5 696Q347 718 352 749L417 729Q406 680 365.5 649Q325 618 265 618Q205 618 164.5 649Q124 680 113 729ZM511 0H424L372 147H153L100 0H19L225 564H305ZM261 461Q258 453 253.5 437.5Q249 422 242.5 403Q236 384 228.5 362.5Q221 341 214 320Q196 270 176 213H349Q329 270 311 320Q303 341 296 362.5Q289 384 282.5 403Q276 422 271 437.5Q266 453 263 461Z" glyph-name="abreve.smcp" horiz-adv-x="530" unicode="&#57897;" /><glyph d="M222 694H277L389 565L347 528L249 635L150 528L109 565ZM366 0Q362 8 358.5 25Q355 42 355 62Q329 30 291 9Q253 -12 194 -12Q161 -12 133 -2.5Q105 7 84 24Q63 41 51.5 66Q40 91 40 121Q40 168 65.5 199.5Q91 231 134.5 249.5Q178 268 235 275.5Q292 283 354 283V312Q354 360 329 390Q304 420 250 420Q196 420 170.5 393.5Q145 367 143 329L59 341Q63 377 80 403.5Q97 430 123.5 448Q150 466 183.5 475Q217 484 253 484Q338 484 387 440Q436 396 436 320V64Q436 41 439 27.5Q442 14 447 0ZM219 53Q245 53 269.5 62Q294 71 312.5 87.5Q331 104 342.5 128Q354 152 354 182V223Q303 223 261 217.5Q219 212 189 200.5Q159 189 142 170.5Q125 152 125 127Q125 91 150.5 72Q176 53 219 53Z" glyph-name="acircumflex" horiz-adv-x="507" unicode="&#226;" /><glyph d="M239 694H294L406 565L364 528L266 635L167 528L126 565ZM44 236Q44 293 60 339Q76 385 104.5 417.5Q133 450 171.5 467Q210 484 256 484Q316 484 352 458.5Q388 433 406 401V472H485V0H406V71Q396 55 382.5 40Q369 25 351 13.5Q333 2 309.5 -5Q286 -12 256 -12Q210 -12 171.5 5Q133 22 104.5 54.5Q76 87 60 133Q44 179 44 236ZM265 415Q234 415 209 401.5Q184 388 167 364Q150 340 140.5 307Q131 274 131 236Q131 198 140.5 165Q150 132 167 108Q184 84 209 70.5Q234 57 265 57Q285 57 309 64Q333 71 353.5 88.5Q374 106 387.5 134.5Q401 163 401 205V267Q401 309 387 337.5Q373 366 352.5 383.5Q332 401 308.5 408Q285 415 265 415Z" glyph-name="acircumflex.school" horiz-adv-x="565" unicode="&#57684;" /><glyph d="M239 774H294L406 645L364 608L266 715L167 608L126 645ZM511 0H424L372 147H153L100 0H19L225 564H305ZM261 461Q258 453 253.5 437.5Q249 422 242.5 403Q236 384 228.5 362.5Q221 341 214 320Q196 270 176 213H349Q329 270 311 320Q303 341 296 362.5Q289 384 282.5 403Q276 422 271 437.5Q266 453 263 461Z" glyph-name="acircumflex.smcp" horiz-adv-x="530" unicode="&#57891;" /><glyph d="M401 639 223 532 194 576 360 700Z" glyph-name="acute" horiz-adv-x="600" unicode="&#180;" /><glyph d="M401 855 223 748 194 792 360 916Z" glyph-name="acute.cap" horiz-adv-x="600" unicode="&#58402;" /><glyph d="M293 602Q293 625 308 639.5Q323 654 346 654Q369 654 384 639.5Q399 625 399 602Q399 580 384 564.5Q369 549 346 549Q323 549 308 564.5Q293 580 293 602ZM101 602Q101 625 116 639.5Q131 654 154 654Q177 654 192 639.5Q207 625 207 602Q207 580 192 564.5Q177 549 154 549Q131 549 116 564.5Q101 580 101 602ZM366 0Q362 8 358.5 25Q355 42 355 62Q329 30 291 9Q253 -12 194 -12Q161 -12 133 -2.5Q105 7 84 24Q63 41 51.5 66Q40 91 40 121Q40 168 65.5 199.5Q91 231 134.5 249.5Q178 268 235 275.5Q292 283 354 283V312Q354 360 329 390Q304 420 250 420Q196 420 170.5 393.5Q145 367 143 329L59 341Q63 377 80 403.5Q97 430 123.5 448Q150 466 183.5 475Q217 484 253 484Q338 484 387 440Q436 396 436 320V64Q436 41 439 27.5Q442 14 447 0ZM219 53Q245 53 269.5 62Q294 71 312.5 87.5Q331 104 342.5 128Q354 152 354 182V223Q303 223 261 217.5Q219 212 189 200.5Q159 189 142 170.5Q125 152 125 127Q125 91 150.5 72Q176 53 219 53Z" glyph-name="adieresis" horiz-adv-x="507" unicode="&#228;" /><glyph d="M309 602Q309 625 324 639.5Q339 654 362 654Q385 654 400 639.5Q415 625 415 602Q415 580 400 564.5Q385 549 362 549Q339 549 324 564.5Q309 580 309 602ZM117 602Q117 625 132 639.5Q147 654 170 654Q193 654 208 639.5Q223 625 223 602Q223 580 208 564.5Q193 549 170 549Q147 549 132 564.5Q117 580 117 602ZM44 236Q44 293 60 339Q76 385 104.5 417.5Q133 450 171.5 467Q210 484 256 484Q316 484 352 458.5Q388 433 406 401V472H485V0H406V71Q396 55 382.5 40Q369 25 351 13.5Q333 2 309.5 -5Q286 -12 256 -12Q210 -12 171.5 5Q133 22 104.5 54.5Q76 87 60 133Q44 179 44 236ZM265 415Q234 415 209 401.5Q184 388 167 364Q150 340 140.5 307Q131 274 131 236Q131 198 140.5 165Q150 132 167 108Q184 84 209 70.5Q234 57 265 57Q285 57 309 64Q333 71 353.5 88.5Q374 106 387.5 134.5Q401 163 401 205V267Q401 309 387 337.5Q373 366 352.5 383.5Q332 401 308.5 408Q285 415 265 415Z" glyph-name="adieresis.school" horiz-adv-x="565" unicode="&#57685;" /><glyph d="M309 677Q309 700 324 714.5Q339 729 362 729Q385 729 400 714.5Q415 700 415 677Q415 655 400 639.5Q385 624 362 624Q339 624 324 639.5Q309 655 309 677ZM117 677Q117 700 132 714.5Q147 729 170 729Q193 729 208 714.5Q223 700 223 677Q223 655 208 639.5Q193 624 170 624Q147 624 132 639.5Q117 655 117 677ZM511 0H424L372 147H153L100 0H19L225 564H305ZM261 461Q258 453 253.5 437.5Q249 422 242.5 403Q236 384 228.5 362.5Q221 341 214 320Q196 270 176 213H349Q329 270 311 320Q303 341 296 362.5Q289 384 282.5 403Q276 422 271 437.5Q266 453 263 461Z" glyph-name="adieresis.smcp" horiz-adv-x="530" unicode="&#57892;" /><glyph d="M764 108Q737 54 690.5 21Q644 -12 571 -12Q510 -12 465 13Q420 38 393 83Q361 36 317.5 12Q274 -12 208 -12Q128 -12 84 24Q40 60 40 123Q40 169 65.5 199.5Q91 230 134.5 249Q178 268 235 276Q292 284 354 284V312Q354 360 329 390Q304 420 250 420Q196 420 170.5 393.5Q145 367 143 329L59 341Q63 377 80 403.5Q97 430 123.5 448Q150 466 183.5 475Q217 484 253 484Q307 484 347 464.5Q387 445 410 410Q438 445 477.5 464.5Q517 484 568 484Q622 484 661.5 464.5Q701 445 727.5 412.5Q754 380 767 337.5Q780 295 780 249V223H433Q434 189 443 158.5Q452 128 468.5 104.5Q485 81 510.5 67Q536 53 572 53Q620 53 646 75Q672 97 690 138ZM566 419Q510 419 476 380.5Q442 342 436 284H694Q691 347 655.5 383Q620 419 566 419ZM219 53Q245 53 269.5 62Q294 71 312.5 87.5Q331 104 342.5 128Q354 152 354 182V223Q303 223 261 217.5Q219 212 188.5 200Q158 188 141.5 170Q125 152 125 127Q125 91 151 72Q177 53 219 53Z" glyph-name="ae" horiz-adv-x="816" unicode="&#230;" /><glyph d="M375 0V147H186L103 0H15L335 564H719V496H458V324H702V257H458V68H724V0ZM222 213H375V482H372Z" glyph-name="ae.smcp" horiz-adv-x="773" unicode="&#57905;" /><glyph d="M150 639 191 700 357 576 328 532ZM366 0Q362 8 358.5 25Q355 42 355 62Q329 30 291 9Q253 -12 194 -12Q161 -12 133 -2.5Q105 7 84 24Q63 41 51.5 66Q40 91 40 121Q40 168 65.5 199.5Q91 231 134.5 249.5Q178 268 235 275.5Q292 283 354 283V312Q354 360 329 390Q304 420 250 420Q196 420 170.5 393.5Q145 367 143 329L59 341Q63 377 80 403.5Q97 430 123.5 448Q150 466 183.5 475Q217 484 253 484Q338 484 387 440Q436 396 436 320V64Q436 41 439 27.5Q442 14 447 0ZM219 53Q245 53 269.5 62Q294 71 312.5 87.5Q331 104 342.5 128Q354 152 354 182V223Q303 223 261 217.5Q219 212 189 200.5Q159 189 142 170.5Q125 152 125 127Q125 91 150.5 72Q176 53 219 53Z" glyph-name="agrave" horiz-adv-x="507" unicode="&#224;" /><glyph d="M164 639 205 700 371 576 342 532ZM44 236Q44 293 60 339Q76 385 104.5 417.5Q133 450 171.5 467Q210 484 256 484Q316 484 352 458.5Q388 433 406 401V472H485V0H406V71Q396 55 382.5 40Q369 25 351 13.5Q333 2 309.5 -5Q286 -12 256 -12Q210 -12 171.5 5Q133 22 104.5 54.5Q76 87 60 133Q44 179 44 236ZM265 415Q234 415 209 401.5Q184 388 167 364Q150 340 140.5 307Q131 274 131 236Q131 198 140.5 165Q150 132 167 108Q184 84 209 70.5Q234 57 265 57Q285 57 309 64Q333 71 353.5 88.5Q374 106 387.5 134.5Q401 163 401 205V267Q401 309 387 337.5Q373 366 352.5 383.5Q332 401 308.5 408Q285 415 265 415Z" glyph-name="agrave.school" horiz-adv-x="565" unicode="&#57682;" /><glyph d="M155 717 196 778 362 654 333 610ZM511 0H424L372 147H153L100 0H19L225 564H305ZM261 461Q258 453 253.5 437.5Q249 422 242.5 403Q236 384 228.5 362.5Q221 341 214 320Q196 270 176 213H349Q329 270 311 320Q303 341 296 362.5Q289 384 282.5 403Q276 422 271 437.5Q266 453 263 461Z" glyph-name="agrave.smcp" horiz-adv-x="530" unicode="&#57890;" /><glyph d="M122 620H381V561H122ZM366 0Q362 8 358.5 25Q355 42 355 62Q329 30 291 9Q253 -12 194 -12Q161 -12 133 -2.5Q105 7 84 24Q63 41 51.5 66Q40 91 40 121Q40 168 65.5 199.5Q91 231 134.5 249.5Q178 268 235 275.5Q292 283 354 283V312Q354 360 329 390Q304 420 250 420Q196 420 170.5 393.5Q145 367 143 329L59 341Q63 377 80 403.5Q97 430 123.5 448Q150 466 183.5 475Q217 484 253 484Q338 484 387 440Q436 396 436 320V64Q436 41 439 27.5Q442 14 447 0ZM219 53Q245 53 269.5 62Q294 71 312.5 87.5Q331 104 342.5 128Q354 152 354 182V223Q303 223 261 217.5Q219 212 189 200.5Q159 189 142 170.5Q125 152 125 127Q125 91 150.5 72Q176 53 219 53Z" glyph-name="amacron" horiz-adv-x="507" unicode="&#257;" /><glyph d="M136 620H395V561H136ZM44 236Q44 293 60 339Q76 385 104.5 417.5Q133 450 171.5 467Q210 484 256 484Q316 484 352 458.5Q388 433 406 401V472H485V0H406V71Q396 55 382.5 40Q369 25 351 13.5Q333 2 309.5 -5Q286 -12 256 -12Q210 -12 171.5 5Q133 22 104.5 54.5Q76 87 60 133Q44 179 44 236ZM265 415Q234 415 209 401.5Q184 388 167 364Q150 340 140.5 307Q131 274 131 236Q131 198 140.5 165Q150 132 167 108Q184 84 209 70.5Q234 57 265 57Q285 57 309 64Q333 71 353.5 88.5Q374 106 387.5 134.5Q401 163 401 205V267Q401 309 387 337.5Q373 366 352.5 383.5Q332 401 308.5 408Q285 415 265 415Z" glyph-name="amacron.school" horiz-adv-x="565" unicode="&#57689;" /><glyph d="M136 689H395V630H136ZM511 0H424L372 147H153L100 0H19L225 564H305ZM261 461Q258 453 253.5 437.5Q249 422 242.5 403Q236 384 228.5 362.5Q221 341 214 320Q196 270 176 213H349Q329 270 311 320Q303 341 296 362.5Q289 384 282.5 403Q276 422 271 437.5Q266 453 263 461Z" glyph-name="amacron.smcp" horiz-adv-x="530" unicode="&#57896;" /><glyph d="M38 194Q38 239 53 274Q68 309 90.5 335.5Q113 362 138 381Q163 400 184 412Q152 456 135.5 489.5Q119 523 119 562Q119 589 128 616Q137 643 156 664.5Q175 686 205.5 699Q236 712 280 712Q320 712 350 700.5Q380 689 400 668.5Q420 648 430 621Q440 594 440 563Q440 536 432.5 512.5Q425 489 407.5 468Q390 447 362.5 427Q335 407 296 386L472 178Q488 207 494 240.5Q500 274 501 312L569 282Q566 258 563 237.5Q560 217 555 198.5Q550 180 542 161.5Q534 143 521 122L625 0H530L474 66Q443 34 397 11Q351 -12 280 -12Q166 -12 102 40.5Q38 93 38 194ZM195 563Q195 534 209 505.5Q223 477 252 439Q274 450 294 462Q314 474 329.5 489Q345 504 354.5 522Q364 540 364 563Q364 597 342 622.5Q320 648 278 648Q238 648 216.5 624Q195 600 195 563ZM278 53Q333 53 371 73.5Q409 94 427 119L228 356Q209 347 190 331.5Q171 316 155.5 295.5Q140 275 130.5 249.5Q121 224 121 195Q121 132 162.5 92.5Q204 53 278 53Z" glyph-name="ampersand" horiz-adv-x="642" unicode="&amp;" /><glyph d="M222 792 292 770 136 307 292 -156 222 -178 50 307Z" glyph-name="anglebracketleft" horiz-adv-x="307" unicode="&#12296;" /><glyph d="M222 836 292 814 136 351 292 -112 222 -134 50 351Z" glyph-name="anglebracketleft.cap" horiz-adv-x="307" unicode="&#58519;" /><glyph d="M257 307 85 -178 15 -156 171 307 15 770 85 792Z" glyph-name="anglebracketright" horiz-adv-x="307" unicode="&#12297;" /><glyph d="M257 351 85 -134 15 -112 171 351 15 814 85 836Z" glyph-name="anglebracketright.cap" horiz-adv-x="307" unicode="&#58520;" /><glyph d="M263 459H261L101 0H19L225 564H305L511 0H424Z" glyph-name="anocross.smcp" horiz-adv-x="530" unicode="&#57888;" /><glyph d="M366 0Q362 8 358.5 25Q355 42 355 62Q329 30 291 9Q253 -12 194 -12Q161 -12 133 -2.5Q105 7 84 24Q63 41 51.5 66Q40 91 40 121Q40 168 65.5 199.5Q91 231 134.5 249.5Q178 268 235 275.5Q292 283 354 283V312Q354 360 329 390Q304 420 250 420Q196 420 170.5 393.5Q145 367 143 329L59 341Q63 377 80 403.5Q97 430 123.5 448Q150 466 183.5 475Q217 484 253 484Q338 484 387 440Q436 396 436 320V64Q436 41 439 27.5Q442 14 447 0ZM219 53Q245 53 269.5 62Q294 71 312.5 87.5Q331 104 342.5 128Q354 152 354 182V223Q303 223 261 217.5Q219 212 189 200.5Q159 189 142 170.5Q125 152 125 127Q125 91 150.5 72Q176 53 219 53ZM348 -104Q348 -121 358.5 -132Q369 -143 390 -143Q406 -143 419 -135Q432 -127 446 -106L477 -137Q455 -168 430 -181.5Q405 -195 376 -195Q361 -195 344.5 -191Q328 -187 314.5 -177.5Q301 -168 292 -152Q283 -136 283 -112Q283 -72 307.5 -47Q332 -22 366 0H447Q393 -31 370.5 -56Q348 -81 348 -104Z" glyph-name="aogonek" horiz-adv-x="507" unicode="&#261;" /><glyph d="M386 -105Q386 -121 396.5 -132Q407 -143 428 -143Q444 -143 457 -135Q470 -127 484 -106L515 -137Q493 -168 468 -181.5Q443 -195 414 -195Q399 -195 382.5 -191Q366 -187 352.5 -177.5Q339 -168 330 -152.5Q321 -137 321 -113Q321 -73 345 -48.5Q369 -24 406 0V71Q396 55 382.5 40Q369 25 351 13.5Q333 2 309.5 -5Q286 -12 256 -12Q210 -12 171.5 5Q133 22 104.5 54.5Q76 87 60 133Q44 179 44 236Q44 293 60 339Q76 385 104.5 417.5Q133 450 171.5 467Q210 484 256 484Q316 484 352 458.5Q388 433 406 401V472H485V0Q440 -29 413 -54Q386 -79 386 -105ZM265 415Q234 415 209 401.5Q184 388 167 364Q150 340 140.5 307Q131 274 131 236Q131 198 140.5 165Q150 132 167 108Q184 84 209 70.5Q234 57 265 57Q285 57 309 64Q333 71 353.5 88.5Q374 106 387.5 134.5Q401 163 401 205V267Q401 309 387 337.5Q373 366 352.5 383.5Q332 401 308.5 408Q285 415 265 415Z" glyph-name="aogonek.school" horiz-adv-x="565" unicode="&#57680;" /><glyph d="M410 -104Q410 -121 420.5 -132Q431 -143 452 -143Q468 -143 481 -135Q494 -127 508 -106L539 -137Q517 -168 492 -181.5Q467 -195 438 -195Q423 -195 406.5 -191Q390 -187 376.5 -177.5Q363 -168 354 -152Q345 -136 345 -112Q345 -72 368 -47Q391 -22 424 0L372 147H153L100 0H19L225 564H305L511 0Q455 -31 432.5 -56Q410 -81 410 -104ZM261 461Q258 453 253.5 437.5Q249 422 242.5 403Q236 384 228.5 362.5Q221 341 214 320Q196 270 176 213H349Q329 270 311 320Q303 341 296 362.5Q289 384 282.5 403Q276 422 271 437.5Q266 453 263 461Z" glyph-name="aogonek.smcp" horiz-adv-x="530" unicode="&#57903;" /><glyph d="M395 353Q360 353 334 363.5Q308 374 286.5 386.5Q265 399 245 409.5Q225 420 201 420Q178 420 162.5 410.5Q147 401 136 390Q124 377 116 360L56 399Q69 424 90 444Q108 461 136 475Q164 489 205 489Q240 489 266 478.5Q292 468 313.5 455.5Q335 443 355 432.5Q375 422 399 422Q422 422 437.5 431.5Q453 441 464 452Q476 465 484 482L544 443Q531 417 510 398Q492 381 464 367Q436 353 395 353ZM395 166Q360 166 334 176.5Q308 187 286.5 199.5Q265 212 245 222.5Q225 233 201 233Q178 233 162.5 223.5Q147 214 136 203Q124 190 116 173L56 212Q69 237 90 257Q108 274 136 288Q164 302 205 302Q240 302 266 291.5Q292 281 313.5 268.5Q335 256 355 245.5Q375 235 399 235Q422 235 437.5 244.5Q453 254 464 265Q476 278 484 295L544 256Q531 230 510 211Q492 194 464 180Q436 166 395 166Z" glyph-name="approxequal" horiz-adv-x="600" unicode="&#8776;" /><glyph d="M426 388Q388 388 361 398.5Q334 409 311 421.5Q288 434 266.5 444.5Q245 455 220 455Q192 455 172.5 445.5Q153 436 140 425Q125 412 116 395L56 434Q70 459 94 479Q114 496 146 510Q178 524 224 524Q261 524 288.5 513.5Q316 503 339 490.5Q362 478 383 467.5Q404 457 430 457Q458 457 477.5 466.5Q497 476 510 487Q525 500 534 517L594 478Q580 452 556 433Q536 416 504 402Q472 388 426 388ZM426 201Q388 201 360.5 211.5Q333 222 309.5 234.5Q286 247 264.5 257.5Q243 268 218 268Q190 268 171 258.5Q152 249 140 238Q126 225 116 208L56 247Q71 272 94 292Q114 309 145 323Q176 337 222 337Q260 337 287.5 326.5Q315 316 338 303.5Q361 291 382.5 280.5Q404 270 430 270Q458 270 477.5 279.5Q497 289 510 300Q525 313 534 330L594 291Q580 265 556 246Q536 229 504 215Q472 201 426 201Z" glyph-name="approxequal.cap" horiz-adv-x="650" unicode="&#61990;" /><glyph d="M155 619Q155 660 182 685.5Q209 711 253 711Q297 711 324 685.5Q351 660 351 619Q351 580 324 553Q297 526 253 526Q209 526 182 553Q155 580 155 619ZM203 619Q203 599 217 583.5Q231 568 253 568Q275 568 289 583.5Q303 599 303 619Q303 640 289 654.5Q275 669 253 669Q231 669 217 654.5Q203 640 203 619ZM366 0Q362 8 358.5 25Q355 42 355 62Q329 30 291 9Q253 -12 194 -12Q161 -12 133 -2.5Q105 7 84 24Q63 41 51.5 66Q40 91 40 121Q40 168 65.5 199.5Q91 231 134.5 249.5Q178 268 235 275.5Q292 283 354 283V312Q354 360 329 390Q304 420 250 420Q196 420 170.5 393.5Q145 367 143 329L59 341Q63 377 80 403.5Q97 430 123.5 448Q150 466 183.5 475Q217 484 253 484Q338 484 387 440Q436 396 436 320V64Q436 41 439 27.5Q442 14 447 0ZM219 53Q245 53 269.5 62Q294 71 312.5 87.5Q331 104 342.5 128Q354 152 354 182V223Q303 223 261 217.5Q219 212 189 200.5Q159 189 142 170.5Q125 152 125 127Q125 91 150.5 72Q176 53 219 53Z" glyph-name="aring" horiz-adv-x="507" unicode="&#229;" /><glyph d="M167 619Q167 660 194 685.5Q221 711 265 711Q309 711 336 685.5Q363 660 363 619Q363 580 336 553Q309 526 265 526Q221 526 194 553Q167 580 167 619ZM215 619Q215 599 229 583.5Q243 568 265 568Q287 568 301 583.5Q315 599 315 619Q315 640 301 654.5Q287 669 265 669Q243 669 229 654.5Q215 640 215 619ZM44 236Q44 293 60 339Q76 385 104.5 417.5Q133 450 171.5 467Q210 484 256 484Q316 484 352 458.5Q388 433 406 401V472H485V0H406V71Q396 55 382.5 40Q369 25 351 13.5Q333 2 309.5 -5Q286 -12 256 -12Q210 -12 171.5 5Q133 22 104.5 54.5Q76 87 60 133Q44 179 44 236ZM265 415Q234 415 209 401.5Q184 388 167 364Q150 340 140.5 307Q131 274 131 236Q131 198 140.5 165Q150 132 167 108Q184 84 209 70.5Q234 57 265 57Q285 57 309 64Q333 71 353.5 88.5Q374 106 387.5 134.5Q401 163 401 205V267Q401 309 387 337.5Q373 366 352.5 383.5Q332 401 308.5 408Q285 415 265 415Z" glyph-name="aring.school" horiz-adv-x="565" unicode="&#57687;" /><glyph d="M168 701Q168 742 195 767.5Q222 793 266 793Q310 793 337 767.5Q364 742 364 701Q364 662 337 635Q310 608 266 608Q222 608 195 635Q168 662 168 701ZM216 701Q216 681 230 665.5Q244 650 266 650Q288 650 302 665.5Q316 681 316 701Q316 722 302 736.5Q288 751 266 751Q244 751 230 736.5Q216 722 216 701ZM511 0H424L372 147H153L100 0H19L225 564H305ZM261 461Q258 453 253.5 437.5Q249 422 242.5 403Q236 384 228.5 362.5Q221 341 214 320Q196 270 176 213H349Q329 270 311 320Q303 341 296 362.5Q289 384 282.5 403Q276 422 271 437.5Q266 453 263 461Z" glyph-name="aring.smcp" horiz-adv-x="530" unicode="&#57894;" /><glyph d="M410 121 607 317 656 268 375 -14 94 268 143 317 340 121V700H410Z" glyph-name="arrowdown" horiz-adv-x="750" unicode="&#8595;" /><glyph d="M777 384V314H198L394 117L345 68L63 349L345 630L394 581L198 384Z" glyph-name="arrowleft" horiz-adv-x="850" unicode="&#8592;" /><glyph d="M652 384 456 581 505 630 787 349 505 68 456 117 652 314H73V384Z" glyph-name="arrowright" horiz-adv-x="850" unicode="&#8594;" /><glyph d="M410 0H340V579L143 383L94 432L375 714L656 432L607 383L410 579Z" glyph-name="arrowup" horiz-adv-x="750" unicode="&#8593;" /><glyph d="M485 351H400L266 619L129 351H50L233 700H302Z" glyph-name="asciicircum" horiz-adv-x="535" unicode="^" /><glyph d="M393 235Q358 235 332 245.5Q306 256 284.5 268.5Q263 281 243 291.5Q223 302 199 302Q176 302 160.5 292.5Q145 283 134 272Q122 259 114 242L54 281Q67 306 88 326Q106 343 134 357Q162 371 203 371Q238 371 264 360.5Q290 350 311.5 337.5Q333 325 353 314.5Q373 304 397 304Q420 304 435.5 313.5Q451 323 462 334Q474 347 482 364L542 325Q529 299 508 280Q490 263 462 249Q434 235 393 235Z" glyph-name="asciitilde" horiz-adv-x="597" unicode="~" /><glyph d="M217 700V578L329 620L348 563L230 530L306 434L257 398L189 500L121 398L72 434L148 530L30 563L49 620L161 578V700Z" glyph-name="asterisk" horiz-adv-x="378" unicode="*" /><glyph d="M610 468H683L631 196Q628 182 628 171Q628 143 642 128.5Q656 114 679 114Q704 114 731 129.5Q758 145 780 174Q802 203 816 246Q830 289 830 343Q830 410 807.5 467Q785 524 743.5 564.5Q702 605 643 628Q584 651 512 651Q432 651 361.5 621.5Q291 592 238.5 539Q186 486 155.5 410.5Q125 335 125 244Q125 157 153 90Q181 23 230 -22.5Q279 -68 345.5 -91Q412 -114 488 -114Q534 -114 574 -106Q614 -98 648 -84Q682 -70 712 -52.5Q742 -35 769 -15L809 -72Q784 -91 752.5 -110Q721 -129 680.5 -144Q640 -159 591 -168.5Q542 -178 483 -178Q372 -178 290.5 -144Q209 -110 155 -52Q101 6 74.5 83Q48 160 48 247Q48 355 85.5 441.5Q123 528 186.5 588.5Q250 649 334 681.5Q418 714 510 714Q593 714 665 688.5Q737 663 790 616Q843 569 873.5 502Q904 435 904 351Q904 292 888 238Q872 184 842.5 143Q813 102 770.5 77.5Q728 53 674 53Q646 53 627 60Q608 67 596 78.5Q584 90 577.5 103Q571 116 568 128Q556 108 539.5 93.5Q523 79 504.5 70Q486 61 466 57Q446 53 428 53Q395 53 366.5 65.5Q338 78 317.5 102Q297 126 285 160Q273 194 273 237Q273 288 289 331.5Q305 375 333 407.5Q361 440 398 458.5Q435 477 477 477Q522 477 555.5 458Q589 439 600 411ZM575 271Q582 305 577.5 332.5Q573 360 560.5 378.5Q548 397 528 407Q508 417 486 417Q458 417 433 403Q408 389 389.5 365Q371 341 360.5 309Q350 277 350 242Q350 185 374 149.5Q398 114 441 114Q489 114 522.5 148Q556 182 567 233Z" glyph-name="at" horiz-adv-x="948" unicode="@" /><glyph d="M610 550H683L631 278Q628 264 628 253Q628 225 642 210.5Q656 196 679 196Q704 196 731 211.5Q758 227 780 256Q802 285 816 328Q830 371 830 425Q830 492 807.5 549Q785 606 743.5 646.5Q702 687 643 710Q584 733 512 733Q432 733 361.5 703.5Q291 674 238.5 621Q186 568 155.5 492.5Q125 417 125 326Q125 239 153 172Q181 105 230 59.5Q279 14 345.5 -9Q412 -32 488 -32Q534 -32 574 -24Q614 -16 648 -2Q682 12 712 29.5Q742 47 769 67L809 10Q784 -9 752.5 -28Q721 -47 680.5 -62Q640 -77 591 -86.5Q542 -96 483 -96Q372 -96 290.5 -62Q209 -28 155 30Q101 88 74.5 165Q48 242 48 329Q48 437 85.5 523.5Q123 610 186.5 670.5Q250 731 334 763.5Q418 796 510 796Q593 796 665 770.5Q737 745 790 698Q843 651 873.5 584Q904 517 904 433Q904 374 888 320Q872 266 842.5 225Q813 184 770.5 159.5Q728 135 674 135Q646 135 627 142Q608 149 596 160.5Q584 172 577.5 185Q571 198 568 210Q556 190 539.5 175.5Q523 161 504.5 152Q486 143 466 139Q446 135 428 135Q395 135 366.5 147.5Q338 160 317.5 184Q297 208 285 242Q273 276 273 319Q273 370 289 413.5Q305 457 333 489.5Q361 522 398 540.5Q435 559 477 559Q522 559 555.5 540Q589 521 600 493ZM575 353Q582 387 577.5 414.5Q573 442 560.5 460.5Q548 479 528 489Q508 499 486 499Q458 499 433 485Q408 471 389.5 447Q371 423 360.5 391Q350 359 350 324Q350 267 374 231.5Q398 196 441 196Q489 196 522.5 230Q556 264 567 315Z" glyph-name="at.cap" horiz-adv-x="948" unicode="&#58643;" /><glyph d="M189 661Q214 661 233 653Q252 645 267.5 635.5Q283 626 297 618Q311 610 328 610Q344 610 355 617Q366 624 374 633Q383 643 388 656L431 617Q421 599 406 585Q393 573 373 563Q353 553 324 553Q298 553 280 561Q262 569 246.5 578Q231 587 217 595Q203 603 186 603Q169 603 158.5 595.5Q148 588 140 580Q131 570 126 558L83 597Q92 615 107 629Q120 641 140 651Q160 661 189 661ZM366 0Q362 8 358.5 25Q355 42 355 62Q329 30 291 9Q253 -12 194 -12Q161 -12 133 -2.5Q105 7 84 24Q63 41 51.5 66Q40 91 40 121Q40 168 65.5 199.5Q91 231 134.5 249.5Q178 268 235 275.5Q292 283 354 283V312Q354 360 329 390Q304 420 250 420Q196 420 170.5 393.5Q145 367 143 329L59 341Q63 377 80 403.5Q97 430 123.5 448Q150 466 183.5 475Q217 484 253 484Q338 484 387 440Q436 396 436 320V64Q436 41 439 27.5Q442 14 447 0ZM219 53Q245 53 269.5 62Q294 71 312.5 87.5Q331 104 342.5 128Q354 152 354 182V223Q303 223 261 217.5Q219 212 189 200.5Q159 189 142 170.5Q125 152 125 127Q125 91 150.5 72Q176 53 219 53Z" glyph-name="atilde" horiz-adv-x="507" unicode="&#227;" /><glyph d="M197 661Q222 661 241 653Q260 645 275.5 635.5Q291 626 305 618Q319 610 336 610Q352 610 363 617Q374 624 382 633Q391 643 396 656L439 617Q429 599 414 585Q401 573 381 563Q361 553 332 553Q306 553 288 561Q270 569 254.5 578Q239 587 225 595Q211 603 194 603Q177 603 166.5 595.5Q156 588 148 580Q139 570 134 558L91 597Q100 615 115 629Q128 641 148 651Q168 661 197 661ZM44 236Q44 293 60 339Q76 385 104.5 417.5Q133 450 171.5 467Q210 484 256 484Q316 484 352 458.5Q388 433 406 401V472H485V0H406V71Q396 55 382.5 40Q369 25 351 13.5Q333 2 309.5 -5Q286 -12 256 -12Q210 -12 171.5 5Q133 22 104.5 54.5Q76 87 60 133Q44 179 44 236ZM265 415Q234 415 209 401.5Q184 388 167 364Q150 340 140.5 307Q131 274 131 236Q131 198 140.5 165Q150 132 167 108Q184 84 209 70.5Q234 57 265 57Q285 57 309 64Q333 71 353.5 88.5Q374 106 387.5 134.5Q401 163 401 205V267Q401 309 387 337.5Q373 366 352.5 383.5Q332 401 308.5 408Q285 415 265 415Z" glyph-name="atilde.school" horiz-adv-x="565" unicode="&#57686;" /><glyph d="M196 731Q221 731 240 723Q259 715 274.5 705.5Q290 696 304 688Q318 680 335 680Q351 680 362 687Q373 694 381 703Q390 713 395 726L438 687Q428 669 413 655Q400 643 380 633Q360 623 331 623Q305 623 287 631Q269 639 253.5 648Q238 657 224 665Q210 673 193 673Q176 673 165.5 665.5Q155 658 147 650Q138 640 133 628L90 667Q99 685 114 699Q127 711 147 721Q167 731 196 731ZM511 0H424L372 147H153L100 0H19L225 564H305ZM261 461Q258 453 253.5 437.5Q249 422 242.5 403Q236 384 228.5 362.5Q221 341 214 320Q196 270 176 213H349Q329 270 311 320Q303 341 296 362.5Q289 384 282.5 403Q276 422 271 437.5Q266 453 263 461Z" glyph-name="atilde.smcp" horiz-adv-x="530" unicode="&#57893;" /><glyph d="M314 484Q361 484 400.5 467Q440 450 469 417.5Q498 385 514.5 339Q531 293 531 236Q531 179 514.5 133Q498 87 469 54.5Q440 22 400.5 5Q361 -12 314 -12Q283 -12 259 -5Q235 2 216 13.5Q197 25 183 40Q169 55 159 71V0H80V700H164V412Q187 441 222.5 462.5Q258 484 314 484ZM164 204Q164 164 177.5 136Q191 108 211.5 90.5Q232 73 257 65Q282 57 305 57Q337 57 363 70.5Q389 84 407 108Q425 132 434.5 165Q444 198 444 236Q444 274 434.5 307Q425 340 407 364Q389 388 363 401.5Q337 415 305 415Q282 415 257 407Q232 399 211.5 381.5Q191 364 177.5 336Q164 308 164 268Z" glyph-name="b" horiz-adv-x="575" unicode="b" /><glyph d="M90 564H299Q384 564 426.5 526Q469 488 469 422Q469 393 460.5 371.5Q452 350 439 334.5Q426 319 410 309Q394 299 379 293Q400 290 420.5 281Q441 272 457 256Q473 240 483 217Q493 194 493 163Q493 127 479.5 97Q466 67 441.5 45.5Q417 24 383.5 12Q350 0 310 0H90ZM171 498V322H272Q385 322 385 414Q385 498 281 498ZM171 66H281Q318 66 342.5 73.5Q367 81 382 94.5Q397 108 403 125Q409 142 409 162Q409 215 373.5 236Q338 257 279 257H171Z" glyph-name="b.smcp" horiz-adv-x="545" unicode="&#57858;" /><glyph d="M215 280Q176 280 153 296Q130 312 117 333V288H56V733H120V550Q134 569 157 582.5Q180 596 215 596Q245 596 270 585Q295 574 313.5 553.5Q332 533 342.5 504Q353 475 353 438Q353 402 342.5 372.5Q332 343 313.5 322.5Q295 302 270 291Q245 280 215 280ZM120 419Q120 393 128.5 376.5Q137 360 149.5 349.5Q162 339 176.5 335Q191 331 204 331Q242 331 264.5 361.5Q287 392 287 438Q287 484 264.5 514.5Q242 545 204 545Q191 545 176.5 541Q162 537 149.5 526.5Q137 516 128.5 499Q120 482 120 457Z" glyph-name="b.superior" horiz-adv-x="387" unicode="&#58210;" /><glyph d="M309 -115 10 754H82L380 -115Z" glyph-name="backslash" horiz-adv-x="390" unicode="\" /><glyph d="M278 -22 20 722H92L349 -22Z" glyph-name="backslash.cap" horiz-adv-x="390" unicode="&#58466;" /><glyph d="M64 472H536V0H64ZM123 55H477V417H123ZM300 195 219 113 176 155 258 236 176 318 219 360 300 278 381 360 424 318 342 236 424 155 381 113Z" glyph-name="ballotboxwithx" horiz-adv-x="600" unicode="&#9746;" /><glyph d="M95 797H168V-169H95Z" glyph-name="bar" horiz-adv-x="263" unicode="|" /><glyph d="M95 722H168V-22H95Z" glyph-name="bar.cap" horiz-adv-x="263" unicode="&#58467;" /><glyph d="M787 350Q787 276 758 210Q729 144 679.5 94.5Q630 45 564.5 16.5Q499 -12 425 -12Q351 -12 285.5 16.5Q220 45 170.5 94.5Q121 144 92 210Q63 276 63 350Q63 424 92 490Q121 556 170.5 605.5Q220 655 285.5 683.5Q351 712 425 712Q499 712 564.5 683.5Q630 655 679.5 605.5Q729 556 758 490Q787 424 787 350Z" glyph-name="blackcircle" horiz-adv-x="850" unicode="&#9679;" /><glyph d="M64 472H536V0H64Z" glyph-name="blacksmallsquare" horiz-adv-x="600" unicode="&#9642;" /><glyph d="M75 700H775V0H75Z" glyph-name="blacksquare" horiz-adv-x="850" unicode="&#9632;" /><glyph d="M205 483Q205 439 198.5 408.5Q192 378 179 358Q166 338 147 326.5Q128 315 104 310Q128 305 147 293.5Q166 282 179 262Q192 242 198.5 211.5Q205 181 205 138V81Q205 46 207.5 15Q210 -16 221 -40.5Q232 -65 253.5 -81.5Q275 -98 314 -102V-158Q247 -156 209.5 -133.5Q172 -111 154 -74Q136 -37 132 13Q128 63 128 120V137Q128 166 125.5 190Q123 214 114 233Q105 252 87.5 264Q70 276 40 281V340Q70 345 87.5 357Q105 369 114 388Q123 407 125.5 431Q128 455 128 484V501Q128 558 132 608Q136 658 154 695Q172 732 209.5 754.5Q247 777 314 779V723Q275 718 253.5 702Q232 686 221 661.5Q210 637 207.5 606Q205 575 205 540Z" glyph-name="braceleft" horiz-adv-x="334" unicode="{" /><glyph d="M205 527Q205 483 198.5 452.5Q192 422 179 402Q166 382 147 370.5Q128 359 104 354Q128 349 147 337.5Q166 326 179 306Q192 286 198.5 255.5Q205 225 205 182V125Q205 90 207.5 59Q210 28 221 3.5Q232 -21 253.5 -37.5Q275 -54 314 -58V-114Q247 -112 209.5 -89.5Q172 -67 154 -30Q136 7 132 57Q128 107 128 164V181Q128 210 125.5 234Q123 258 114 277Q105 296 87.5 308Q70 320 40 325V384Q70 389 87.5 401Q105 413 114 432Q123 451 125.5 475Q128 499 128 528V545Q128 602 132 652Q136 702 154 739Q172 776 209.5 798.5Q247 821 314 823V767Q275 762 253.5 746Q232 730 221 705.5Q210 681 207.5 650Q205 619 205 584Z" glyph-name="braceleft.cap" horiz-adv-x="334" unicode="&#58517;" /><glyph d="M129 540Q129 575 126.5 606Q124 637 113 661.5Q102 686 80.5 702Q59 718 20 723V779Q87 777 124.5 754.5Q162 732 180 695Q198 658 202 608Q206 558 206 501V484Q206 455 208.5 431Q211 407 220 388Q229 369 246.5 357Q264 345 294 340V281Q264 276 246.5 264Q229 252 220 233Q211 214 208.5 190Q206 166 206 137V120Q206 63 202 13Q198 -37 180 -74Q162 -111 124.5 -133.5Q87 -156 20 -158V-102Q59 -98 80.5 -81.5Q102 -65 113 -40.5Q124 -16 126.5 15Q129 46 129 81V138Q129 181 135.5 211.5Q142 242 155 262Q168 282 187 293.5Q206 305 230 310Q206 315 187 326.5Q168 338 155 358Q142 378 135.5 408.5Q129 439 129 483Z" glyph-name="braceright" horiz-adv-x="334" unicode="}" /><glyph d="M129 584Q129 619 126.5 650Q124 681 113 705.5Q102 730 80.5 746Q59 762 20 767V823Q87 821 124.5 798.5Q162 776 180 739Q198 702 202 652Q206 602 206 545V528Q206 499 208.5 475Q211 451 220 432Q229 413 246.5 401Q264 389 294 384V325Q264 320 246.5 308Q229 296 220 277Q211 258 208.5 234Q206 210 206 181V164Q206 107 202 57Q198 7 180 -30Q162 -67 124.5 -89.5Q87 -112 20 -114V-58Q59 -54 80.5 -37.5Q102 -21 113 3.5Q124 28 126.5 59Q129 90 129 125V182Q129 225 135.5 255.5Q142 286 155 306Q168 326 187 337.5Q206 349 230 354Q206 359 187 370.5Q168 382 155 402Q142 422 135.5 452.5Q129 483 129 527Z" glyph-name="braceright.cap" horiz-adv-x="334" unicode="&#58518;" /><glyph d="M90 762H275V702H167V-87H275V-147H90Z" glyph-name="bracketleft" horiz-adv-x="305" unicode="[" /><glyph d="M90 805H275V745H167V-44H275V-104H90Z" glyph-name="bracketleft.cap" horiz-adv-x="305" unicode="&#58515;" /><glyph d="M30 -147V-87H138V702H30V762H215V-147Z" glyph-name="bracketright" horiz-adv-x="305" unicode="]" /><glyph d="M30 -104V-44H138V745H30V805H215V-104Z" glyph-name="bracketright.cap" horiz-adv-x="305" unicode="&#58516;" /><glyph d="M213 673Q218 642 241.5 620Q265 598 300 598Q335 598 358.5 620Q382 642 387 673L452 653Q441 604 400.5 573Q360 542 300 542Q240 542 199.5 573Q159 604 148 653Z" glyph-name="breve" horiz-adv-x="600" unicode="&#728;" /><glyph d="M213 891Q218 860 241.5 838Q265 816 300 816Q335 816 358.5 838Q382 860 387 891L452 871Q441 822 400.5 791Q360 760 300 760Q240 760 199.5 791Q159 822 148 871Z" glyph-name="breve.cap" horiz-adv-x="600" unicode="&#58406;" /><glyph d="M95 797H168V412H95ZM95 216H168V-169H95Z" glyph-name="brokenbar" horiz-adv-x="263" unicode="&#166;" /><glyph d="M95 722H168V452H95ZM95 256H168V-22H95Z" glyph-name="brokenbar.cap" horiz-adv-x="263" unicode="&#58469;" /><glyph d="M65 326Q65 351 74 372.5Q83 394 99 410Q115 426 137 434.5Q159 443 185 443Q211 443 233 434.5Q255 426 271 410Q287 394 296 372.5Q305 351 305 326Q305 276 271.5 243.5Q238 211 185 211Q132 211 98.5 243.5Q65 276 65 326Z" glyph-name="bullet" horiz-adv-x="370" unicode="&#8226;" /><glyph d="M65 356Q65 381 74 402.5Q83 424 99 440Q115 456 137 464.5Q159 473 185 473Q211 473 233 464.5Q255 456 271 440Q287 424 296 402.5Q305 381 305 356Q305 306 271.5 273.5Q238 241 185 241Q132 241 98.5 273.5Q65 306 65 356Z" glyph-name="bullet.cap" horiz-adv-x="370" unicode="&#58470;" /><glyph d="M44 236Q44 290 59 335.5Q74 381 102.5 414Q131 447 172.5 465.5Q214 484 268 484Q306 484 336 474.5Q366 465 389 448Q412 431 428.5 408.5Q445 386 456 359L378 329Q367 369 339.5 392.5Q312 416 265 416Q232 416 206.5 402Q181 388 164.5 363.5Q148 339 139.5 306.5Q131 274 131 237Q131 200 139.5 167Q148 134 165 109.5Q182 85 207 71Q232 57 266 57Q316 57 340.5 82Q365 107 379 141L457 111Q430 58 385.5 23Q341 -12 267 -12Q214 -12 172.5 6.5Q131 25 102.5 58Q74 91 59 136.5Q44 182 44 236Z" glyph-name="c" horiz-adv-x="491" unicode="c" /><glyph d="M57 280Q57 347 75 401.5Q93 456 126.5 494.5Q160 533 208.5 554Q257 575 317 575Q402 575 456 535Q510 495 538 426L459 398Q442 446 407.5 476.5Q373 507 314 507Q273 507 241.5 491Q210 475 188 445.5Q166 416 154.5 374Q143 332 143 280Q143 231 154 190Q165 149 187 119Q209 89 241 72.5Q273 56 314 56Q370 56 405 85Q440 114 459 163L537 135Q508 66 454.5 27Q401 -12 316 -12Q255 -12 207 9Q159 30 125.5 68.5Q92 107 74.5 160.5Q57 214 57 280Z" glyph-name="c.smcp" horiz-adv-x="573" unicode="&#57859;" /><glyph d="M34 438Q34 508 73 552Q112 596 181 596Q232 596 260.5 573Q289 550 304 515L245 493Q238 517 221.5 531Q205 545 178 545Q138 545 119 513Q100 481 100 439Q100 418 104.5 399Q109 380 118.5 365Q128 350 142.5 341Q157 332 178 332Q207 332 221.5 347.5Q236 363 245 382L305 359Q287 326 258.5 303Q230 280 180 280Q111 280 72.5 324Q34 368 34 438Z" glyph-name="c.superior" horiz-adv-x="333" unicode="&#58211;" /><glyph d="M368 639 190 532 161 576 327 700ZM44 236Q44 290 59 335.5Q74 381 102.5 414Q131 447 172.5 465.5Q214 484 268 484Q306 484 336 474.5Q366 465 389 448Q412 431 428.5 408.5Q445 386 456 359L378 329Q367 369 339.5 392.5Q312 416 265 416Q232 416 206.5 402Q181 388 164.5 363.5Q148 339 139.5 306.5Q131 274 131 237Q131 200 139.5 167Q148 134 165 109.5Q182 85 207 71Q232 57 266 57Q316 57 340.5 82Q365 107 379 141L457 111Q430 58 385.5 23Q341 -12 267 -12Q214 -12 172.5 6.5Q131 25 102.5 58Q74 91 59 136.5Q44 182 44 236Z" glyph-name="cacute" horiz-adv-x="491" unicode="&#263;" /><glyph d="M414 717 236 610 207 654 373 778ZM57 280Q57 347 75 401.5Q93 456 126.5 494.5Q160 533 208.5 554Q257 575 317 575Q402 575 456 535Q510 495 538 426L459 398Q442 446 407.5 476.5Q373 507 314 507Q273 507 241.5 491Q210 475 188 445.5Q166 416 154.5 374Q143 332 143 280Q143 231 154 190Q165 149 187 119Q209 89 241 72.5Q273 56 314 56Q370 56 405 85Q440 114 459 163L537 135Q508 66 454.5 27Q401 -12 316 -12Q255 -12 207 9Q159 30 125.5 68.5Q92 107 74.5 160.5Q57 214 57 280Z" glyph-name="cacute.smcp" horiz-adv-x="573" unicode="&#57908;" /><glyph d="M327 534H272L160 663L202 700L300 593L399 700L440 663Z" glyph-name="caron" horiz-adv-x="600" unicode="&#711;" /><glyph d="M158 868 201 907 300 809 401 907 443 868 330 752H270Z" glyph-name="caron.cap" horiz-adv-x="600" unicode="&#58413;" /><glyph d="M353 690 293 531 246 543 285 708Z" glyph-name="caronSlovak" horiz-adv-x="600" unicode="&#58387;" /><glyph d="M293 534H238L126 663L168 700L266 593L365 700L406 663ZM44 236Q44 290 59 335.5Q74 381 102.5 414Q131 447 172.5 465.5Q214 484 268 484Q306 484 336 474.5Q366 465 389 448Q412 431 428.5 408.5Q445 386 456 359L378 329Q367 369 339.5 392.5Q312 416 265 416Q232 416 206.5 402Q181 388 164.5 363.5Q148 339 139.5 306.5Q131 274 131 237Q131 200 139.5 167Q148 134 165 109.5Q182 85 207 71Q232 57 266 57Q316 57 340.5 82Q365 107 379 141L457 111Q430 58 385.5 23Q341 -12 267 -12Q214 -12 172.5 6.5Q131 25 102.5 58Q74 91 59 136.5Q44 182 44 236Z" glyph-name="ccaron" horiz-adv-x="491" unicode="&#269;" /><glyph d="M339 612H284L172 741L214 778L312 671L411 778L452 741ZM57 280Q57 347 75 401.5Q93 456 126.5 494.5Q160 533 208.5 554Q257 575 317 575Q402 575 456 535Q510 495 538 426L459 398Q442 446 407.5 476.5Q373 507 314 507Q273 507 241.5 491Q210 475 188 445.5Q166 416 154.5 374Q143 332 143 280Q143 231 154 190Q165 149 187 119Q209 89 241 72.5Q273 56 314 56Q370 56 405 85Q440 114 459 163L537 135Q508 66 454.5 27Q401 -12 316 -12Q255 -12 207 9Q159 30 125.5 68.5Q92 107 74.5 160.5Q57 214 57 280Z" glyph-name="ccaron.smcp" horiz-adv-x="573" unicode="&#57910;" /><glyph d="M196 -156Q203 -162 215.5 -168.5Q228 -175 247 -175Q267 -175 278 -163.5Q289 -152 289 -133Q289 -93 249 -93Q236 -93 227 -97Q218 -101 211 -106L184 -79L213 -6Q172 3 141 24.5Q110 46 88 77.5Q66 109 55 149Q44 189 44 236Q44 290 59 335.5Q74 381 102.5 414Q131 447 172.5 465.5Q214 484 268 484Q306 484 336 474.5Q366 465 389 448Q412 431 428.5 408.5Q445 386 456 359L378 329Q367 369 339.5 392.5Q312 416 265 416Q232 416 206.5 402Q181 388 164.5 363.5Q148 339 139.5 306.5Q131 274 131 237Q131 200 139.5 167Q148 134 165 109.5Q182 85 207 71Q232 57 266 57Q316 57 340.5 82Q365 107 379 141L457 111Q430 58 385.5 23Q341 -12 267 -12H256L239 -56Q251 -49 269 -49Q302 -49 324.5 -70.5Q347 -92 347 -131Q347 -174 319 -198.5Q291 -223 247 -223Q217 -223 197 -213.5Q177 -204 168 -195Z" glyph-name="ccedilla" horiz-adv-x="491" unicode="&#231;" /><glyph d="M258 -156Q265 -162 277.5 -168.5Q290 -175 309 -175Q329 -175 340 -163.5Q351 -152 351 -133Q351 -93 311 -93Q298 -93 289 -97Q280 -101 273 -106L246 -79L274 -9Q171 5 114 82Q57 159 57 280Q57 347 75 401.5Q93 456 126.5 494.5Q160 533 208.5 554Q257 575 317 575Q402 575 456 535Q510 495 538 426L459 398Q442 446 407.5 476.5Q373 507 314 507Q273 507 241.5 491Q210 475 188 445.5Q166 416 154.5 374Q143 332 143 280Q143 231 154 190Q165 149 187 119Q209 89 241 72.5Q273 56 314 56Q370 56 405 85Q440 114 459 163L537 135Q508 66 455 27.5Q402 -11 318 -12L301 -56Q313 -49 331 -49Q364 -49 386.5 -70.5Q409 -92 409 -131Q409 -174 381 -198.5Q353 -223 309 -223Q279 -223 259 -213.5Q239 -204 230 -195Z" glyph-name="ccedilla.smcp" horiz-adv-x="573" unicode="&#57912;" /><glyph d="M237 694H292L404 565L362 528L264 635L165 528L124 565ZM44 236Q44 290 59 335.5Q74 381 102.5 414Q131 447 172.5 465.5Q214 484 268 484Q306 484 336 474.5Q366 465 389 448Q412 431 428.5 408.5Q445 386 456 359L378 329Q367 369 339.5 392.5Q312 416 265 416Q232 416 206.5 402Q181 388 164.5 363.5Q148 339 139.5 306.5Q131 274 131 237Q131 200 139.5 167Q148 134 165 109.5Q182 85 207 71Q232 57 266 57Q316 57 340.5 82Q365 107 379 141L457 111Q430 58 385.5 23Q341 -12 267 -12Q214 -12 172.5 6.5Q131 25 102.5 58Q74 91 59 136.5Q44 182 44 236Z" glyph-name="ccircumflex" horiz-adv-x="491" unicode="&#265;" /><glyph d="M284 774H339L451 645L409 608L311 715L212 608L171 645ZM57 280Q57 347 75 401.5Q93 456 126.5 494.5Q160 533 208.5 554Q257 575 317 575Q402 575 456 535Q510 495 538 426L459 398Q442 446 407.5 476.5Q373 507 314 507Q273 507 241.5 491Q210 475 188 445.5Q166 416 154.5 374Q143 332 143 280Q143 231 154 190Q165 149 187 119Q209 89 241 72.5Q273 56 314 56Q370 56 405 85Q440 114 459 163L537 135Q508 66 454.5 27Q401 -12 316 -12Q255 -12 207 9Q159 30 125.5 68.5Q92 107 74.5 160.5Q57 214 57 280Z" glyph-name="ccircumflex.smcp" horiz-adv-x="573" unicode="&#57909;" /><glyph d="M214 603Q214 628 229.5 643Q245 658 269 658Q293 658 308.5 643Q324 628 324 603Q324 581 308.5 565Q293 549 269 549Q245 549 229.5 565Q214 581 214 603ZM44 236Q44 290 59 335.5Q74 381 102.5 414Q131 447 172.5 465.5Q214 484 268 484Q306 484 336 474.5Q366 465 389 448Q412 431 428.5 408.5Q445 386 456 359L378 329Q367 369 339.5 392.5Q312 416 265 416Q232 416 206.5 402Q181 388 164.5 363.5Q148 339 139.5 306.5Q131 274 131 237Q131 200 139.5 167Q148 134 165 109.5Q182 85 207 71Q232 57 266 57Q316 57 340.5 82Q365 107 379 141L457 111Q430 58 385.5 23Q341 -12 267 -12Q214 -12 172.5 6.5Q131 25 102.5 58Q74 91 59 136.5Q44 182 44 236Z" glyph-name="cdotaccent" horiz-adv-x="491" unicode="&#267;" /><glyph d="M260 676Q260 701 275.5 716Q291 731 315 731Q339 731 354.5 716Q370 701 370 676Q370 654 354.5 638Q339 622 315 622Q291 622 275.5 638Q260 654 260 676ZM57 280Q57 347 75 401.5Q93 456 126.5 494.5Q160 533 208.5 554Q257 575 317 575Q402 575 456 535Q510 495 538 426L459 398Q442 446 407.5 476.5Q373 507 314 507Q273 507 241.5 491Q210 475 188 445.5Q166 416 154.5 374Q143 332 143 280Q143 231 154 190Q165 149 187 119Q209 89 241 72.5Q273 56 314 56Q370 56 405 85Q440 114 459 163L537 135Q508 66 454.5 27Q401 -12 316 -12Q255 -12 207 9Q159 30 125.5 68.5Q92 107 74.5 160.5Q57 214 57 280Z" glyph-name="cdotaccent.smcp" horiz-adv-x="573" unicode="&#57911;" /><glyph d="M237 -156Q244 -162 256.5 -168.5Q269 -175 288 -175Q308 -175 319 -163.5Q330 -152 330 -133Q330 -93 290 -93Q277 -93 268 -97Q259 -101 252 -106L225 -79L257 0H302L280 -56Q292 -49 310 -49Q343 -49 365.5 -70.5Q388 -92 388 -131Q388 -174 360 -198.5Q332 -223 288 -223Q258 -223 238 -213.5Q218 -204 209 -195Z" glyph-name="cedilla" horiz-adv-x="600" unicode="&#184;" /><glyph d="M46 345Q46 390 57.5 431Q69 472 93 505Q117 538 153 560.5Q189 583 237 589V691H296V591Q363 585 402.5 550.5Q442 516 463 468L389 439Q379 474 356 496.5Q333 519 296 526V165Q335 172 356 196Q377 220 390 250L464 222Q438 174 399 140.5Q360 107 296 100V0H237V101Q189 107 153.5 129Q118 151 94 184Q70 217 58 258.5Q46 300 46 345ZM128 346Q128 317 133 288Q138 259 151 234.5Q164 210 184.5 192Q205 174 237 167V525Q207 519 186.5 501.5Q166 484 153 460Q140 436 134 406.5Q128 377 128 346Z" glyph-name="cent" horiz-adv-x="496" unicode="&#162;" /><glyph d="M273 694H328L440 565L398 528L300 635L201 528L160 565Z" glyph-name="circumflex" horiz-adv-x="600" unicode="&#710;" /><glyph d="M270 900H329L443 784L401 745L299 843L200 745L158 784Z" glyph-name="circumflex.cap" horiz-adv-x="600" unicode="&#58403;" /><glyph d="M70 422Q70 447 86.5 463Q103 479 129 479Q155 479 171.5 463Q188 447 188 422Q188 397 171.5 381Q155 365 129 365Q103 365 86.5 381Q70 397 70 422ZM70 50Q70 75 86.5 91Q103 107 129 107Q155 107 171.5 91Q188 75 188 50Q188 25 171.5 9Q155 -7 129 -7Q103 -7 86.5 9Q70 25 70 50Z" glyph-name="colon" horiz-adv-x="258" unicode=":" /><glyph d="M193 24Q193 7 189 -13.5Q185 -34 174 -53Q163 -72 144 -87Q125 -102 94 -108L79 -68Q99 -67 116.5 -49.5Q134 -32 134 -9V-3Q133 -4 131 -4H123Q103 -4 86.5 11.5Q70 27 70 51Q70 71 84 89Q98 107 127 107Q162 107 177.5 82Q193 57 193 24Z" glyph-name="comma" horiz-adv-x="263" unicode="," /><glyph d="M358 -123Q358 -135 354.5 -151Q351 -167 342 -182Q333 -197 317 -208.5Q301 -220 275 -224L262 -191Q278 -191 293 -178.5Q308 -166 308 -149V-146Q307 -147 306 -147H299Q282 -147 268 -134Q254 -121 254 -101Q254 -84 266 -68.5Q278 -53 303 -53Q332 -53 345 -74Q358 -95 358 -123Z" glyph-name="commaaccent" horiz-adv-x="600" unicode="&#58388;" /><glyph d="M410 -12Q335 -12 268.5 15Q202 42 153 90Q104 138 75.5 204.5Q47 271 47 351Q47 430 75.5 496Q104 562 153 610Q202 658 268.5 685Q335 712 410 712Q485 712 551.5 685Q618 658 667 610Q716 562 744.5 496Q773 430 773 351Q773 271 744.5 204.5Q716 138 667 90Q618 42 551.5 15Q485 -12 410 -12ZM410 43Q472 43 527 66Q582 89 623 129.5Q664 170 688 226.5Q712 283 712 351Q712 418 688 474Q664 530 623 570.5Q582 611 527 634Q472 657 410 657Q348 657 293 634Q238 611 197 570.5Q156 530 132 474Q108 418 108 351Q108 283 132 226.5Q156 170 197 129.5Q238 89 293 66Q348 43 410 43ZM223 351Q223 397 237.5 435Q252 473 277.5 500Q303 527 338.5 541.5Q374 556 416 556Q477 556 515 528Q553 500 575 455L518 433Q506 463 481 483Q456 503 416 503Q360 503 325 462Q290 421 290 351Q290 282 324.5 240.5Q359 199 415 199Q455 199 480.5 219Q506 239 518 270L575 248Q553 200 514.5 173Q476 146 416 146Q373 146 337.5 161Q302 176 276.5 203Q251 230 237 268Q223 306 223 351Z" glyph-name="copyright" horiz-adv-x="820" unicode="&#169;" /><glyph d="M303 585Q380 585 442 540L511 612L564 559L493 491Q515 462 527.5 426Q540 390 540 351Q540 312 527.5 276Q515 240 493 211L564 143L511 90L442 162Q380 117 303 117Q226 117 164 162L95 90L42 143L113 211Q91 240 78.5 276Q66 312 66 351Q66 390 78.5 426Q91 462 113 491L42 559L95 612L164 540Q226 585 303 585ZM303 188Q336 188 366 200.5Q396 213 418 235Q440 257 453 287Q466 317 466 351Q466 385 453 415Q440 445 418 467Q396 489 366 501.5Q336 514 303 514Q270 514 240 501.5Q210 489 188 467Q166 445 153 415Q140 385 140 351Q140 317 153 287Q166 257 188 235Q210 213 240 200.5Q270 188 303 188Z" glyph-name="currency" horiz-adv-x="606" unicode="&#164;" /><glyph d="M261 484Q317 484 352.5 462.5Q388 441 411 412V700H495V0H416V71Q406 55 392 40Q378 25 359 13.5Q340 2 316 -5Q292 -12 261 -12Q214 -12 174.5 5Q135 22 106 54.5Q77 87 60.5 133Q44 179 44 236Q44 293 60.5 339Q77 385 106 417.5Q135 450 174.5 467Q214 484 261 484ZM411 271Q411 313 396.5 341Q382 369 361 385.5Q340 402 315.5 408.5Q291 415 270 415Q238 415 212 401.5Q186 388 168 364Q150 340 140.5 307Q131 274 131 236Q131 198 140.5 165Q150 132 168 108Q186 84 212 70.5Q238 57 270 57Q291 57 315.5 63.5Q340 70 361 86.5Q382 103 396.5 131Q411 159 411 201Z" glyph-name="d" horiz-adv-x="575" unicode="d" /><glyph d="M90 564H286Q347 564 395.5 545Q444 526 478 489.5Q512 453 530 400.5Q548 348 548 282Q548 215 530 162.5Q512 110 478 74Q444 38 395.5 19Q347 0 286 0H90ZM462 282Q462 330 451 369.5Q440 409 417.5 437Q395 465 359.5 480.5Q324 496 276 496H173V68H276Q324 68 359.5 83.5Q395 99 417.5 127Q440 155 451 194.5Q462 234 462 282Z" glyph-name="d.smcp" horiz-adv-x="605" unicode="&#57860;" /><glyph d="M171 280Q142 280 117 291Q92 302 73.5 322.5Q55 343 44.5 372.5Q34 402 34 438Q34 475 44.5 504Q55 533 73.5 553.5Q92 574 117 585Q142 596 172 596Q207 596 230 582.5Q253 569 267 550V733H331V288H270V333Q257 312 233.5 296Q210 280 171 280ZM267 455Q267 480 258.5 497.5Q250 515 237.5 525.5Q225 536 210 540.5Q195 545 183 545Q145 545 122.5 514.5Q100 484 100 438Q100 392 122 361.5Q144 331 182 331Q195 331 209.5 335Q224 339 236.5 349.5Q249 360 257.5 376.5Q266 393 267 419Z" glyph-name="d.superior" horiz-adv-x="387" unicode="&#58212;" /><glyph d="M30 481H197V700H278V481H445V410H278V-118H197V410H30Z" glyph-name="dagger" horiz-adv-x="475" unicode="&#8224;" /><glyph d="M30 190H197V418H30V489H197V700H278V489H445V418H278V190H445V119H278V-118H197V119H30Z" glyph-name="daggerdbl" horiz-adv-x="475" unicode="&#8225;" /><glyph d="M648 690 588 531 541 543 580 708ZM261 484Q317 484 352.5 462.5Q388 441 411 412V700H495V0H416V71Q406 55 392 40Q378 25 359 13.5Q340 2 316 -5Q292 -12 261 -12Q214 -12 174.5 5Q135 22 106 54.5Q77 87 60.5 133Q44 179 44 236Q44 293 60.5 339Q77 385 106 417.5Q135 450 174.5 467Q214 484 261 484ZM411 271Q411 313 396.5 341Q382 369 361 385.5Q340 402 315.5 408.5Q291 415 270 415Q238 415 212 401.5Q186 388 168 364Q150 340 140.5 307Q131 274 131 236Q131 198 140.5 165Q150 132 168 108Q186 84 212 70.5Q238 57 270 57Q291 57 315.5 63.5Q340 70 361 86.5Q382 103 396.5 131Q411 159 411 201Z" glyph-name="dcaron" horiz-adv-x="575" unicode="&#271;" /><glyph d="M308 612H253L141 741L183 778L281 671L380 778L421 741ZM90 564H286Q347 564 395.5 545Q444 526 478 489.5Q512 453 530 400.5Q548 348 548 282Q548 215 530 162.5Q512 110 478 74Q444 38 395.5 19Q347 0 286 0H90ZM462 282Q462 330 451 369.5Q440 409 417.5 437Q395 465 359.5 480.5Q324 496 276 496H173V68H276Q324 68 359.5 83.5Q395 99 417.5 127Q440 155 451 194.5Q462 234 462 282Z" glyph-name="dcaron.smcp" horiz-adv-x="605" unicode="&#57913;" /><glyph d="M255 614H411V700H495V614H557V551H495V0H416V71Q406 55 392 40Q378 25 359 13.5Q340 2 316 -5Q292 -12 261 -12Q214 -12 174.5 5Q135 22 106 54.5Q77 87 60.5 133Q44 179 44 236Q44 293 60.5 339Q77 385 106 417.5Q135 450 174.5 467Q214 484 261 484Q317 484 352.5 462.5Q388 441 411 412V551H255ZM411 271Q411 313 396.5 341Q382 369 361 385.5Q340 402 315.5 408.5Q291 415 270 415Q238 415 212 401.5Q186 388 168 364Q150 340 140.5 307Q131 274 131 236Q131 198 140.5 165Q150 132 168 108Q186 84 212 70.5Q238 57 270 57Q291 57 315.5 63.5Q340 70 361 86.5Q382 103 396.5 131Q411 159 411 201Z" glyph-name="dcroat" horiz-adv-x="575" unicode="&#273;" /><glyph d="M104 264H35V323H104V564H300Q361 564 409.5 545Q458 526 492 489.5Q526 453 544 400.5Q562 348 562 282Q562 215 544 162.5Q526 110 492 74Q458 38 409.5 19Q361 0 300 0H104ZM187 264V68H290Q338 68 373.5 83.5Q409 99 431.5 127Q454 155 465 194.5Q476 234 476 282Q476 330 465 369.5Q454 409 431.5 437Q409 465 373.5 480.5Q338 496 290 496H187V323H330V264Z" glyph-name="dcroat.smcp" horiz-adv-x="619" unicode="&#57916;" /><glyph d="M346 562Q346 529 334.5 501.5Q323 474 303 454Q283 434 254.5 423Q226 412 193 412Q160 412 131.5 423Q103 434 83 454Q63 474 51.5 501.5Q40 529 40 562Q40 595 51.5 622.5Q63 650 83 670Q103 690 131.5 701Q160 712 193 712Q226 712 254.5 701Q283 690 303 670Q323 650 334.5 622.5Q346 595 346 562ZM280 562Q280 601 256.5 628Q233 655 193 655Q153 655 129.5 628Q106 601 106 562Q106 523 129.5 496Q153 469 193 469Q233 469 256.5 496Q280 523 280 562Z" glyph-name="degree" horiz-adv-x="386" unicode="&#176;" /><glyph d="M343 602Q343 625 358 639.5Q373 654 396 654Q419 654 434 639.5Q449 625 449 602Q449 580 434 564.5Q419 549 396 549Q373 549 358 564.5Q343 580 343 602ZM151 602Q151 625 166 639.5Q181 654 204 654Q227 654 242 639.5Q257 625 257 602Q257 580 242 564.5Q227 549 204 549Q181 549 166 564.5Q151 580 151 602Z" glyph-name="dieresis" horiz-adv-x="600" unicode="&#168;" /><glyph d="M343 820Q343 843 358 857.5Q373 872 396 872Q419 872 434 857.5Q449 843 449 820Q449 798 434 782.5Q419 767 396 767Q373 767 358 782.5Q343 798 343 820ZM151 820Q151 843 166 857.5Q181 872 204 872Q227 872 242 857.5Q257 843 257 820Q257 798 242 782.5Q227 767 204 767Q181 767 166 782.5Q151 798 151 820Z" glyph-name="dieresis.cap" horiz-adv-x="600" unicode="&#58409;" /><glyph d="M244 505Q244 529 259.5 544.5Q275 560 300 560Q325 560 340.5 544.5Q356 529 356 505Q356 482 340.5 466.5Q325 451 300 451Q275 451 259.5 466.5Q244 482 244 505ZM54 358H546V289H54ZM244 141Q244 164 259.5 179.5Q275 195 300 195Q325 195 340.5 179.5Q356 164 356 141Q356 117 340.5 101.5Q325 86 300 86Q275 86 259.5 101.5Q244 117 244 141Z" glyph-name="divide" horiz-adv-x="600" unicode="&#247;" /><glyph d="M269 542Q269 566 284.5 581.5Q300 597 325 597Q350 597 365.5 581.5Q381 566 381 542Q381 519 365.5 503.5Q350 488 325 488Q300 488 284.5 503.5Q269 519 269 542ZM54 395H596V326H54ZM269 178Q269 201 284.5 216.5Q300 232 325 232Q350 232 365.5 216.5Q381 201 381 178Q381 154 365.5 138.5Q350 123 325 123Q300 123 284.5 138.5Q269 154 269 178Z" glyph-name="divide.cap" horiz-adv-x="650" unicode="&#58772;" /><glyph d="M322 695Q409 687 459.5 641Q510 595 521 525L448 506Q445 527 437 547.5Q429 568 414.5 585Q400 602 377.5 614Q355 626 322 631V387Q370 375 408 360Q446 345 473 322Q500 299 514.5 267Q529 235 529 190Q529 149 515.5 114.5Q502 80 476 53.5Q450 27 411.5 11Q373 -5 322 -9V-105H263V-9Q212 -5 172.5 12Q133 29 105.5 55Q78 81 63 115.5Q48 150 47 188L119 200Q119 191 124 169Q129 147 144.5 123.5Q160 100 188 80Q216 60 263 55V324Q210 337 172.5 354Q135 371 111.5 393.5Q88 416 77 445.5Q66 475 66 513Q66 549 78 581Q90 613 114.5 637.5Q139 662 176 677.5Q213 693 263 696V798H322ZM142 518Q142 474 171 445.5Q200 417 263 400V633Q224 630 200.5 617Q177 604 164 586.5Q151 569 146.5 550.5Q142 532 142 518ZM452 188Q452 238 422 265Q392 292 322 310V56Q379 64 415.5 97.5Q452 131 452 188Z" glyph-name="dollar" horiz-adv-x="578" unicode="$" /><glyph d="M245 603Q245 628 260.5 643Q276 658 300 658Q324 658 339.5 643Q355 628 355 603Q355 581 339.5 565Q324 549 300 549Q276 549 260.5 565Q245 581 245 603Z" glyph-name="dotaccent" horiz-adv-x="600" unicode="&#729;" /><glyph d="M244 819Q244 843 259.5 858.5Q275 874 300 874Q325 874 340.5 858.5Q356 843 356 819Q356 796 340.5 780.5Q325 765 300 765Q275 765 259.5 780.5Q244 796 244 819Z" glyph-name="dotaccent.cap" horiz-adv-x="600" unicode="&#58408;" /><glyph d="M80 472H164V0H80Z" glyph-name="dotlessi" horiz-adv-x="244" unicode="&#305;" /><glyph d="M166 -61Q166 -102 153 -130.5Q140 -159 119 -177Q98 -195 71.5 -203.5Q45 -212 17 -212Q-12 -212 -37 -204.5Q-62 -197 -88 -183L-51 -116Q-39 -124 -23.5 -132Q-8 -140 15 -140Q50 -140 66 -116.5Q82 -93 82 -56V472H166Z" glyph-name="dotlessj" horiz-adv-x="246" unicode="&#567;" /><glyph d="M241 797H314V-169H241ZM95 797H168V-169H95Z" glyph-name="doublebar" horiz-adv-x="409" unicode="&#8214;" /><glyph d="M241 722H314V-22H241ZM95 722H168V-22H95Z" glyph-name="doublebar.cap" horiz-adv-x="409" unicode="&#58468;" /><glyph d="M463 108Q436 54 389.5 21Q343 -12 269 -12Q216 -12 174 6.5Q132 25 103 58.5Q74 92 59 137.5Q44 183 44 237Q44 290 59.5 335.5Q75 381 103.5 414Q132 447 173.5 465.5Q215 484 266 484Q320 484 360 464.5Q400 445 426.5 412.5Q453 380 466 337.5Q479 295 479 249V221H130Q131 188 140 157.5Q149 127 165.5 103.5Q182 80 208 66.5Q234 53 270 53Q319 53 345 75Q371 97 389 138ZM264 419Q207 419 173 380.5Q139 342 133 284H393Q390 347 354.5 383Q319 419 264 419Z" glyph-name="e" horiz-adv-x="515" unicode="e" /><glyph d="M90 0V564H435V496H173V324H418V257H173V68H440V0Z" glyph-name="e.smcp" horiz-adv-x="489" unicode="&#57861;" /><glyph d="M308 355Q291 321 260 300.5Q229 280 181 280Q112 280 73 324Q34 368 34 439Q34 509 73.5 552.5Q113 596 179 596Q214 596 240.5 583.5Q267 571 284.5 550Q302 529 310.5 501.5Q319 474 319 444V425H99Q100 387 119 358Q138 329 181 329Q210 329 226 342Q242 355 252 378ZM178 549Q144 549 124 526.5Q104 504 101 469H254Q252 507 231 528Q210 549 178 549Z" glyph-name="e.superior" horiz-adv-x="348" unicode="&#58213;" /><glyph d="M368 639 190 532 161 576 327 700ZM463 108Q436 54 389.5 21Q343 -12 269 -12Q216 -12 174 6.5Q132 25 103 58.5Q74 92 59 137.5Q44 183 44 237Q44 290 59.5 335.5Q75 381 103.5 414Q132 447 173.5 465.5Q215 484 266 484Q320 484 360 464.5Q400 445 426.5 412.5Q453 380 466 337.5Q479 295 479 249V221H130Q131 188 140 157.5Q149 127 165.5 103.5Q182 80 208 66.5Q234 53 270 53Q319 53 345 75Q371 97 389 138ZM264 419Q207 419 173 380.5Q139 342 133 284H393Q390 347 354.5 383Q319 419 264 419Z" glyph-name="eacute" horiz-adv-x="515" unicode="&#233;" /><glyph d="M379 717 201 610 172 654 338 778ZM90 0V564H435V496H173V324H418V257H173V68H440V0Z" glyph-name="eacute.smcp" horiz-adv-x="489" unicode="&#57917;" /><glyph d="M177 673Q182 642 205.5 620Q229 598 264 598Q299 598 322.5 620Q346 642 351 673L416 653Q405 604 364.5 573Q324 542 264 542Q204 542 163.5 573Q123 604 112 653ZM463 108Q436 54 389.5 21Q343 -12 269 -12Q216 -12 174 6.5Q132 25 103 58.5Q74 92 59 137.5Q44 183 44 237Q44 290 59.5 335.5Q75 381 103.5 414Q132 447 173.5 465.5Q215 484 266 484Q320 484 360 464.5Q400 445 426.5 412.5Q453 380 466 337.5Q479 295 479 249V221H130Q131 188 140 157.5Q149 127 165.5 103.5Q182 80 208 66.5Q234 53 270 53Q319 53 345 75Q371 97 389 138ZM264 419Q207 419 173 380.5Q139 342 133 284H393Q390 347 354.5 383Q319 419 264 419Z" glyph-name="ebreve" horiz-adv-x="515" unicode="&#277;" /><glyph d="M176 749Q181 718 204.5 696Q228 674 263 674Q298 674 321.5 696Q345 718 350 749L415 729Q404 680 363.5 649Q323 618 263 618Q203 618 162.5 649Q122 680 111 729ZM90 0V564H435V496H173V324H418V257H173V68H440V0Z" glyph-name="ebreve.smcp" horiz-adv-x="489" unicode="&#57923;" /><glyph d="M291 534H236L124 663L166 700L264 593L363 700L404 663ZM463 108Q436 54 389.5 21Q343 -12 269 -12Q216 -12 174 6.5Q132 25 103 58.5Q74 92 59 137.5Q44 183 44 237Q44 290 59.5 335.5Q75 381 103.5 414Q132 447 173.5 465.5Q215 484 266 484Q320 484 360 464.5Q400 445 426.5 412.5Q453 380 466 337.5Q479 295 479 249V221H130Q131 188 140 157.5Q149 127 165.5 103.5Q182 80 208 66.5Q234 53 270 53Q319 53 345 75Q371 97 389 138ZM264 419Q207 419 173 380.5Q139 342 133 284H393Q390 347 354.5 383Q319 419 264 419Z" glyph-name="ecaron" horiz-adv-x="515" unicode="&#283;" /><glyph d="M292 612H237L125 741L167 778L265 671L364 778L405 741ZM90 0V564H435V496H173V324H418V257H173V68H440V0Z" glyph-name="ecaron.smcp" horiz-adv-x="489" unicode="&#57921;" /><glyph d="M237 694H292L404 565L362 528L264 635L165 528L124 565ZM463 108Q436 54 389.5 21Q343 -12 269 -12Q216 -12 174 6.5Q132 25 103 58.5Q74 92 59 137.5Q44 183 44 237Q44 290 59.5 335.5Q75 381 103.5 414Q132 447 173.5 465.5Q215 484 266 484Q320 484 360 464.5Q400 445 426.5 412.5Q453 380 466 337.5Q479 295 479 249V221H130Q131 188 140 157.5Q149 127 165.5 103.5Q182 80 208 66.5Q234 53 270 53Q319 53 345 75Q371 97 389 138ZM264 419Q207 419 173 380.5Q139 342 133 284H393Q390 347 354.5 383Q319 419 264 419Z" glyph-name="ecircumflex" horiz-adv-x="515" unicode="&#234;" /><glyph d="M235 774H290L402 645L360 608L262 715L163 608L122 645ZM90 0V564H435V496H173V324H418V257H173V68H440V0Z" glyph-name="ecircumflex.smcp" horiz-adv-x="489" unicode="&#57919;" /><glyph d="M308 602Q308 625 323 639.5Q338 654 361 654Q384 654 399 639.5Q414 625 414 602Q414 580 399 564.5Q384 549 361 549Q338 549 323 564.5Q308 580 308 602ZM116 602Q116 625 131 639.5Q146 654 169 654Q192 654 207 639.5Q222 625 222 602Q222 580 207 564.5Q192 549 169 549Q146 549 131 564.5Q116 580 116 602ZM463 108Q436 54 389.5 21Q343 -12 269 -12Q216 -12 174 6.5Q132 25 103 58.5Q74 92 59 137.5Q44 183 44 237Q44 290 59.5 335.5Q75 381 103.5 414Q132 447 173.5 465.5Q215 484 266 484Q320 484 360 464.5Q400 445 426.5 412.5Q453 380 466 337.5Q479 295 479 249V221H130Q131 188 140 157.5Q149 127 165.5 103.5Q182 80 208 66.5Q234 53 270 53Q319 53 345 75Q371 97 389 138ZM264 419Q207 419 173 380.5Q139 342 133 284H393Q390 347 354.5 383Q319 419 264 419Z" glyph-name="edieresis" horiz-adv-x="515" unicode="&#235;" /><glyph d="M306 677Q306 700 321 714.5Q336 729 359 729Q382 729 397 714.5Q412 700 412 677Q412 655 397 639.5Q382 624 359 624Q336 624 321 639.5Q306 655 306 677ZM114 677Q114 700 129 714.5Q144 729 167 729Q190 729 205 714.5Q220 700 220 677Q220 655 205 639.5Q190 624 167 624Q144 624 129 639.5Q114 655 114 677ZM90 0V564H435V496H173V324H418V257H173V68H440V0Z" glyph-name="edieresis.smcp" horiz-adv-x="489" unicode="&#57904;" /><glyph d="M209 603Q209 628 224.5 643Q240 658 264 658Q288 658 303.5 643Q319 628 319 603Q319 581 303.5 565Q288 549 264 549Q240 549 224.5 565Q209 581 209 603ZM463 108Q436 54 389.5 21Q343 -12 269 -12Q216 -12 174 6.5Q132 25 103 58.5Q74 92 59 137.5Q44 183 44 237Q44 290 59.5 335.5Q75 381 103.5 414Q132 447 173.5 465.5Q215 484 266 484Q320 484 360 464.5Q400 445 426.5 412.5Q453 380 466 337.5Q479 295 479 249V221H130Q131 188 140 157.5Q149 127 165.5 103.5Q182 80 208 66.5Q234 53 270 53Q319 53 345 75Q371 97 389 138ZM264 419Q207 419 173 380.5Q139 342 133 284H393Q390 347 354.5 383Q319 419 264 419Z" glyph-name="edotaccent" horiz-adv-x="515" unicode="&#279;" /><glyph d="M211 676Q211 701 226.5 716Q242 731 266 731Q290 731 305.5 716Q321 701 321 676Q321 654 305.5 638Q290 622 266 622Q242 622 226.5 638Q211 654 211 676ZM90 0V564H435V496H173V324H418V257H173V68H440V0Z" glyph-name="edotaccent.smcp" horiz-adv-x="489" unicode="&#57926;" /><glyph d="M151 639 192 700 358 576 329 532ZM463 108Q436 54 389.5 21Q343 -12 269 -12Q216 -12 174 6.5Q132 25 103 58.5Q74 92 59 137.5Q44 183 44 237Q44 290 59.5 335.5Q75 381 103.5 414Q132 447 173.5 465.5Q215 484 266 484Q320 484 360 464.5Q400 445 426.5 412.5Q453 380 466 337.5Q479 295 479 249V221H130Q131 188 140 157.5Q149 127 165.5 103.5Q182 80 208 66.5Q234 53 270 53Q319 53 345 75Q371 97 389 138ZM264 419Q207 419 173 380.5Q139 342 133 284H393Q390 347 354.5 383Q319 419 264 419Z" glyph-name="egrave" horiz-adv-x="515" unicode="&#232;" /><glyph d="M154 717 195 778 361 654 332 610ZM90 0V564H435V496H173V324H418V257H173V68H440V0Z" glyph-name="egrave.smcp" horiz-adv-x="489" unicode="&#57918;" /><glyph d="M300 -12Q240 -12 196 5Q152 22 122.5 50Q93 78 78.5 113.5Q64 149 64 185Q64 214 73.5 242Q83 270 100 293.5Q117 317 141 333.5Q165 350 195 356Q147 373 116 413.5Q85 454 85 510Q85 545 99 579Q113 613 140 639.5Q167 666 207 682Q247 698 300 698Q353 698 393 682Q433 666 460 639.5Q487 613 501 579Q515 545 515 510Q515 454 484 413.5Q453 373 405 356Q435 350 459 333.5Q483 317 500 293.5Q517 270 526.5 242Q536 214 536 185Q536 149 521.5 113.5Q507 78 477.5 50Q448 22 404 5Q360 -12 300 -12ZM431 513Q431 570 395 601.5Q359 633 300 633Q241 633 205 601.5Q169 570 169 513Q169 487 177 464Q185 441 201.5 424Q218 407 242.5 397Q267 387 300 387Q333 387 357.5 397Q382 407 398.5 424Q415 441 423 464Q431 487 431 513ZM300 54Q346 54 375 67Q404 80 420.5 99.5Q437 119 443.5 142.5Q450 166 450 186Q450 212 441 236Q432 260 413.5 278.5Q395 297 366.5 308Q338 319 300 319Q262 319 233.5 308Q205 297 186.5 278.5Q168 260 159 236Q150 212 150 186Q150 166 156.5 142.5Q163 119 179.5 99.5Q196 80 225 67Q254 54 300 54Z" glyph-name="eight" horiz-adv-x="600" unicode="8" /><glyph d="M281 -12Q221 -12 177 5Q133 22 103.5 50Q74 78 59.5 113.5Q45 149 45 185Q45 214 54.5 242Q64 270 81 293.5Q98 317 122 333.5Q146 350 176 356Q128 373 97 413.5Q66 454 66 510Q66 545 80 579Q94 613 121 639.5Q148 666 188 682Q228 698 281 698Q334 698 374 682Q414 666 441 639.5Q468 613 482 579Q496 545 496 510Q496 454 465 413.5Q434 373 386 356Q416 350 440 333.5Q464 317 481 293.5Q498 270 507.5 242Q517 214 517 185Q517 149 502.5 113.5Q488 78 458.5 50Q429 22 385 5Q341 -12 281 -12ZM412 513Q412 570 376 601.5Q340 633 281 633Q222 633 186 601.5Q150 570 150 513Q150 487 158 464Q166 441 182.5 424Q199 407 223.5 397Q248 387 281 387Q314 387 338.5 397Q363 407 379.5 424Q396 441 404 464Q412 487 412 513ZM281 54Q327 54 356 67Q385 80 401.5 99.5Q418 119 424.5 142.5Q431 166 431 186Q431 212 422 236Q413 260 394.5 278.5Q376 297 347.5 308Q319 319 281 319Q243 319 214.5 308Q186 297 167.5 278.5Q149 260 140 236Q131 212 131 186Q131 166 137.5 142.5Q144 119 160.5 99.5Q177 80 206 67Q235 54 281 54Z" glyph-name="eight.LP" horiz-adv-x="562" unicode="&#58685;" /><glyph d="M300 -12Q240 -12 196 5Q152 22 122.5 50Q93 78 78.5 113.5Q64 149 64 185Q64 214 73.5 242Q83 270 100 293.5Q117 317 141 333.5Q165 350 195 356Q147 373 116 413.5Q85 454 85 510Q85 545 99 579Q113 613 140 639.5Q167 666 207 682Q247 698 300 698Q353 698 393 682Q433 666 460 639.5Q487 613 501 579Q515 545 515 510Q515 454 484 413.5Q453 373 405 356Q435 350 459 333.5Q483 317 500 293.5Q517 270 526.5 242Q536 214 536 185Q536 149 521.5 113.5Q507 78 477.5 50Q448 22 404 5Q360 -12 300 -12ZM431 513Q431 570 395 601.5Q359 633 300 633Q241 633 205 601.5Q169 570 169 513Q169 487 177 464Q185 441 201.5 424Q218 407 242.5 397Q267 387 300 387Q333 387 357.5 397Q382 407 398.5 424Q415 441 423 464Q431 487 431 513ZM300 54Q346 54 375 67Q404 80 420.5 99.5Q437 119 443.5 142.5Q450 166 450 186Q450 212 441 236Q432 260 413.5 278.5Q395 297 366.5 308Q338 319 300 319Q262 319 233.5 308Q205 297 186.5 278.5Q168 260 159 236Q150 212 150 186Q150 166 156.5 142.5Q163 119 179.5 99.5Q196 80 225 67Q254 54 300 54Z" glyph-name="eight.LT" horiz-adv-x="600" unicode="&#58696;" /><glyph d="M278 -12Q219 -12 175.5 5.5Q132 23 103 51Q74 79 59.5 114Q45 149 45 185Q45 214 54 242Q63 270 79.5 293Q96 316 119.5 332.5Q143 349 172 355Q127 372 97 413Q67 454 67 510Q67 546 80.5 579.5Q94 613 121 639.5Q148 666 187.5 682Q227 698 279 698Q330 698 369.5 682Q409 666 435.5 639.5Q462 613 475.5 579.5Q489 546 489 510Q489 454 459 413Q429 372 384 355Q413 349 436.5 332.5Q460 316 476.5 293Q493 270 502 242Q511 214 511 185Q511 149 496.5 114Q482 79 453 51Q424 23 380.5 5.5Q337 -12 278 -12ZM406 513Q406 570 371 601Q336 632 279 632Q220 632 185 601Q150 570 150 513Q150 487 158 464Q166 441 182 423.5Q198 406 222 396Q246 386 278 386Q310 386 334 396Q358 406 374 423.5Q390 441 398 464Q406 487 406 513ZM278 55Q323 55 352 68.5Q381 82 397.5 101.5Q414 121 420 144Q426 167 426 186Q426 211 417 235Q408 259 390 277.5Q372 296 344 307Q316 318 278 318Q240 318 212 307Q184 296 166 277.5Q148 259 139 235Q130 211 130 186Q130 167 136 144Q142 121 158.5 101.5Q175 82 204 68.5Q233 55 278 55Z" glyph-name="eight.OP" horiz-adv-x="556" unicode="&#58707;" /><glyph d="M300 -12Q241 -12 197.5 5.5Q154 23 125 51Q96 79 81.5 114Q67 149 67 185Q67 214 76 242Q85 270 101.5 293Q118 316 141.5 332.5Q165 349 194 355Q149 372 119 413Q89 454 89 510Q89 546 102.5 579.5Q116 613 143 639.5Q170 666 209.5 682Q249 698 301 698Q352 698 391.5 682Q431 666 457.5 639.5Q484 613 497.5 579.5Q511 546 511 510Q511 454 481 413Q451 372 406 355Q435 349 458.5 332.5Q482 316 498.5 293Q515 270 524 242Q533 214 533 185Q533 149 518.5 114Q504 79 475 51Q446 23 402.5 5.5Q359 -12 300 -12ZM428 513Q428 570 393 601Q358 632 301 632Q242 632 207 601Q172 570 172 513Q172 487 180 464Q188 441 204 423.5Q220 406 244 396Q268 386 300 386Q332 386 356 396Q380 406 396 423.5Q412 441 420 464Q428 487 428 513ZM300 55Q345 55 374 68.5Q403 82 419.5 101.5Q436 121 442 144Q448 167 448 186Q448 211 439 235Q430 259 412 277.5Q394 296 366 307Q338 318 300 318Q262 318 234 307Q206 296 188 277.5Q170 259 161 235Q152 211 152 186Q152 167 158 144Q164 121 180.5 101.5Q197 82 226 68.5Q255 55 300 55Z" glyph-name="eight.OT" horiz-adv-x="600" unicode="&#58718;" /><glyph d="M185 -208Q150 -208 123.5 -198.5Q97 -189 79.5 -173.5Q62 -158 53 -138Q44 -118 44 -98Q44 -60 66.5 -35.5Q89 -11 119 -4Q93 7 74.5 28Q56 49 56 81Q56 100 64.5 119Q73 138 89 152Q105 166 129 175Q153 184 185 184Q216 184 240.5 175Q265 166 281 152Q297 138 305.5 119Q314 100 314 81Q314 49 295.5 28Q277 7 251 -4Q281 -11 303.5 -35.5Q326 -60 326 -98Q326 -118 317 -138Q308 -158 290.5 -173.5Q273 -189 246.5 -198.5Q220 -208 185 -208ZM124 76Q124 50 141 36Q158 22 185 22Q212 22 229 36Q246 50 246 76Q246 102 228.5 115.5Q211 129 185 129Q159 129 141.5 115.5Q124 102 124 76ZM185 -153Q222 -153 239 -135.5Q256 -118 256 -93Q256 -67 237 -50.5Q218 -34 185 -34Q152 -34 133 -50.5Q114 -67 114 -93Q114 -118 131 -135.5Q148 -153 185 -153Z" glyph-name="eight.inf" horiz-adv-x="370" unicode="&#58745;" /><glyph d="M310 -12 746 712H821L382 -12ZM406 700V324H335V626Q323 617 302.5 611Q282 605 258 604L245 660Q277 664 303.5 673.5Q330 683 344 700ZM183 700V324H112V626Q100 617 79.5 611Q59 605 35 604L22 660Q54 664 80.5 673.5Q107 683 121 700ZM1079 329Q1056 329 1039.5 318.5Q1023 308 1012.5 290.5Q1002 273 996 250.5Q990 228 989 203Q1000 221 1022.5 235Q1045 249 1083 249Q1116 249 1140 238Q1164 227 1180.5 209Q1197 191 1205 168Q1213 145 1213 121Q1213 95 1204 71.5Q1195 48 1177.5 30.5Q1160 13 1134 2.5Q1108 -8 1074 -8Q1002 -8 963.5 37Q925 82 925 182Q925 282 965 333Q1005 384 1079 384Q1108 384 1130 376.5Q1152 369 1167 356.5Q1182 344 1191.5 328Q1201 312 1205 295L1138 286Q1133 300 1121.5 314.5Q1110 329 1079 329ZM844 376V0H773V302Q761 293 740.5 287Q720 281 696 280L683 336Q715 340 741.5 349.5Q768 359 782 376ZM1073 195Q1039 195 1019.5 174Q1000 153 1000 123Q1000 88 1019.5 67.5Q1039 47 1073 47Q1103 47 1123.5 66.5Q1144 86 1144 121Q1144 153 1124.5 174Q1105 195 1073 195Z" glyph-name="elevensixteenths" horiz-adv-x="1251" unicode="&#61984;" /><glyph d="M612 47Q612 71 627.5 86.5Q643 102 668 102Q693 102 708.5 86.5Q724 71 724 47Q724 24 708.5 8.5Q693 -7 668 -7Q643 -7 627.5 8.5Q612 24 612 47ZM341 47Q341 71 356.5 86.5Q372 102 397 102Q422 102 437.5 86.5Q453 71 453 47Q453 24 437.5 8.5Q422 -7 397 -7Q372 -7 356.5 8.5Q341 24 341 47ZM70 47Q70 71 85.5 86.5Q101 102 126 102Q151 102 166.5 86.5Q182 71 182 47Q182 24 166.5 8.5Q151 -7 126 -7Q101 -7 85.5 8.5Q70 24 70 47Z" glyph-name="ellipsis" horiz-adv-x="794" unicode="&#8230;" /><glyph d="M135 620H394V561H135ZM463 108Q436 54 389.5 21Q343 -12 269 -12Q216 -12 174 6.5Q132 25 103 58.5Q74 92 59 137.5Q44 183 44 237Q44 290 59.5 335.5Q75 381 103.5 414Q132 447 173.5 465.5Q215 484 266 484Q320 484 360 464.5Q400 445 426.5 412.5Q453 380 466 337.5Q479 295 479 249V221H130Q131 188 140 157.5Q149 127 165.5 103.5Q182 80 208 66.5Q234 53 270 53Q319 53 345 75Q371 97 389 138ZM264 419Q207 419 173 380.5Q139 342 133 284H393Q390 347 354.5 383Q319 419 264 419Z" glyph-name="emacron" horiz-adv-x="515" unicode="&#275;" /><glyph d="M135 689H394V630H135ZM90 0V564H435V496H173V324H418V257H173V68H440V0Z" glyph-name="emacron.smcp" horiz-adv-x="489" unicode="&#57922;" /><glyph d="M60 321H810V254H60Z" glyph-name="emdash" horiz-adv-x="870" unicode="&#8212;" /><glyph d="M60 394H810V327H60Z" glyph-name="emdash.cap" horiz-adv-x="870" unicode="&#58502;" /><glyph d="M60 321H440V254H60Z" glyph-name="endash" horiz-adv-x="500" unicode="&#8211;" /><glyph d="M60 394H440V327H60Z" glyph-name="endash.cap" horiz-adv-x="500" unicode="&#58500;" /><glyph d="M392 314Q392 341 383 360Q374 379 359.5 391.5Q345 404 327 409.5Q309 415 291 415Q266 415 243 404Q220 393 202.5 373Q185 353 174.5 323.5Q164 294 164 257V0H80V472H159V401Q184 439 219.5 461.5Q255 484 308 484Q342 484 373 474Q404 464 426.5 444.5Q449 425 462.5 395.5Q476 366 476 327V-63Q476 -104 463 -132.5Q450 -161 429 -179Q408 -197 381.5 -205.5Q355 -214 327 -214Q298 -214 273 -206.5Q248 -199 222 -185L259 -118Q271 -126 286.5 -134Q302 -142 325 -142Q360 -142 376 -118.5Q392 -95 392 -58V314Z" glyph-name="eng" horiz-adv-x="551" unicode="&#331;" /><glyph d="M90 564H178Q241 467 296 383Q320 347 344 309.5Q368 272 390 238.5Q412 205 430 177Q448 149 459 132H461V564H538V-64Q538 -134 503.5 -174Q469 -214 394 -214Q348 -214 319.5 -199Q291 -184 269 -161L322 -107Q341 -128 356 -138Q371 -148 391 -148Q426 -148 441.5 -122Q457 -96 457 -58V-4Q393 94 337 180Q313 217 288 255Q263 293 240.5 327.5Q218 362 199.5 391Q181 420 169 439H167V0H90Z" glyph-name="eng.smcp" horiz-adv-x="628" unicode="&#58155;" /><glyph d="M463 108Q449 80 429.5 56Q410 32 387 18Q369 6 348.5 -8Q328 -22 311 -37.5Q294 -53 282.5 -70Q271 -87 271 -104Q271 -121 281.5 -132Q292 -143 313 -143Q329 -143 342 -135Q355 -127 369 -106L400 -137Q378 -168 353 -181.5Q328 -195 299 -195Q284 -195 267.5 -191Q251 -187 237.5 -177.5Q224 -168 215 -152Q206 -136 206 -112Q206 -78 223 -53.5Q240 -29 266 -12Q213 -12 172 7Q131 26 102.5 59Q74 92 59 137.5Q44 183 44 237Q44 290 59.5 335.5Q75 381 103.5 414Q132 447 173.5 465.5Q215 484 266 484Q320 484 360 464.5Q400 445 426.5 412.5Q453 380 466 337.5Q479 295 479 249V221H130Q131 188 140 157.5Q149 127 165.5 103.5Q182 80 208 66.5Q234 53 270 53Q319 53 345 75Q371 97 389 138ZM264 419Q207 419 173 380.5Q139 342 133 284H393Q390 347 354.5 383Q319 419 264 419Z" glyph-name="eogonek" horiz-adv-x="515" unicode="&#281;" /><glyph d="M295 -104Q295 -121 305.5 -132Q316 -143 337 -143Q353 -143 366 -135Q379 -127 393 -106L424 -137Q402 -168 377 -181.5Q352 -195 323 -195Q308 -195 291.5 -191Q275 -187 261.5 -177.5Q248 -168 239 -152Q230 -136 230 -112Q230 -72 253.5 -47Q277 -22 310 0H90V564H435V496H173V324H418V257H173V68H440V0H394Q338 -31 316.5 -56Q295 -81 295 -104Z" glyph-name="eogonek.smcp" horiz-adv-x="489" unicode="&#57929;" /><glyph d="M54 450H546V382H54ZM54 268H546V200H54Z" glyph-name="equal" horiz-adv-x="600" unicode="=" /><glyph d="M54 485H596V417H54ZM54 303H596V235H54Z" glyph-name="equal.cap" horiz-adv-x="650" unicode="&#58773;" /><glyph d="M50 91H329V29H50ZM50 -32H329V-94H50Z" glyph-name="equal.inf" horiz-adv-x="379" unicode="&#58749;" /><glyph d="M54 558H546V490H54ZM54 358H546V290H54ZM54 158H546V90H54Z" glyph-name="equivalence" horiz-adv-x="600" unicode="&#8801;" /><glyph d="M694 164Q674 122 646.5 89Q619 56 581.5 33Q544 10 496.5 -2Q449 -14 388 -14Q305 -14 241.5 12.5Q178 39 135.5 87Q93 135 71.5 202Q50 269 50 351Q50 441 74.5 508.5Q99 576 143 622Q187 668 249.5 691Q312 714 387 714Q472 714 535 685.5Q598 657 639 608Q680 559 700 492.5Q720 426 720 351V323H167Q170 260 185 208.5Q200 157 227.5 121Q255 85 295.5 65.5Q336 46 389 46Q439 46 476.5 58Q514 70 541.5 90Q569 110 587.5 137Q606 164 617 194ZM388 654Q331 654 291 634Q251 614 225 578Q199 542 185 492.5Q171 443 167 384H602Q598 445 583 494.5Q568 544 542 579.5Q516 615 477.5 634.5Q439 654 388 654Z" glyph-name="estimated" horiz-adv-x="770" unicode="&#8494;" /><glyph d="M170 583 240 626Q195 663 140 684L190 733Q220 722 249.5 705.5Q279 689 306 666L381 712L412 660L352 623Q384 588 410.5 545.5Q437 503 456.5 455Q476 407 487 354Q498 301 498 245Q498 183 481.5 135.5Q465 88 435 55Q405 22 363 5Q321 -12 271 -12Q220 -12 178 5Q136 22 106 54.5Q76 87 60 133Q44 179 44 236Q44 294 61 340Q78 386 107 418Q136 450 175 467Q214 484 258 484Q301 484 332 469.5Q363 455 380 433Q362 474 338.5 511.5Q315 549 286 582L202 530ZM131 236Q131 199 139.5 166Q148 133 165.5 108.5Q183 84 209 69.5Q235 55 270 55Q304 55 330.5 69Q357 83 375 108Q393 133 402 166Q411 199 411 238Q411 324 370.5 370.5Q330 417 269 417Q235 417 209 402.5Q183 388 166 363.5Q149 339 140 306Q131 273 131 236Z" glyph-name="eth" horiz-adv-x="542" unicode="&#240;" /><glyph d="M104 264H35V323H104V564H300Q361 564 409.5 545Q458 526 492 489.5Q526 453 544 400.5Q562 348 562 282Q562 215 544 162.5Q526 110 492 74Q458 38 409.5 19Q361 0 300 0H104ZM187 264V68H290Q338 68 373.5 83.5Q409 99 431.5 127Q454 155 465 194.5Q476 234 476 282Q476 330 465 369.5Q454 409 431.5 437Q409 465 373.5 480.5Q338 496 290 496H187V323H330V264Z" glyph-name="eth.smcp" horiz-adv-x="619" unicode="&#58156;" /><glyph d="M159 186H91L79 700H171ZM70 48Q70 72 85 87Q100 102 125 102Q150 102 165 87Q180 72 180 48Q180 25 165 9Q150 -7 125 -7Q100 -7 85 9Q70 25 70 48Z" glyph-name="exclam" horiz-adv-x="250" unicode="!" /><glyph d="M70 452Q70 475 85 491Q100 507 125 507Q150 507 165 491Q180 475 180 452Q180 428 165 413Q150 398 125 398Q100 398 85 413Q70 428 70 452ZM171 -200H79L91 314H159Z" glyph-name="exclamdown" horiz-adv-x="250" unicode="&#161;" /><glyph d="M70 652Q70 675 85 691Q100 707 125 707Q150 707 165 691Q180 675 180 652Q180 628 165 613Q150 598 125 598Q100 598 85 613Q70 628 70 652ZM171 0H79L91 514H159Z" glyph-name="exclamdown.cap" horiz-adv-x="250" unicode="&#58433;" /><glyph d="M20 472H100V561Q100 603 113.5 632Q127 661 148.5 678.5Q170 696 197.5 704Q225 712 253 712Q286 712 317.5 703.5Q349 695 366 683L329 615Q318 624 300 631.5Q282 639 259 639Q222 639 203 617Q184 595 184 556V472H294V408H184V0H100V408H20Z" glyph-name="f" horiz-adv-x="320" unicode="f" /><glyph d="M90 0V564H436V496H173V324H418V257H173V0Z" glyph-name="f.smcp" horiz-adv-x="481" unicode="&#57862;" /><glyph d="M26 588H77V635Q77 665 86 685Q95 705 109.5 717Q124 729 142.5 734.5Q161 740 180 740Q203 740 224 734.5Q245 729 257 720L230 670Q222 676 211 681Q200 686 186 686Q165 686 153 673Q141 660 141 634V588H210V541H141V288H77V541H26Z" glyph-name="f.superior" horiz-adv-x="234" unicode="&#58214;" /><glyph d="M20 472H100V561Q100 603 111.5 632Q123 661 142.5 678.5Q162 696 187 704Q212 712 238 712Q269 712 299.5 704.5Q330 697 346 686L309 618Q299 626 281.5 632.5Q264 639 246 639Q184 639 184 556V472H289V408H184V0H100V408H20ZM633 484Q680 484 719.5 467Q759 450 788 417.5Q817 385 833.5 339Q850 293 850 236Q850 179 833.5 133Q817 87 788 54.5Q759 22 719.5 5Q680 -12 633 -12Q602 -12 578 -5Q554 2 535 13.5Q516 25 502 40Q488 55 478 71V0H399V700H483V412Q506 441 541.5 462.5Q577 484 633 484ZM483 204Q483 164 496.5 136Q510 108 530.5 90.5Q551 73 576 65Q601 57 624 57Q656 57 682 70.5Q708 84 726 108Q744 132 753.5 165Q763 198 763 236Q763 274 753.5 307Q744 340 726 364Q708 388 682 401.5Q656 415 624 415Q601 415 576 407Q551 399 530.5 381.5Q510 364 496.5 336Q483 308 483 268Z" glyph-name="f_b" horiz-adv-x="894" unicode="&#58241;" /><glyph d="M925 484Q972 484 1011.5 467Q1051 450 1080 417.5Q1109 385 1125.5 339Q1142 293 1142 236Q1142 179 1125.5 133Q1109 87 1080 54.5Q1051 22 1011.5 5Q972 -12 925 -12Q894 -12 870 -5Q846 2 827 13.5Q808 25 794 40Q780 55 770 71V0H691V700H775V412Q798 441 833.5 462.5Q869 484 925 484ZM184 0H100V408H20V472H100V556Q100 598 113 627Q126 656 147.5 673.5Q169 691 196 699Q223 707 251 707Q283 707 314 698.5Q345 690 362 678L325 610Q314 618 296.5 626Q279 634 257 634Q221 634 202.5 612Q184 590 184 551V472H392V561Q392 603 403.5 632Q415 661 434.5 678.5Q454 696 479 704Q504 712 530 712Q561 712 591.5 704.5Q622 697 638 686L601 618Q591 626 573.5 632.5Q556 639 538 639Q476 639 476 556V472H581V408H476V0H392V408H184ZM775 204Q775 164 788.5 136Q802 108 822.5 90.5Q843 73 868 65Q893 57 916 57Q948 57 974 70.5Q1000 84 1018 108Q1036 132 1045.5 165Q1055 198 1055 236Q1055 274 1045.5 307Q1036 340 1018 364Q1000 388 974 401.5Q948 415 916 415Q893 415 868 407Q843 399 822.5 381.5Q802 364 788.5 336Q775 308 775 268Z" glyph-name="f_f_b" horiz-adv-x="1186" unicode="&#58242;" /><glyph d="M691 700H775V407Q797 441 831 462.5Q865 484 919 484Q953 484 983.5 474Q1014 464 1037 444.5Q1060 425 1073.5 395.5Q1087 366 1087 327V0H1003V314Q1003 341 994 360Q985 379 971 391.5Q957 404 938.5 409.5Q920 415 902 415Q877 415 854 404Q831 393 813.5 373Q796 353 785.5 323.5Q775 294 775 257V0H691ZM184 0H100V408H20V472H100V556Q100 598 113 627Q126 656 147.5 673.5Q169 691 196 699Q223 707 251 707Q283 707 314 698.5Q345 690 362 678L325 610Q314 618 296.5 626Q279 634 257 634Q221 634 202.5 612Q184 590 184 551V472H392V561Q392 603 403.5 632Q415 661 434.5 678.5Q454 696 479 704Q504 712 530 712Q561 712 591.5 704.5Q622 697 638 686L601 618Q591 626 573.5 632.5Q556 639 538 639Q476 639 476 556V472H581V408H476V0H392V408H184Z" glyph-name="f_f_h" horiz-adv-x="1162" unicode="&#58243;" /><glyph d="M20 472H100V556Q100 598 113 627Q126 656 147.5 673.5Q169 691 196 699Q223 707 251 707Q283 707 314 698.5Q345 690 362 678L325 610Q314 618 296.5 626Q279 634 257 634Q221 634 202.5 612Q184 590 184 551V472H393V521Q393 573 409 609.5Q425 646 450.5 669Q476 692 508.5 702Q541 712 575 712Q625 712 667.5 691Q710 670 735 632L671 580Q653 605 631.5 622Q610 639 578 639Q530 639 503.5 606Q477 573 477 516V472H758V-61Q758 -102 745 -130.5Q732 -159 711 -177Q690 -195 663.5 -203.5Q637 -212 609 -212Q580 -212 555 -204.5Q530 -197 504 -183L541 -116Q553 -124 568.5 -132Q584 -140 607 -140Q642 -140 658 -116.5Q674 -93 674 -56V408H477V0H393V408H184V0H100V408H20Z" glyph-name="f_f_j" horiz-adv-x="838" unicode="&#57898;" /><glyph d="M830 247 775 196V0H691V700H775V284L978 472H1077L892 300L1109 0H1007ZM184 0H100V408H20V472H100V556Q100 598 113 627Q126 656 147.5 673.5Q169 691 196 699Q223 707 251 707Q283 707 314 698.5Q345 690 362 678L325 610Q314 618 296.5 626Q279 634 257 634Q221 634 202.5 612Q184 590 184 551V472H392V561Q392 603 403.5 632Q415 661 434.5 678.5Q454 696 479 704Q504 712 530 712Q561 712 591.5 704.5Q622 697 638 686L601 618Q591 626 573.5 632.5Q556 639 538 639Q476 639 476 556V472H581V408H476V0H392V408H184Z" glyph-name="f_f_k" horiz-adv-x="1114" unicode="&#58245;" /><glyph d="M400 700H484V407Q506 441 540 462.5Q574 484 628 484Q662 484 692.5 474Q723 464 746 444.5Q769 425 782.5 395.5Q796 366 796 327V0H712V314Q712 341 703 360Q694 379 680 391.5Q666 404 647.5 409.5Q629 415 611 415Q586 415 563 404Q540 393 522.5 373Q505 353 494.5 323.5Q484 294 484 257V0H400ZM20 472H100V561Q100 603 111.5 632Q123 661 142.5 678.5Q162 696 187 704Q212 712 238 712Q269 712 299.5 704.5Q330 697 346 686L309 618Q299 626 281.5 632.5Q264 639 246 639Q184 639 184 556V472H289V408H184V0H100V408H20Z" glyph-name="f_h" horiz-adv-x="871" unicode="&#58246;" /><glyph d="M381 408H184V0H100V408H20V472H100V521Q100 573 116 609.5Q132 646 157.5 669Q183 692 215.5 702Q248 712 282 712Q332 712 374.5 691Q417 670 442 632L378 580Q360 605 338.5 622Q317 639 285 639Q237 639 210.5 606Q184 573 184 516V472H465V0H381Z" glyph-name="f_i" horiz-adv-x="545" unicode="&#62209;" /><glyph d="M184 408V0H100V408H20V472H100V521Q100 573 116 609.5Q132 646 157.5 669Q183 692 215.5 702Q248 712 282 712Q332 712 374.5 691Q417 670 442 632L378 580Q360 605 338.5 622Q317 639 285 639Q237 639 210.5 606Q184 573 184 516V472H465V-61Q465 -102 452 -130.5Q439 -159 418 -177Q397 -195 370.5 -203.5Q344 -212 316 -212Q287 -212 262 -204.5Q237 -197 211 -183L248 -116Q260 -124 275.5 -132Q291 -140 314 -140Q349 -140 365 -116.5Q381 -93 381 -56V408Z" glyph-name="f_j" horiz-adv-x="545" unicode="&#58247;" /><glyph d="M538 247 483 196V0H399V700H483V284L686 472H785L600 300L817 0H715ZM20 472H100V561Q100 603 111.5 632Q123 661 142.5 678.5Q162 696 187 704Q212 712 238 712Q269 712 299.5 704.5Q330 697 346 686L309 618Q299 626 281.5 632.5Q264 639 246 639Q184 639 184 556V472H289V408H184V0H100V408H20Z" glyph-name="f_k" horiz-adv-x="822" unicode="&#58248;" /><glyph d="M184 0H100V408H20V472H100V556Q100 598 113 627Q126 656 147.5 673.5Q169 691 196 699Q223 707 251 707Q283 707 314 698.5Q345 690 362 678L325 610Q314 618 296.5 626Q279 634 257 634Q221 634 202.5 612Q184 590 184 551V472H392V561Q392 603 405.5 632Q419 661 440.5 678.5Q462 696 489.5 704Q517 712 545 712Q578 712 609.5 703.5Q641 695 658 683L621 615Q610 624 592 631.5Q574 639 551 639Q514 639 495 617Q476 595 476 556V472H586V408H476V0H392V408H184Z" glyph-name="ff" horiz-adv-x="612" unicode="&#64256;" /><glyph d="M20 472H100V556Q100 598 113.5 627Q127 656 148.5 673.5Q170 691 197.5 699Q225 707 253 707Q286 707 317.5 698.5Q349 690 366 678L329 610Q316 620 297.5 627Q279 634 259 634Q222 634 203 612Q184 590 184 551V472H393V521Q393 573 409 609.5Q425 646 450.5 669Q476 692 508.5 702Q541 712 575 712Q625 712 667.5 691Q710 670 735 632L671 580Q653 605 631.5 622Q610 639 578 639Q530 639 503.5 606Q477 573 477 516V472H758V0H674V408H477V0H393V408H184V0H100V408H20Z" glyph-name="ffi" horiz-adv-x="838" unicode="&#64259;" /><glyph d="M691 700H775V0H691ZM184 0H100V408H20V472H100V556Q100 598 113 627Q126 656 147.5 673.5Q169 691 196 699Q223 707 251 707Q283 707 314 698.5Q345 690 362 678L325 610Q314 618 296.5 626Q279 634 257 634Q221 634 202.5 612Q184 590 184 551V472H392V561Q392 603 403.5 632Q415 661 434.5 678.5Q454 696 479 704Q504 712 530 712Q561 712 591.5 704.5Q622 697 638 686L601 618Q591 626 573.5 632.5Q556 639 538 639Q476 639 476 556V472H581V408H476V0H392V408H184Z" glyph-name="ffl" horiz-adv-x="855" unicode="&#64260;" /><glyph d="M387 656Q387 681 402.5 696Q418 711 442 711Q466 711 481.5 696Q497 681 497 656Q497 634 481.5 618Q466 602 442 602Q418 602 402.5 618Q387 634 387 656ZM400 472H484V0H400ZM20 472H100V561Q100 603 111.5 632Q123 661 142.5 678.5Q162 696 187 704Q212 712 238 712Q268 712 298 704.5Q328 697 344 686L309 618Q299 626 281.5 632.5Q264 639 246 639Q184 639 184 556V472H289V408H184V0H100V408H20Z" glyph-name="fi" horiz-adv-x="564" unicode="&#64257;" /><glyph d="M376 -12 812 712H887L448 -12ZM183 700V324H112V626Q100 617 79.5 611Q59 605 35 604L22 660Q54 664 80.5 673.5Q107 683 121 700ZM321 430Q323 407 340.5 389.5Q358 372 390 372Q423 372 443 393Q463 414 463 446Q463 475 446.5 496.5Q430 518 395 518Q373 518 356.5 508.5Q340 499 327 482L268 493L291 698H512L502 641H343L330 543Q341 556 359.5 564.5Q378 573 407 573Q439 573 463 562Q487 551 502.5 533Q518 515 526 492.5Q534 470 534 447Q534 420 524 396Q514 372 495.5 354.5Q477 337 450 326.5Q423 316 389 316Q357 316 332.5 325Q308 334 291 348Q274 362 265.5 379Q257 396 256 412ZM1145 329Q1122 329 1105.5 318.5Q1089 308 1078.5 290.5Q1068 273 1062 250.5Q1056 228 1055 203Q1066 221 1088.5 235Q1111 249 1149 249Q1182 249 1206 238Q1230 227 1246.5 209Q1263 191 1271 168Q1279 145 1279 121Q1279 95 1270 71.5Q1261 48 1243.5 30.5Q1226 13 1200 2.5Q1174 -8 1140 -8Q1068 -8 1029.5 37Q991 82 991 182Q991 282 1031 333Q1071 384 1145 384Q1174 384 1196 376.5Q1218 369 1233 356.5Q1248 344 1257.5 328Q1267 312 1271 295L1204 286Q1199 300 1187.5 314.5Q1176 329 1145 329ZM910 376V0H839V302Q827 293 806.5 287Q786 281 762 280L749 336Q781 340 807.5 349.5Q834 359 848 376ZM1139 195Q1105 195 1085.5 174Q1066 153 1066 123Q1066 88 1085.5 67.5Q1105 47 1139 47Q1169 47 1189.5 66.5Q1210 86 1210 121Q1210 153 1190.5 174Q1171 195 1139 195Z" glyph-name="fifteensixteenths" horiz-adv-x="1317" unicode="&#61986;" /><glyph d="M60 321H540V254H60Z" glyph-name="figuredash" horiz-adv-x="600" unicode="&#8210;" /><glyph d="M60 394H540V327H60Z" glyph-name="figuredash.cap" horiz-adv-x="600" unicode="&#58503;" /><glyph d="M158 183Q161 158 170 135Q179 112 195.5 94.5Q212 77 236 66.5Q260 56 292 56Q324 56 351 67.5Q378 79 397.5 100Q417 121 427.5 150.5Q438 180 438 216Q438 246 430.5 275Q423 304 406 327.5Q389 351 362.5 365.5Q336 380 299 380Q252 380 218 358.5Q184 337 169 305L99 316L138 686H491L479 616H202L178 399Q195 416 225.5 432Q256 448 308 448Q362 448 402.5 428Q443 408 470 375Q497 342 510.5 301Q524 260 524 218Q524 172 508 130.5Q492 89 462 57.5Q432 26 388.5 7Q345 -12 290 -12Q234 -12 194.5 6.5Q155 25 129.5 51.5Q104 78 92 108.5Q80 139 80 163Z" glyph-name="five" horiz-adv-x="600" unicode="5" /><glyph d="M130 183Q133 158 142 135Q151 112 167.5 94.5Q184 77 208 66.5Q232 56 264 56Q296 56 323 67.5Q350 79 369.5 100Q389 121 399.5 150.5Q410 180 410 216Q410 246 402.5 275Q395 304 378 327.5Q361 351 334.5 365.5Q308 380 271 380Q224 380 190 358.5Q156 337 141 305L71 316L110 686H463L451 616H174L150 399Q167 416 197.5 432Q228 448 280 448Q334 448 374.5 428Q415 408 442 375Q469 342 482.5 301Q496 260 496 218Q496 172 480 130.5Q464 89 434 57.5Q404 26 360.5 7Q317 -12 262 -12Q206 -12 166.5 6.5Q127 25 101.5 51.5Q76 78 64 108.5Q52 139 52 163Z" glyph-name="five.LP" horiz-adv-x="543" unicode="&#58682;" /><glyph d="M158 183Q161 158 170 135Q179 112 195.5 94.5Q212 77 236 66.5Q260 56 292 56Q324 56 351 67.5Q378 79 397.5 100Q417 121 427.5 150.5Q438 180 438 216Q438 246 430.5 275Q423 304 406 327.5Q389 351 362.5 365.5Q336 380 299 380Q252 380 218 358.5Q184 337 169 305L99 316L138 686H491L479 616H202L178 399Q195 416 225.5 432Q256 448 308 448Q362 448 402.5 428Q443 408 470 375Q497 342 510.5 301Q524 260 524 218Q524 172 508 130.5Q492 89 462 57.5Q432 26 388.5 7Q345 -12 290 -12Q234 -12 194.5 6.5Q155 25 129.5 51.5Q104 78 92 108.5Q80 139 80 163Z" glyph-name="five.LT" horiz-adv-x="600" unicode="&#58693;" /><glyph d="M127 62Q130 36 139 13Q148 -10 164.5 -28Q181 -46 204.5 -56.5Q228 -67 260 -67Q293 -67 319.5 -55.5Q346 -44 365.5 -22.5Q385 -1 395.5 28.5Q406 58 406 94Q406 123 398.5 152Q391 181 374.5 204.5Q358 228 331.5 242.5Q305 257 267 257Q221 257 187 236Q153 215 138 182L68 193L108 564H458L446 495H170L146 275Q163 292 193.5 308Q224 324 276 324Q330 324 370.5 304Q411 284 438 251.5Q465 219 478 178.5Q491 138 491 96Q491 51 475.5 9Q460 -33 430 -64.5Q400 -96 356.5 -115Q313 -134 258 -134Q203 -134 163.5 -115.5Q124 -97 99 -70Q74 -43 62 -12.5Q50 18 50 42Z" glyph-name="five.OP" horiz-adv-x="541" unicode="&#58688;" /><glyph d="M157 62Q160 36 169 13Q178 -10 194.5 -28Q211 -46 234.5 -56.5Q258 -67 290 -67Q323 -67 349.5 -55.5Q376 -44 395.5 -22.5Q415 -1 425.5 28.5Q436 58 436 94Q436 123 428.5 152Q421 181 404.5 204.5Q388 228 361.5 242.5Q335 257 297 257Q251 257 217 236Q183 215 168 182L98 193L138 564H488L476 495H200L176 275Q193 292 223.5 308Q254 324 306 324Q360 324 400.5 304Q441 284 468 251.5Q495 219 508 178.5Q521 138 521 96Q521 51 505.5 9Q490 -33 460 -64.5Q430 -96 386.5 -115Q343 -134 288 -134Q233 -134 193.5 -115.5Q154 -97 129 -70Q104 -43 92 -12.5Q80 18 80 42Z" glyph-name="five.OT" horiz-adv-x="600" unicode="&#58715;" /><glyph d="M109 -94Q111 -117 128.5 -134.5Q146 -152 178 -152Q211 -152 231 -131Q251 -110 251 -78Q251 -49 234.5 -27.5Q218 -6 183 -6Q161 -6 144.5 -15.5Q128 -25 115 -42L56 -31L79 174H300L290 117H131L118 19Q129 32 147.5 40.5Q166 49 195 49Q227 49 251 38Q275 27 290.5 9Q306 -9 314 -31.5Q322 -54 322 -77Q322 -104 312 -128Q302 -152 283.5 -169.5Q265 -187 238 -197.5Q211 -208 177 -208Q145 -208 120.5 -199Q96 -190 79 -176Q62 -162 53.5 -145Q45 -128 44 -112Z" glyph-name="five.inf" horiz-adv-x="362" unicode="&#58742;" /><glyph d="M164 -12 600 712H675L236 -12ZM109 430Q111 407 128.5 389.5Q146 372 178 372Q211 372 231 393Q251 414 251 446Q251 475 234.5 496.5Q218 518 183 518Q161 518 144.5 508.5Q128 499 115 482L56 493L79 698H300L290 641H131L118 543Q129 556 147.5 564.5Q166 573 195 573Q227 573 251 562Q275 551 290.5 533Q306 515 314 492.5Q322 470 322 447Q322 420 312 396Q302 372 283.5 354.5Q265 337 238 326.5Q211 316 177 316Q145 316 120.5 325Q96 334 79 348Q62 362 53.5 379Q45 396 44 412ZM933 329Q910 329 893.5 318.5Q877 308 866.5 290.5Q856 273 850 250.5Q844 228 843 203Q854 221 876.5 235Q899 249 937 249Q970 249 994 238Q1018 227 1034.5 209Q1051 191 1059 168Q1067 145 1067 121Q1067 95 1058 71.5Q1049 48 1031.5 30.5Q1014 13 988 2.5Q962 -8 928 -8Q856 -8 817.5 37Q779 82 779 182Q779 282 819 333Q859 384 933 384Q962 384 984 376.5Q1006 369 1021 356.5Q1036 344 1045.5 328Q1055 312 1059 295L992 286Q987 300 975.5 314.5Q964 329 933 329ZM698 376V0H627V302Q615 293 594.5 287Q574 281 550 280L537 336Q569 340 595.5 349.5Q622 359 636 376ZM927 195Q893 195 873.5 174Q854 153 854 123Q854 88 873.5 67.5Q893 47 927 47Q957 47 977.5 66.5Q998 86 998 121Q998 153 978.5 174Q959 195 927 195Z" glyph-name="fivesixteenths" horiz-adv-x="1105" unicode="&#61975;" /><glyph d="M486 -61Q486 -102 473 -130.5Q460 -159 439 -177Q418 -195 391.5 -203.5Q365 -212 337 -212Q308 -212 283 -204.5Q258 -197 232 -183L269 -116Q281 -124 296.5 -132Q312 -140 335 -140Q370 -140 386 -116.5Q402 -93 402 -56V472H486ZM389 656Q389 681 404.5 696Q420 711 444 711Q468 711 483.5 696Q499 681 499 656Q499 634 483.5 618Q468 602 444 602Q420 602 404.5 618Q389 634 389 656ZM20 472H100V561Q100 603 111.5 632Q123 661 142.5 678.5Q162 696 187 704Q212 712 238 712Q268 712 298 704.5Q328 697 344 686L309 618Q299 626 281.5 632.5Q264 639 246 639Q184 639 184 556V472H289V408H184V0H100V408H20Z" glyph-name="fj" horiz-adv-x="566" /><glyph d="M399 700H483V0H399ZM20 472H100V561Q100 603 111.5 632Q123 661 142.5 678.5Q162 696 187 704Q212 712 238 712Q269 712 299.5 704.5Q330 697 346 686L309 618Q299 626 281.5 632.5Q264 639 246 639Q184 639 184 556V472H289V408H184V0H100V408H20Z" glyph-name="fl" horiz-adv-x="563" unicode="&#64258;" /><glyph d="M128 416H217L232 561Q236 603 251 632Q266 661 287 678.5Q308 696 334 704Q360 712 387 712Q416 712 443.5 703.5Q471 695 487 683L443 615Q433 624 418.5 631.5Q404 639 384 639Q352 639 334.5 616.5Q317 594 313 556L298 416H407V354H292L255 1Q250 -41 235 -70Q220 -99 198.5 -117Q177 -135 151.5 -142.5Q126 -150 100 -150Q71 -150 43 -141.5Q15 -133 0 -121L44 -53Q54 -62 68.5 -69.5Q83 -77 102 -77Q132 -77 150.5 -56.5Q169 -36 173 0L210 354H128Z" glyph-name="florin" horiz-adv-x="500" unicode="&#402;" /><glyph d="M448 686V231H557L545 165H448V0H368V165H49V229L339 686ZM368 231V611H366L128 231Z" glyph-name="four" horiz-adv-x="600" unicode="4" /><glyph d="M425 686V231H534L522 165H425V0H345V165H26V229L316 686ZM345 231V611H343L105 231Z" glyph-name="four.LP" horiz-adv-x="554" unicode="&#58681;" /><glyph d="M448 686V231H557L545 165H448V0H368V165H49V229L339 686ZM368 231V611H366L128 231Z" glyph-name="four.LT" horiz-adv-x="600" unicode="&#58692;" /><glyph d="M423 564V108H534L522 44H423V-122H345V44H27V107L317 564ZM345 108V489H343L105 108Z" glyph-name="four.OP" horiz-adv-x="550" unicode="&#58703;" /><glyph d="M448 564V108H559L547 44H448V-122H370V44H52V107L342 564ZM370 108V489H368L130 108Z" glyph-name="four.OT" horiz-adv-x="600" unicode="&#58714;" /><glyph d="M30 -66 193 174H278V-65H341L331 -119H278V-200H211V-119H30ZM211 -65V108H210L92 -65Z" glyph-name="four.inf" horiz-adv-x="369" unicode="&#58741;" /><glyph d="M-130 -12 306 712H381L-58 -12Z" glyph-name="fraction" horiz-adv-x="251" unicode="&#8260;" /><glyph d="M497 423Q490 431 478.5 434Q467 437 456 437Q440 437 428 432Q416 427 411 422Q431 402 441 373Q451 344 451 315Q451 275 435.5 243.5Q420 212 393 190.5Q366 169 331 158Q296 147 257 147Q228 147 208 151.5Q188 156 179 156Q174 156 166.5 154Q159 152 151.5 147Q144 142 139 133.5Q134 125 134 113Q134 100 141.5 92.5Q149 85 166.5 80.5Q184 76 212.5 73Q241 70 283 67Q333 64 371.5 57Q410 50 436.5 36.5Q463 23 476.5 1.5Q490 -20 490 -54Q490 -97 471.5 -127Q453 -157 420.5 -176Q388 -195 345 -203.5Q302 -212 253 -212Q206 -212 167 -204.5Q128 -197 99 -181.5Q70 -166 54 -141.5Q38 -117 38 -83Q38 -43 60 -13Q82 17 106 27Q80 38 68 57.5Q56 77 56 99Q56 127 73 150.5Q90 174 121 188Q98 206 80.5 236.5Q63 267 63 312Q63 354 79 386Q95 418 122 439.5Q149 461 183.5 472.5Q218 484 255 484Q287 484 315.5 477Q344 470 365 459Q381 473 404.5 483.5Q428 494 463 494Q491 494 512 486ZM146 314Q146 260 178.5 232Q211 204 257 204Q303 204 335.5 232Q368 260 368 314Q368 368 335.5 397Q303 426 257 426Q211 426 178.5 397Q146 368 146 314ZM261 -3Q222 -1 200.5 1Q179 3 160 8Q139 -1 126.5 -22.5Q114 -44 114 -73Q114 -117 154 -136Q194 -155 254 -155Q288 -155 317 -149.5Q346 -144 367 -133Q388 -122 400 -104.5Q412 -87 412 -64Q412 -47 404.5 -36.5Q397 -26 379 -19Q361 -12 332 -8.5Q303 -5 261 -3Z" glyph-name="g" horiz-adv-x="522" unicode="g" /><glyph d="M411 80Q388 51 352.5 29.5Q317 8 261 8Q214 8 174.5 24.5Q135 41 106 72Q77 103 60.5 147Q44 191 44 246Q44 301 60.5 345Q77 389 106 420Q135 451 174.5 467.5Q214 484 261 484Q292 484 316 477Q340 470 359 458.5Q378 447 392 432Q406 417 416 401V472H495V35Q495 -84 440.5 -148Q386 -212 268 -212Q190 -212 138.5 -183.5Q87 -155 60 -89L138 -59Q150 -94 179.5 -119.5Q209 -145 269 -145Q308 -145 335.5 -132Q363 -119 379.5 -95.5Q396 -72 403.5 -39.5Q411 -7 411 32ZM411 267Q411 309 397 337.5Q383 366 362 383.5Q341 401 316 408Q291 415 270 415Q238 415 212 402Q186 389 168 366.5Q150 344 140.5 313Q131 282 131 246Q131 210 140.5 179Q150 148 168 125.5Q186 103 212 90Q238 77 270 77Q291 77 316 84Q341 91 362 108Q383 125 397 153.5Q411 182 411 224Z" glyph-name="g.school" horiz-adv-x="575" unicode="&#57697;" /><glyph d="M301 286H540V0H465V60Q456 47 443 34.5Q430 22 411 11.5Q392 1 367 -5.5Q342 -12 309 -12Q248 -12 201 10.5Q154 33 122 73Q90 113 73.5 166.5Q57 220 57 282Q57 346 75 400Q93 454 127.5 493Q162 532 211 553.5Q260 575 322 575Q400 575 456.5 537Q513 499 543 430L466 400Q447 448 411 477.5Q375 507 318 507Q240 507 191.5 449Q143 391 143 277Q143 170 188 113Q233 56 317 56Q346 56 372 64Q398 72 417.5 87.5Q437 103 448.5 127Q460 151 460 184V221H301Z" glyph-name="g.smcp" horiz-adv-x="620" unicode="&#57863;" /><glyph d="M328 553Q323 558 316.5 559.5Q310 561 304 561Q285 561 278 552Q289 541 295 523.5Q301 506 301 487Q301 461 290.5 441.5Q280 422 263 408.5Q246 395 223 388Q200 381 175 381Q156 381 144.5 383.5Q133 386 127 386Q120 386 110 380.5Q100 375 100 361Q100 345 122.5 341Q145 337 196 334Q225 332 249 328Q273 324 290 315Q307 306 316.5 291Q326 276 326 253Q326 226 313.5 207Q301 188 280 176Q259 164 231 158.5Q203 153 171 153Q110 153 70.5 172.5Q31 192 31 236Q31 260 44 278.5Q57 297 74 304Q57 312 49.5 325Q42 338 42 352Q42 370 53 385Q64 400 84 408Q68 421 57.5 440.5Q47 460 47 486Q47 513 57.5 533.5Q68 554 85.5 568Q103 582 125.5 589Q148 596 172 596Q192 596 210 591.5Q228 587 242 581Q253 590 268 596.5Q283 603 305 603Q316 603 324 601Q332 599 339 597ZM110 488Q110 456 128.5 439.5Q147 423 175 423Q202 423 220.5 439.5Q239 456 239 488Q239 520 220.5 537Q202 554 175 554Q147 554 128.5 537Q110 520 110 488ZM180 283Q156 285 140.5 286.5Q125 288 113 290Q100 285 93.5 271.5Q87 258 87 243Q87 217 111 206Q135 195 173 195Q213 195 240 207.5Q267 220 267 247Q267 267 247.5 274Q228 281 180 283Z" glyph-name="g.superior" horiz-adv-x="353" unicode="&#58215;" /><glyph d="M267 339Q253 321 229.5 307Q206 293 171 293Q142 293 117 303.5Q92 314 73.5 333.5Q55 353 44.5 381Q34 409 34 444Q34 479 44.5 507.5Q55 536 73.5 555.5Q92 575 117 585.5Q142 596 172 596Q210 596 233.5 581Q257 566 270 544V588H331V310Q331 234 294 193.5Q257 153 179 153Q78 153 45 231L104 253Q112 232 129 217.5Q146 203 181 203Q205 203 221.5 211.5Q238 220 248 234Q258 248 262.5 267.5Q267 287 267 309ZM267 455Q267 480 258.5 497.5Q250 515 237.5 525.5Q225 536 210.5 540.5Q196 545 183 545Q145 545 122.5 516Q100 487 100 444Q100 401 122 372.5Q144 344 182 344Q195 344 210 348.5Q225 353 237.5 363Q250 373 258.5 390Q267 407 267 433Z" glyph-name="g.superiorschool" horiz-adv-x="387" /><glyph d="M170 673Q175 642 198.5 620Q222 598 257 598Q292 598 315.5 620Q339 642 344 673L409 653Q398 604 357.5 573Q317 542 257 542Q197 542 156.5 573Q116 604 105 653ZM497 423Q490 431 478.5 434Q467 437 456 437Q440 437 428 432Q416 427 411 422Q431 402 441 373Q451 344 451 315Q451 275 435.5 243.5Q420 212 393 190.5Q366 169 331 158Q296 147 257 147Q228 147 208 151.5Q188 156 179 156Q174 156 166.5 154Q159 152 151.5 147Q144 142 139 133.5Q134 125 134 113Q134 100 141.5 92.5Q149 85 166.5 80.5Q184 76 212.5 73Q241 70 283 67Q333 64 371.5 57Q410 50 436.5 36.5Q463 23 476.5 1.5Q490 -20 490 -54Q490 -97 471.5 -127Q453 -157 420.5 -176Q388 -195 345 -203.5Q302 -212 253 -212Q206 -212 167 -204.5Q128 -197 99 -181.5Q70 -166 54 -141.5Q38 -117 38 -83Q38 -43 60 -13Q82 17 106 27Q80 38 68 57.5Q56 77 56 99Q56 127 73 150.5Q90 174 121 188Q98 206 80.5 236.5Q63 267 63 312Q63 354 79 386Q95 418 122 439.5Q149 461 183.5 472.5Q218 484 255 484Q287 484 315.5 477Q344 470 365 459Q381 473 404.5 483.5Q428 494 463 494Q491 494 512 486ZM146 314Q146 260 178.5 232Q211 204 257 204Q303 204 335.5 232Q368 260 368 314Q368 368 335.5 397Q303 426 257 426Q211 426 178.5 397Q146 368 146 314ZM261 -3Q222 -1 200.5 1Q179 3 160 8Q139 -1 126.5 -22.5Q114 -44 114 -73Q114 -117 154 -136Q194 -155 254 -155Q288 -155 317 -149.5Q346 -144 367 -133Q388 -122 400 -104.5Q412 -87 412 -64Q412 -47 404.5 -36.5Q397 -26 379 -19Q361 -12 332 -8.5Q303 -5 261 -3Z" glyph-name="gbreve" horiz-adv-x="522" unicode="&#287;" /><glyph d="M183 673Q188 642 211.5 620Q235 598 270 598Q305 598 328.5 620Q352 642 357 673L422 653Q411 604 370.5 573Q330 542 270 542Q210 542 169.5 573Q129 604 118 653ZM411 80Q388 51 352.5 29.5Q317 8 261 8Q214 8 174.5 24.5Q135 41 106 72Q77 103 60.5 147Q44 191 44 246Q44 301 60.5 345Q77 389 106 420Q135 451 174.5 467.5Q214 484 261 484Q292 484 316 477Q340 470 359 458.5Q378 447 392 432Q406 417 416 401V472H495V35Q495 -84 440.5 -148Q386 -212 268 -212Q190 -212 138.5 -183.5Q87 -155 60 -89L138 -59Q150 -94 179.5 -119.5Q209 -145 269 -145Q308 -145 335.5 -132Q363 -119 379.5 -95.5Q396 -72 403.5 -39.5Q411 -7 411 32ZM411 267Q411 309 397 337.5Q383 366 362 383.5Q341 401 316 408Q291 415 270 415Q238 415 212 402Q186 389 168 366.5Q150 344 140.5 313Q131 282 131 246Q131 210 140.5 179Q150 148 168 125.5Q186 103 212 90Q238 77 270 77Q291 77 316 84Q341 91 362 108Q383 125 397 153.5Q411 182 411 224Z" glyph-name="gbreve.school" horiz-adv-x="575" unicode="&#57702;" /><glyph d="M230 749Q235 718 258.5 696Q282 674 317 674Q352 674 375.5 696Q399 718 404 749L469 729Q458 680 417.5 649Q377 618 317 618Q257 618 216.5 649Q176 680 165 729ZM301 286H540V0H465V60Q456 47 443 34.5Q430 22 411 11.5Q392 1 367 -5.5Q342 -12 309 -12Q248 -12 201 10.5Q154 33 122 73Q90 113 73.5 166.5Q57 220 57 282Q57 346 75 400Q93 454 127.5 493Q162 532 211 553.5Q260 575 322 575Q400 575 456.5 537Q513 499 543 430L466 400Q447 448 411 477.5Q375 507 318 507Q240 507 191.5 449Q143 391 143 277Q143 170 188 113Q233 56 317 56Q346 56 372 64Q398 72 417.5 87.5Q437 103 448.5 127Q460 151 460 184V221H301Z" glyph-name="gbreve.smcp" horiz-adv-x="620" unicode="&#57934;" /><glyph d="M231 694H286L398 565L356 528L258 635L159 528L118 565ZM497 423Q490 431 478.5 434Q467 437 456 437Q440 437 428 432Q416 427 411 422Q431 402 441 373Q451 344 451 315Q451 275 435.5 243.5Q420 212 393 190.5Q366 169 331 158Q296 147 257 147Q228 147 208 151.5Q188 156 179 156Q174 156 166.5 154Q159 152 151.5 147Q144 142 139 133.5Q134 125 134 113Q134 100 141.5 92.5Q149 85 166.5 80.5Q184 76 212.5 73Q241 70 283 67Q333 64 371.5 57Q410 50 436.5 36.5Q463 23 476.5 1.5Q490 -20 490 -54Q490 -97 471.5 -127Q453 -157 420.5 -176Q388 -195 345 -203.5Q302 -212 253 -212Q206 -212 167 -204.5Q128 -197 99 -181.5Q70 -166 54 -141.5Q38 -117 38 -83Q38 -43 60 -13Q82 17 106 27Q80 38 68 57.5Q56 77 56 99Q56 127 73 150.5Q90 174 121 188Q98 206 80.5 236.5Q63 267 63 312Q63 354 79 386Q95 418 122 439.5Q149 461 183.5 472.5Q218 484 255 484Q287 484 315.5 477Q344 470 365 459Q381 473 404.5 483.5Q428 494 463 494Q491 494 512 486ZM146 314Q146 260 178.5 232Q211 204 257 204Q303 204 335.5 232Q368 260 368 314Q368 368 335.5 397Q303 426 257 426Q211 426 178.5 397Q146 368 146 314ZM261 -3Q222 -1 200.5 1Q179 3 160 8Q139 -1 126.5 -22.5Q114 -44 114 -73Q114 -117 154 -136Q194 -155 254 -155Q288 -155 317 -149.5Q346 -144 367 -133Q388 -122 400 -104.5Q412 -87 412 -64Q412 -47 404.5 -36.5Q397 -26 379 -19Q361 -12 332 -8.5Q303 -5 261 -3Z" glyph-name="gcircumflex" horiz-adv-x="522" unicode="&#285;" /><glyph d="M243 694H298L410 565L368 528L270 635L171 528L130 565ZM411 80Q388 51 352.5 29.5Q317 8 261 8Q214 8 174.5 24.5Q135 41 106 72Q77 103 60.5 147Q44 191 44 246Q44 301 60.5 345Q77 389 106 420Q135 451 174.5 467.5Q214 484 261 484Q292 484 316 477Q340 470 359 458.5Q378 447 392 432Q406 417 416 401V472H495V35Q495 -84 440.5 -148Q386 -212 268 -212Q190 -212 138.5 -183.5Q87 -155 60 -89L138 -59Q150 -94 179.5 -119.5Q209 -145 269 -145Q308 -145 335.5 -132Q363 -119 379.5 -95.5Q396 -72 403.5 -39.5Q411 -7 411 32ZM411 267Q411 309 397 337.5Q383 366 362 383.5Q341 401 316 408Q291 415 270 415Q238 415 212 402Q186 389 168 366.5Q150 344 140.5 313Q131 282 131 246Q131 210 140.5 179Q150 148 168 125.5Q186 103 212 90Q238 77 270 77Q291 77 316 84Q341 91 362 108Q383 125 397 153.5Q411 182 411 224Z" glyph-name="gcircumflex.school" horiz-adv-x="575" unicode="&#57699;" /><glyph d="M290 774H345L457 645L415 608L317 715L218 608L177 645ZM301 286H540V0H465V60Q456 47 443 34.5Q430 22 411 11.5Q392 1 367 -5.5Q342 -12 309 -12Q248 -12 201 10.5Q154 33 122 73Q90 113 73.5 166.5Q57 220 57 282Q57 346 75 400Q93 454 127.5 493Q162 532 211 553.5Q260 575 322 575Q400 575 456.5 537Q513 499 543 430L466 400Q447 448 411 477.5Q375 507 318 507Q240 507 191.5 449Q143 391 143 277Q143 170 188 113Q233 56 317 56Q346 56 372 64Q398 72 417.5 87.5Q437 103 448.5 127Q460 151 460 184V221H301Z" glyph-name="gcircumflex.smcp" horiz-adv-x="620" unicode="&#57931;" /><glyph d="M207 603Q207 615 210.5 631Q214 647 223 662Q232 677 248 688.5Q264 700 290 704L303 671Q287 671 272 658.5Q257 646 257 629V626H259Q260 626 262 626.5Q264 627 266 627Q283 627 297 614Q311 601 311 581Q311 564 299 548.5Q287 533 262 533Q233 533 220 554Q207 575 207 603ZM497 423Q490 431 478.5 434Q467 437 456 437Q440 437 428 432Q416 427 411 422Q431 402 441 373Q451 344 451 315Q451 275 435.5 243.5Q420 212 393 190.5Q366 169 331 158Q296 147 257 147Q228 147 208 151.5Q188 156 179 156Q174 156 166.5 154Q159 152 151.5 147Q144 142 139 133.5Q134 125 134 113Q134 100 141.5 92.5Q149 85 166.5 80.5Q184 76 212.5 73Q241 70 283 67Q333 64 371.5 57Q410 50 436.5 36.5Q463 23 476.5 1.5Q490 -20 490 -54Q490 -97 471.5 -127Q453 -157 420.5 -176Q388 -195 345 -203.5Q302 -212 253 -212Q206 -212 167 -204.5Q128 -197 99 -181.5Q70 -166 54 -141.5Q38 -117 38 -83Q38 -43 60 -13Q82 17 106 27Q80 38 68 57.5Q56 77 56 99Q56 127 73 150.5Q90 174 121 188Q98 206 80.5 236.5Q63 267 63 312Q63 354 79 386Q95 418 122 439.5Q149 461 183.5 472.5Q218 484 255 484Q287 484 315.5 477Q344 470 365 459Q381 473 404.5 483.5Q428 494 463 494Q491 494 512 486ZM146 314Q146 260 178.5 232Q211 204 257 204Q303 204 335.5 232Q368 260 368 314Q368 368 335.5 397Q303 426 257 426Q211 426 178.5 397Q146 368 146 314ZM261 -3Q222 -1 200.5 1Q179 3 160 8Q139 -1 126.5 -22.5Q114 -44 114 -73Q114 -117 154 -136Q194 -155 254 -155Q288 -155 317 -149.5Q346 -144 367 -133Q388 -122 400 -104.5Q412 -87 412 -64Q412 -47 404.5 -36.5Q397 -26 379 -19Q361 -12 332 -8.5Q303 -5 261 -3Z" glyph-name="gcommaaccent" horiz-adv-x="522" unicode="&#291;" /><glyph d="M220 603Q220 615 223.5 631Q227 647 236 662Q245 677 261 688.5Q277 700 303 704L316 671Q300 671 285 658.5Q270 646 270 629V626H272Q273 626 275 626.5Q277 627 279 627Q296 627 310 614Q324 601 324 581Q324 564 312 548.5Q300 533 275 533Q246 533 233 554Q220 575 220 603ZM411 80Q388 51 352.5 29.5Q317 8 261 8Q214 8 174.5 24.5Q135 41 106 72Q77 103 60.5 147Q44 191 44 246Q44 301 60.5 345Q77 389 106 420Q135 451 174.5 467.5Q214 484 261 484Q292 484 316 477Q340 470 359 458.5Q378 447 392 432Q406 417 416 401V472H495V35Q495 -84 440.5 -148Q386 -212 268 -212Q190 -212 138.5 -183.5Q87 -155 60 -89L138 -59Q150 -94 179.5 -119.5Q209 -145 269 -145Q308 -145 335.5 -132Q363 -119 379.5 -95.5Q396 -72 403.5 -39.5Q411 -7 411 32ZM411 267Q411 309 397 337.5Q383 366 362 383.5Q341 401 316 408Q291 415 270 415Q238 415 212 402Q186 389 168 366.5Q150 344 140.5 313Q131 282 131 246Q131 210 140.5 179Q150 148 168 125.5Q186 103 212 90Q238 77 270 77Q291 77 316 84Q341 91 362 108Q383 125 397 153.5Q411 182 411 224Z" glyph-name="gcommaaccent.school" horiz-adv-x="575" unicode="&#57704;" /><glyph d="M301 286H540V0H465V60Q456 47 443 34.5Q430 22 411 11.5Q392 1 367 -5.5Q342 -12 309 -12Q248 -12 201 10.5Q154 33 122 73Q90 113 73.5 166.5Q57 220 57 282Q57 346 75 400Q93 454 127.5 493Q162 532 211 553.5Q260 575 322 575Q400 575 456.5 537Q513 499 543 430L466 400Q447 448 411 477.5Q375 507 318 507Q240 507 191.5 449Q143 391 143 277Q143 170 188 113Q233 56 317 56Q346 56 372 64Q398 72 417.5 87.5Q437 103 448.5 127Q460 151 460 184V221H301ZM362 -123Q362 -135 358.5 -151Q355 -167 346 -182Q337 -197 321 -208.5Q305 -220 279 -224L266 -191Q282 -191 297 -178.5Q312 -166 312 -149V-146Q311 -147 310 -147H303Q286 -147 272 -134Q258 -121 258 -101Q258 -84 270 -68.5Q282 -53 307 -53Q336 -53 349 -74Q362 -95 362 -123Z" glyph-name="gcommaaccent.smcp" horiz-adv-x="620" unicode="&#57920;" /><glyph d="M202 603Q202 628 217.5 643Q233 658 257 658Q281 658 296.5 643Q312 628 312 603Q312 581 296.5 565Q281 549 257 549Q233 549 217.5 565Q202 581 202 603ZM497 423Q490 431 478.5 434Q467 437 456 437Q440 437 428 432Q416 427 411 422Q431 402 441 373Q451 344 451 315Q451 275 435.5 243.5Q420 212 393 190.5Q366 169 331 158Q296 147 257 147Q228 147 208 151.5Q188 156 179 156Q174 156 166.5 154Q159 152 151.5 147Q144 142 139 133.5Q134 125 134 113Q134 100 141.5 92.5Q149 85 166.5 80.5Q184 76 212.5 73Q241 70 283 67Q333 64 371.5 57Q410 50 436.5 36.5Q463 23 476.5 1.5Q490 -20 490 -54Q490 -97 471.5 -127Q453 -157 420.5 -176Q388 -195 345 -203.5Q302 -212 253 -212Q206 -212 167 -204.5Q128 -197 99 -181.5Q70 -166 54 -141.5Q38 -117 38 -83Q38 -43 60 -13Q82 17 106 27Q80 38 68 57.5Q56 77 56 99Q56 127 73 150.5Q90 174 121 188Q98 206 80.5 236.5Q63 267 63 312Q63 354 79 386Q95 418 122 439.5Q149 461 183.5 472.5Q218 484 255 484Q287 484 315.5 477Q344 470 365 459Q381 473 404.5 483.5Q428 494 463 494Q491 494 512 486ZM146 314Q146 260 178.5 232Q211 204 257 204Q303 204 335.5 232Q368 260 368 314Q368 368 335.5 397Q303 426 257 426Q211 426 178.5 397Q146 368 146 314ZM261 -3Q222 -1 200.5 1Q179 3 160 8Q139 -1 126.5 -22.5Q114 -44 114 -73Q114 -117 154 -136Q194 -155 254 -155Q288 -155 317 -149.5Q346 -144 367 -133Q388 -122 400 -104.5Q412 -87 412 -64Q412 -47 404.5 -36.5Q397 -26 379 -19Q361 -12 332 -8.5Q303 -5 261 -3Z" glyph-name="gdotaccent" horiz-adv-x="522" unicode="&#289;" /><glyph d="M215 603Q215 628 230.5 643Q246 658 270 658Q294 658 309.5 643Q325 628 325 603Q325 581 309.5 565Q294 549 270 549Q246 549 230.5 565Q215 581 215 603ZM411 80Q388 51 352.5 29.5Q317 8 261 8Q214 8 174.5 24.5Q135 41 106 72Q77 103 60.5 147Q44 191 44 246Q44 301 60.5 345Q77 389 106 420Q135 451 174.5 467.5Q214 484 261 484Q292 484 316 477Q340 470 359 458.5Q378 447 392 432Q406 417 416 401V472H495V35Q495 -84 440.5 -148Q386 -212 268 -212Q190 -212 138.5 -183.5Q87 -155 60 -89L138 -59Q150 -94 179.5 -119.5Q209 -145 269 -145Q308 -145 335.5 -132Q363 -119 379.5 -95.5Q396 -72 403.5 -39.5Q411 -7 411 32ZM411 267Q411 309 397 337.5Q383 366 362 383.5Q341 401 316 408Q291 415 270 415Q238 415 212 402Q186 389 168 366.5Q150 344 140.5 313Q131 282 131 246Q131 210 140.5 179Q150 148 168 125.5Q186 103 212 90Q238 77 270 77Q291 77 316 84Q341 91 362 108Q383 125 397 153.5Q411 182 411 224Z" glyph-name="gdotaccent.school" horiz-adv-x="575" unicode="&#57703;" /><glyph d="M264 676Q264 701 279.5 716Q295 731 319 731Q343 731 358.5 716Q374 701 374 676Q374 654 358.5 638Q343 622 319 622Q295 622 279.5 638Q264 654 264 676ZM301 286H540V0H465V60Q456 47 443 34.5Q430 22 411 11.5Q392 1 367 -5.5Q342 -12 309 -12Q248 -12 201 10.5Q154 33 122 73Q90 113 73.5 166.5Q57 220 57 282Q57 346 75 400Q93 454 127.5 493Q162 532 211 553.5Q260 575 322 575Q400 575 456.5 537Q513 499 543 430L466 400Q447 448 411 477.5Q375 507 318 507Q240 507 191.5 449Q143 391 143 277Q143 170 188 113Q233 56 317 56Q346 56 372 64Q398 72 417.5 87.5Q437 103 448.5 127Q460 151 460 184V221H301Z" glyph-name="gdotaccent.smcp" horiz-adv-x="620" unicode="&#57935;" /><glyph d="M80 487Q80 530 90.5 570.5Q101 611 124 642.5Q147 674 185 693Q223 712 279 712Q327 712 364 697Q401 682 426 657Q451 632 464 598.5Q477 565 477 529Q477 473 449.5 434Q422 395 375 376Q406 369 431.5 352Q457 335 474.5 311Q492 287 501.5 257Q511 227 511 195Q511 148 495.5 110Q480 72 452.5 45Q425 18 387.5 3Q350 -12 306 -12Q282 -12 260.5 -8Q239 -4 222 3V73Q237 65 260.5 60.5Q284 56 304 56Q362 56 393.5 94.5Q425 133 425 196Q425 226 415 252.5Q405 279 385.5 298.5Q366 318 337 329.5Q308 341 270 341Q265 341 260.5 340.5Q256 340 252 340H243V404Q248 403 252 403H269Q299 403 322.5 413Q346 423 361.5 440Q377 457 385 480Q393 503 393 530Q393 587 360.5 616Q328 645 280 645Q248 645 226 632.5Q204 620 190.5 599Q177 578 170.5 549Q164 520 164 487V0H80Z" glyph-name="germandbls" horiz-adv-x="555" unicode="&#223;" /><glyph d="M199 639 240 700 406 576 377 532Z" glyph-name="grave" horiz-adv-x="600" unicode="`" /><glyph d="M199 855 240 916 406 792 377 748Z" glyph-name="grave.cap" horiz-adv-x="600" unicode="&#58401;" /><glyph d="M550 358V290L59 58V141L460 323L59 505V588Z" glyph-name="greater" horiz-adv-x="600" unicode="&gt;" /><glyph d="M550 386V318L59 86V169L460 351L59 533V616Z" glyph-name="greater.cap" horiz-adv-x="600" unicode="&#58775;" /><glyph d="M545 409V341L54 121V202L455 374L54 546V627ZM54 68H546V0H54Z" glyph-name="greaterequal" horiz-adv-x="600" unicode="&#8805;" /><glyph d="M231 256 400 468 450 430 321 256 450 83 400 45ZM35 256 204 468 254 430 126 256 254 83 204 45Z" glyph-name="guillemotleft" horiz-adv-x="490" unicode="&#171;" /><glyph d="M231 326 400 538 450 500 321 326 450 153 400 115ZM35 326 204 538 254 500 126 326 254 153 204 115Z" glyph-name="guillemotleft.cap" horiz-adv-x="490" unicode="&#58451;" /><glyph d="M455 256 286 45 236 83 364 256 236 430 286 468ZM259 256 90 45 40 83 169 256 40 430 90 468Z" glyph-name="guillemotright" horiz-adv-x="490" unicode="&#187;" /><glyph d="M455 326 286 115 236 153 364 326 236 500 286 538ZM259 326 90 115 40 153 169 326 40 500 90 538Z" glyph-name="guillemotright.cap" horiz-adv-x="490" unicode="&#58452;" /><glyph d="M35 256 204 468 254 430 126 256 254 83 204 45Z" glyph-name="guilsinglleft" horiz-adv-x="294" unicode="&#8249;" /><glyph d="M35 326 204 538 254 500 126 326 254 153 204 115Z" glyph-name="guilsinglleft.cap" horiz-adv-x="294" unicode="&#58449;" /><glyph d="M259 256 90 45 40 83 168 256 40 430 90 468Z" glyph-name="guilsinglright" horiz-adv-x="294" unicode="&#8250;" /><glyph d="M259 326 90 115 40 153 168 326 40 500 90 538Z" glyph-name="guilsinglright.cap" horiz-adv-x="294" unicode="&#58450;" /><glyph d="M80 700H164V407Q186 441 220 462.5Q254 484 308 484Q342 484 372.5 474Q403 464 426 444.5Q449 425 462.5 395.5Q476 366 476 327V0H392V314Q392 341 383 360Q374 379 360 391.5Q346 404 327.5 409.5Q309 415 291 415Q266 415 243 404Q220 393 202.5 373Q185 353 174.5 323.5Q164 294 164 257V0H80Z" glyph-name="h" horiz-adv-x="551" unicode="h" /><glyph d="M90 564H173V325H433V564H516V0H433V257H173V0H90Z" glyph-name="h.smcp" horiz-adv-x="606" unicode="&#57864;" /><glyph d="M56 733H120V547Q133 567 155 581.5Q177 596 212 596Q234 596 253.5 590Q273 584 287.5 571.5Q302 559 310.5 540Q319 521 319 496V288H255V482Q255 516 236.5 530Q218 544 195 544Q166 544 143 519.5Q120 495 120 449V288H56Z" glyph-name="h.superior" horiz-adv-x="372" unicode="&#58216;" /><glyph d="M164 551V407Q186 441 220 462.5Q254 484 308 484Q342 484 372.5 474Q403 464 426 444.5Q449 425 462.5 395.5Q476 366 476 327V0H392V314Q392 341 383 360Q374 379 360 391.5Q346 404 327.5 409.5Q309 415 291 415Q266 415 243 404Q220 393 202.5 373Q185 353 174.5 323.5Q164 294 164 257V0H80V551H17V614H80V700H164V614H319V551Z" glyph-name="hbar" horiz-adv-x="551" unicode="&#295;" /><glyph d="M578 402H516V0H433V257H173V0H90V402H28V466H90V564H173V466H433V564H516V466H578ZM433 325V402H173V325Z" glyph-name="hbar.smcp" horiz-adv-x="606" unicode="&#57943;" /><glyph d="M95 900H154L268 784L226 745L124 843L25 745L-17 784ZM80 700H164V407Q186 441 220 462.5Q254 484 308 484Q342 484 372.5 474Q403 464 426 444.5Q449 425 462.5 395.5Q476 366 476 327V0H392V314Q392 341 383 360Q374 379 360 391.5Q346 404 327.5 409.5Q309 415 291 415Q266 415 243 404Q220 393 202.5 373Q185 353 174.5 323.5Q164 294 164 257V0H80Z" glyph-name="hcircumflex" horiz-adv-x="551" unicode="&#293;" /><glyph d="M277 774H332L444 645L402 608L304 715L205 608L164 645ZM90 564H173V325H433V564H516V0H433V257H173V0H90Z" glyph-name="hcircumflex.smcp" horiz-adv-x="606" unicode="&#57939;" /><glyph d="M495 640 326 533 297 576 452 700ZM297 640 128 533 98 576 254 700Z" glyph-name="hungarumlaut" horiz-adv-x="600" unicode="&#733;" /><glyph d="M495 856 326 749 297 792 452 916ZM297 856 128 749 98 792 254 916Z" glyph-name="hungarumlaut.cap" horiz-adv-x="600" unicode="&#58411;" /><glyph d="M60 321H315V254H60Z" glyph-name="hyphen" horiz-adv-x="375" unicode="-" /><glyph d="M60 394H315V327H60Z" glyph-name="hyphen.cap" horiz-adv-x="375" unicode="&#58498;" /><glyph d="M67 656Q67 681 82.5 696Q98 711 122 711Q146 711 161.5 696Q177 681 177 656Q177 634 161.5 618Q146 602 122 602Q98 602 82.5 618Q67 634 67 656ZM80 472H164V0H80Z" glyph-name="i" horiz-adv-x="244" unicode="i" /><glyph d="M90 564H173V0H90Z" glyph-name="i.smcp" horiz-adv-x="263" unicode="&#57865;" /><glyph d="M89 660Q70 660 59 671.5Q48 683 48 700Q48 718 59.5 729Q71 740 89 740Q107 740 118.5 729Q130 718 130 700Q130 683 119 671.5Q108 660 89 660ZM121 588V288H57V588Z" glyph-name="i.superior" horiz-adv-x="178" unicode="&#58217;" /><glyph d="M225 639 47 532 18 576 184 700ZM80 472H164V0H80Z" glyph-name="iacute" horiz-adv-x="244" unicode="&#237;" /><glyph d="M232 717 54 610 25 654 191 778ZM90 564H173V0H90Z" glyph-name="iacute.smcp" horiz-adv-x="263" unicode="&#57944;" /><glyph d="M35 673Q40 642 63.5 620Q87 598 122 598Q157 598 180.5 620Q204 642 209 673L274 653Q263 604 222.5 573Q182 542 122 542Q62 542 21.5 573Q-19 604 -30 653ZM80 472H164V0H80Z" glyph-name="ibreve" horiz-adv-x="244" unicode="&#301;" /><glyph d="M44 749Q49 718 72.5 696Q96 674 131 674Q166 674 189.5 696Q213 718 218 749L283 729Q272 680 231.5 649Q191 618 131 618Q71 618 30.5 649Q-10 680 -21 729ZM90 564H173V0H90Z" glyph-name="ibreve.smcp" horiz-adv-x="263" unicode="&#57951;" /><glyph d="M95 694H150L262 565L220 528L122 635L23 528L-18 565ZM80 472H164V0H80Z" glyph-name="icircumflex" horiz-adv-x="244" unicode="&#238;" /><glyph d="M105 774H160L272 645L230 608L132 715L33 608L-8 645ZM90 564H173V0H90Z" glyph-name="icircumflex.smcp" horiz-adv-x="263" unicode="&#57946;" /><glyph d="M165 602Q165 625 180 639.5Q195 654 218 654Q241 654 256 639.5Q271 625 271 602Q271 580 256 564.5Q241 549 218 549Q195 549 180 564.5Q165 580 165 602ZM-27 602Q-27 625 -12 639.5Q3 654 26 654Q49 654 64 639.5Q79 625 79 602Q79 580 64 564.5Q49 549 26 549Q3 549 -12 564.5Q-27 580 -27 602ZM80 472H164V0H80Z" glyph-name="idieresis" horiz-adv-x="244" unicode="&#239;" /><glyph d="M174 677Q174 700 189 714.5Q204 729 227 729Q250 729 265 714.5Q280 700 280 677Q280 655 265 639.5Q250 624 227 624Q204 624 189 639.5Q174 655 174 677ZM-18 677Q-18 700 -3 714.5Q12 729 35 729Q58 729 73 714.5Q88 700 88 677Q88 655 73 639.5Q58 624 35 624Q12 624 -3 639.5Q-18 655 -18 677ZM90 564H173V0H90Z" glyph-name="idieresis.smcp" horiz-adv-x="263" unicode="&#57947;" /><glyph d="M67 658Q67 683 82.5 698Q98 713 122 713Q146 713 161.5 698Q177 683 177 658Q177 636 161.5 620Q146 604 122 604Q98 604 82.5 620Q67 636 67 658ZM80 472H164V0H80Z" glyph-name="idotaccent" horiz-adv-x="244" unicode="&#59269;" /><glyph d="M76 676Q76 701 91.5 716Q107 731 131 731Q155 731 170.5 716Q186 701 186 676Q186 654 170.5 638Q155 622 131 622Q107 622 91.5 638Q76 654 76 676ZM90 564H173V0H90Z" glyph-name="idotaccent.smcp" horiz-adv-x="263" unicode="&#57954;" /><glyph d="M19 639 60 700 226 576 197 532ZM80 472H164V0H80Z" glyph-name="igrave" horiz-adv-x="244" unicode="&#236;" /><glyph d="M31 717 72 778 238 654 209 610ZM90 564H173V0H90Z" glyph-name="igrave.smcp" horiz-adv-x="263" unicode="&#57945;" /><glyph d="M312 657Q312 681 328 696Q344 711 367 711Q392 711 408 696Q424 681 424 657Q424 634 408.5 618Q393 602 367 602Q344 602 328 618Q312 634 312 657ZM67 656Q67 681 82.5 696Q98 711 122 711Q146 711 161.5 696Q177 681 177 656Q177 634 161.5 618Q146 602 122 602Q98 602 82.5 618Q67 634 67 656ZM410 -61Q410 -102 397 -130.5Q384 -159 363 -177Q342 -195 315.5 -203.5Q289 -212 261 -212Q232 -212 207 -204.5Q182 -197 156 -183L193 -116Q205 -124 220.5 -132Q236 -140 259 -140Q294 -140 310 -116.5Q326 -93 326 -56V472H410ZM80 472H164V0H80Z" glyph-name="ij" horiz-adv-x="490" unicode="&#307;" /><glyph d="M385 56Q427 56 444 87Q461 118 461 184V564H544V184Q544 145 538 109.5Q532 74 515.5 47Q499 20 468.5 4Q438 -12 389 -12Q336 -12 304 5.5Q272 23 249 51L304 105Q325 80 342 68Q359 56 385 56ZM90 564H173V0H90Z" glyph-name="ij.smcp" horiz-adv-x="627" unicode="&#58151;" /><glyph d="M-7 620H252V561H-7ZM80 472H164V0H80Z" glyph-name="imacron" horiz-adv-x="244" unicode="&#299;" /><glyph d="M2 689H261V630H2ZM90 564H173V0H90Z" glyph-name="imacron.smcp" horiz-adv-x="263" unicode="&#57950;" /><glyph d="M558 148Q507 148 468.5 175Q430 202 389 260Q348 202 309.5 175Q271 148 220 148Q186 148 155.5 159.5Q125 171 102 193Q79 215 65.5 248Q52 281 52 325Q52 368 65.5 401.5Q79 435 102 457Q125 479 155.5 490.5Q186 502 220 502Q271 502 309.5 475Q348 448 389 390Q430 448 468.5 475Q507 502 558 502Q592 502 622.5 490.5Q653 479 676 457Q699 435 712.5 401.5Q726 368 726 325Q726 281 712.5 248Q699 215 676 193Q653 171 622.5 159.5Q592 148 558 148ZM427 325Q439 303 453 283.5Q467 264 483 249Q499 234 517.5 225.5Q536 217 558 217Q598 217 624 244.5Q650 272 650 325Q650 378 624 405.5Q598 433 558 433Q536 433 517.5 424.5Q499 416 483 401Q467 386 453 366.5Q439 347 427 325ZM351 325Q339 347 325 366.5Q311 386 295 401Q279 416 260.5 424.5Q242 433 220 433Q180 433 154 405.5Q128 378 128 325Q128 272 154 244.5Q180 217 220 217Q242 217 260.5 225.5Q279 234 295 249Q311 264 325 283.5Q339 303 351 325Z" glyph-name="infinity" horiz-adv-x="778" unicode="&#8734;" /><glyph d="M121 561Q121 603 132.5 632Q144 661 163 678.5Q182 696 206 704Q230 712 256 712Q285 712 312.5 703.5Q340 695 356 683L319 615Q309 624 295 631.5Q281 639 263 639Q234 639 219.5 617Q205 595 205 556V1Q205 -41 193.5 -70Q182 -99 163 -116.5Q144 -134 119.5 -142Q95 -150 70 -150Q41 -150 13.5 -141.5Q-14 -133 -30 -121L7 -53Q17 -62 31 -69.5Q45 -77 63 -77Q92 -77 106.5 -55Q121 -33 121 6Z" glyph-name="integral" horiz-adv-x="326" unicode="&#8747;" /><glyph d="M371 341Q350 324 335 310.5Q320 297 310 283.5Q300 270 295 253.5Q290 237 290 215V184H223L213 636Q187 627 169 610Q151 593 139.5 571.5Q128 550 122 527Q116 504 114 484L30 498Q37 543 54.5 582.5Q72 622 100.5 650.5Q129 679 168.5 695.5Q208 712 261 712Q316 712 356.5 694.5Q397 677 423 649.5Q449 622 462 587Q475 552 475 517Q475 485 465 459Q455 433 440 411.5Q425 390 406.5 373Q388 356 371 341ZM389 520Q389 558 368.5 592Q348 626 301 638L295 375L321 400Q347 424 368 450.5Q389 477 389 520ZM201 48Q201 72 216.5 87Q232 102 257 102Q282 102 297.5 87Q313 72 313 48Q313 25 297.5 9Q282 -7 257 -7Q232 -7 216.5 9Q201 25 201 48Z" glyph-name="interrobang" horiz-adv-x="515" unicode="&#8253;" /><glyph d="M314 452Q314 428 298.5 413Q283 398 258 398Q233 398 217.5 413Q202 428 202 452Q202 475 217.5 491Q233 507 258 507Q283 507 298.5 491Q314 475 314 452ZM144 159Q165 176 180 189.5Q195 203 205 216.5Q215 230 220 246Q225 262 225 285V316H292L302 -136Q328 -127 346 -110Q364 -93 375.5 -71.5Q387 -50 393 -27Q399 -4 401 16L485 2Q477 -43 460 -82.5Q443 -122 414.5 -150.5Q386 -179 346 -195.5Q306 -212 254 -212Q199 -212 158.5 -194.5Q118 -177 92 -149.5Q66 -122 53 -87Q40 -52 40 -17Q40 15 50 41Q60 67 75 88.5Q90 110 108.5 127Q127 144 144 159ZM126 -20Q126 -58 146.5 -92Q167 -126 214 -138L220 125L194 100Q168 76 147 49.5Q126 23 126 -20Z" glyph-name="interrobangdown" horiz-adv-x="500" unicode="&#59701;" /><glyph d="M314 652Q314 628 298.5 613Q283 598 258 598Q233 598 217.5 613Q202 628 202 652Q202 675 217.5 691Q233 707 258 707Q283 707 298.5 691Q314 675 314 652ZM144 359Q165 376 180 389.5Q195 403 205 416.5Q215 430 220 446Q225 462 225 485V516H292L302 64Q328 73 346 90Q364 107 375.5 128.5Q387 150 393 173Q399 196 401 216L485 202Q477 157 460 117.5Q443 78 414.5 49.5Q386 21 346 4.5Q306 -12 254 -12Q199 -12 158.5 5.5Q118 23 92 50.5Q66 78 53 113Q40 148 40 183Q40 215 50 241Q60 267 75 288.5Q90 310 108.5 327Q127 344 144 359ZM126 180Q126 142 146.5 108Q167 74 214 62L220 325L194 300Q168 276 147 249.5Q126 223 126 180Z" glyph-name="interrobangdown.cap" horiz-adv-x="515" unicode="&#59803;" /><glyph d="M67 656Q67 681 82.5 696Q98 711 122 711Q146 711 161.5 696Q177 681 177 656Q177 634 161.5 618Q146 602 122 602Q98 602 82.5 618Q67 634 67 656ZM80 472H164V0Q108 -31 86.5 -56Q65 -81 65 -104Q65 -121 75.5 -132Q86 -143 107 -143Q123 -143 136 -135Q149 -127 163 -106L194 -137Q172 -168 147 -181.5Q122 -195 93 -195Q78 -195 61.5 -191Q45 -187 31.5 -177.5Q18 -168 9 -152Q0 -136 0 -112Q0 -72 23.5 -47Q47 -22 80 0Z" glyph-name="iogonek" horiz-adv-x="244" unicode="&#303;" /><glyph d="M74 -104Q74 -121 84.5 -132Q95 -143 116 -143Q132 -143 145 -135Q158 -127 172 -106L203 -137Q181 -168 156 -181.5Q131 -195 102 -195Q87 -195 70.5 -191Q54 -187 40.5 -177.5Q27 -168 18 -152Q9 -136 9 -112Q9 -72 33 -46Q57 -20 90 0V564H173V0Q117 -31 95.5 -56Q74 -81 74 -104Z" glyph-name="iogonek.smcp" horiz-adv-x="263" unicode="&#63054;" /><glyph d="M54 661Q79 661 98 653Q117 645 132.5 635.5Q148 626 162 618Q176 610 193 610Q209 610 220 617Q231 624 239 633Q248 643 253 656L296 617Q286 599 271 585Q258 573 238 563Q218 553 189 553Q163 553 145 561Q127 569 111.5 578Q96 587 82 595Q68 603 51 603Q34 603 23.5 595.5Q13 588 5 580Q-4 570 -9 558L-52 597Q-43 615 -28 629Q-15 641 5 651Q25 661 54 661ZM80 472H164V0H80Z" glyph-name="itilde" horiz-adv-x="244" unicode="&#297;" /><glyph d="M62 731Q87 731 106 723Q125 715 140.5 705.5Q156 696 170 688Q184 680 201 680Q217 680 228 687Q239 694 247 703Q256 713 261 726L304 687Q294 669 279 655Q266 643 246 633Q226 623 197 623Q171 623 153 631Q135 639 119.5 648Q104 657 90 665Q76 673 59 673Q42 673 31.5 665.5Q21 658 13 650Q4 640 -1 628L-44 667Q-35 685 -20 699Q-7 711 13 721Q33 731 62 731ZM90 564H173V0H90Z" glyph-name="itilde.smcp" horiz-adv-x="263" unicode="&#57948;" /><glyph d="M166 -61Q166 -102 153 -130.5Q140 -159 119 -177Q98 -195 71.5 -203.5Q45 -212 17 -212Q-12 -212 -37 -204.5Q-62 -197 -88 -183L-51 -116Q-39 -124 -23.5 -132Q-8 -140 15 -140Q50 -140 66 -116.5Q82 -93 82 -56V472H166ZM69 656Q69 681 84.5 696Q100 711 124 711Q148 711 163.5 696Q179 681 179 656Q179 634 163.5 618Q148 602 124 602Q100 602 84.5 618Q69 634 69 656Z" glyph-name="j" horiz-adv-x="246" unicode="j" /><glyph d="M141 56Q183 56 200 87Q217 118 217 184V564H300V184Q300 145 294 109.5Q288 74 271.5 47Q255 20 224.5 4Q194 -12 145 -12Q92 -12 60 5.5Q28 23 5 51L60 105Q81 80 98 68Q115 56 141 56Z" glyph-name="j.smcp" horiz-adv-x="383" unicode="&#57866;" /><glyph d="M101 660Q82 660 71 671.5Q60 683 60 700Q60 718 71.5 729Q83 740 101 740Q119 740 130.5 729Q142 718 142 700Q142 683 131 671.5Q120 660 101 660ZM133 254Q133 226 124 207Q115 188 100.5 176Q86 164 67.5 158.5Q49 153 31 153Q-5 153 -39 173L-12 222Q-4 217 5.5 212Q15 207 29 207Q49 207 59 220.5Q69 234 69 258V588H133Z" glyph-name="j.superior" horiz-adv-x="190" unicode="&#58218;" /><glyph d="M96 694H151L263 565L221 528L123 635L24 528L-17 565ZM166 -61Q166 -102 153 -130.5Q140 -159 119 -177Q98 -195 71.5 -203.5Q45 -212 17 -212Q-12 -212 -37 -204.5Q-62 -197 -88 -183L-51 -116Q-39 -124 -23.5 -132Q-8 -140 15 -140Q50 -140 66 -116.5Q82 -93 82 -56V472H166Z" glyph-name="jcircumflex" horiz-adv-x="246" unicode="&#309;" /><glyph d="M231 774H286L398 645L356 608L258 715L159 608L118 645ZM141 56Q183 56 200 87Q217 118 217 184V564H300V184Q300 145 294 109.5Q288 74 271.5 47Q255 20 224.5 4Q194 -12 145 -12Q92 -12 60 5.5Q28 23 5 51L60 105Q81 80 98 68Q115 56 141 56Z" glyph-name="jcircumflex.smcp" horiz-adv-x="383" unicode="&#63027;" /><glyph d="M219 247 164 196V0H80V700H164V284L367 472H466L281 300L498 0H396Z" glyph-name="k" horiz-adv-x="503" unicode="k" /><glyph d="M231 276 173 216V0H90V564H173V319L404 564H502L289 336L521 0H420Z" glyph-name="k.smcp" horiz-adv-x="534" unicode="&#57867;" /><glyph d="M154 437 120 406V288H56V733H120V476L243 588H317L199 479L336 288H260Z" glyph-name="k.superior" horiz-adv-x="347" unicode="&#58219;" /><glyph d="M219 247 164 196V0H80V700H164V284L367 472H466L281 300L498 0H396ZM329 -123Q329 -135 325.5 -151Q322 -167 313 -182Q304 -197 288 -208.5Q272 -220 246 -224L233 -191Q249 -191 264 -178.5Q279 -166 279 -149V-146Q278 -147 277 -147H270Q253 -147 239 -134Q225 -121 225 -101Q225 -84 237 -68.5Q249 -53 274 -53Q303 -53 316 -74Q329 -95 329 -123Z" glyph-name="kcommaaccent" horiz-adv-x="503" unicode="&#311;" /><glyph d="M231 276 173 216V0H90V564H173V319L404 564H502L289 336L521 0H420ZM339 -123Q339 -135 335.5 -151Q332 -167 323 -182Q314 -197 298 -208.5Q282 -220 256 -224L243 -191Q259 -191 274 -178.5Q289 -166 289 -149V-146Q288 -147 287 -147H280Q263 -147 249 -134Q235 -121 235 -101Q235 -84 247 -68.5Q259 -53 284 -53Q313 -53 326 -74Q339 -95 339 -123Z" glyph-name="kcommaaccent.smcp" horiz-adv-x="534" unicode="&#57960;" /><glyph d="M221 244 164 191V0H80V472H164V284L367 472H466L281 300L498 0H396Z" glyph-name="kgreenlandic" horiz-adv-x="503" unicode="&#312;" /><glyph d="M80 700H164V0H80Z" glyph-name="l" horiz-adv-x="244" unicode="l" /><glyph d="M90 564H173V68H423V0H90Z" glyph-name="l.smcp" horiz-adv-x="445" unicode="&#57868;" /><glyph d="M56 733H120V288H56Z" glyph-name="l.superior" horiz-adv-x="176" unicode="&#58220;" /><glyph d="M223 855 45 748 16 792 182 916ZM80 700H164V0H80Z" glyph-name="lacute" horiz-adv-x="244" unicode="&#314;" /><glyph d="M281 717 103 610 74 654 240 778ZM90 564H173V68H423V0H90Z" glyph-name="lacute.smcp" horiz-adv-x="445" unicode="&#57963;" /><glyph d="M317 690 257 531 210 543 249 708ZM80 700H164V0H80Z" glyph-name="lcaron" horiz-adv-x="244" unicode="&#318;" /><glyph d="M348 553 288 394 241 406 280 571ZM90 564H173V68H423V0H90Z" glyph-name="lcaron.smcp" horiz-adv-x="445" unicode="&#57964;" /><glyph d="M80 700H164V0H80ZM178 -123Q178 -135 174.5 -151Q171 -167 162 -182Q153 -197 137 -208.5Q121 -220 95 -224L82 -191Q98 -191 113 -178.5Q128 -166 128 -149V-146Q127 -147 126 -147H119Q102 -147 88 -134Q74 -121 74 -101Q74 -84 86 -68.5Q98 -53 123 -53Q152 -53 165 -74Q178 -95 178 -123Z" glyph-name="lcommaaccent" horiz-adv-x="244" unicode="&#316;" /><glyph d="M90 564H173V68H423V0H90ZM304 -123Q304 -135 300.5 -151Q297 -167 288 -182Q279 -197 263 -208.5Q247 -220 221 -224L208 -191Q224 -191 239 -178.5Q254 -166 254 -149V-146Q253 -147 252 -147H245Q228 -147 214 -134Q200 -121 200 -101Q200 -84 212 -68.5Q224 -53 249 -53Q278 -53 291 -74Q304 -95 304 -123Z" glyph-name="lcommaaccent.smcp" horiz-adv-x="445" unicode="&#57965;" /><glyph d="M80 700H164V0H80ZM221 350Q221 375 236.5 390Q252 405 276 405Q300 405 315.5 390Q331 375 331 350Q331 328 315.5 312Q300 296 276 296Q252 296 236.5 312Q221 328 221 350Z" glyph-name="ldot" horiz-adv-x="342" unicode="&#320;" /><glyph d="M90 564H173V68H423V0H90ZM267 288Q267 313 282.5 328Q298 343 322 343Q346 343 361.5 328Q377 313 377 288Q377 266 361.5 250Q346 234 322 234Q298 234 282.5 250Q267 266 267 288Z" glyph-name="ldot.smcp" horiz-adv-x="445" unicode="&#57969;" /><glyph d="M50 288V356L541 588V505L140 323L541 141V58Z" glyph-name="less" horiz-adv-x="600" unicode="&lt;" /><glyph d="M50 316V384L541 616V533L140 351L541 169V86Z" glyph-name="less.cap" horiz-adv-x="600" unicode="&#58774;" /><glyph d="M55 339V407L546 627V546L145 374L546 202V121ZM546 0H54V68H546Z" glyph-name="lessequal" horiz-adv-x="600" unicode="&#8804;" /><glyph d="M54 363H546V119H474V294H54Z" glyph-name="logicalnot" horiz-adv-x="600" unicode="&#172;" /><glyph d="M482 350 307 0H225L50 350L225 700H307ZM139 350 266 93 393 350 266 607Z" glyph-name="lozenge" horiz-adv-x="532" unicode="&#9674;" /><glyph d="M183 352V0H99V299L37 260L2 316L99 377V700H183V430L261 479L296 423Z" glyph-name="lslash" horiz-adv-x="282" unicode="&#322;" /><glyph d="M183 251V68H433V0H100V201L52 172L20 226L100 274V564H183V324L294 391L325 337Z" glyph-name="lslash.smcp" horiz-adv-x="455" unicode="&#57970;" /><glyph d="M80 472H159V401Q182 439 216 461.5Q250 484 301 484Q351 484 388.5 462Q426 440 443 398Q453 414 468 429.5Q483 445 503 457Q523 469 546.5 476.5Q570 484 596 484Q628 484 656.5 474Q685 464 706 444.5Q727 425 739.5 395.5Q752 366 752 327V0H668V314Q668 341 660 360Q652 379 639.5 391.5Q627 404 610.5 409.5Q594 415 577 415Q554 415 532.5 404Q511 393 494.5 373Q478 353 468 323.5Q458 294 458 257V0H374V314Q374 341 366 360Q358 379 345 391.5Q332 404 315.5 409.5Q299 415 282 415Q259 415 238 404Q217 393 200.5 373Q184 353 174 323.5Q164 294 164 257V0H80Z" glyph-name="m" horiz-adv-x="827" unicode="m" /><glyph d="M334 0Q324 24 310.5 59.5Q297 95 281.5 136.5Q266 178 249 222.5Q232 267 217 309Q202 351 189 389Q176 427 167 455H165V0H90V564H201Q243 450 278 354Q293 313 308 272.5Q323 232 336 197Q349 162 358.5 136Q368 110 372 99Q376 110 385.5 136Q395 162 407.5 197Q420 232 435 272.5Q450 313 465 354Q499 450 541 564H651V0H576V455H574Q565 426 551 387Q537 348 521 304Q505 260 488 214.5Q471 169 455.5 128Q440 87 427.5 53.5Q415 20 407 0Z" glyph-name="m.smcp" horiz-adv-x="741" unicode="&#57869;" /><glyph d="M56 588H117V543Q131 567 153 581.5Q175 596 207 596Q239 596 263 582Q287 568 298 542Q311 562 336 579Q361 596 395 596Q437 596 466 571.5Q495 547 495 496V288H431V482Q431 516 414.5 530Q398 544 378 544Q350 544 329 520Q308 496 308 450V288H244V482Q244 516 226.5 530Q209 544 189 544Q163 544 141.5 519.5Q120 495 120 449V288H56Z" glyph-name="m.superior" horiz-adv-x="548" unicode="&#58221;" /><glyph d="M170 620H429V561H170Z" glyph-name="macron" horiz-adv-x="600" unicode="&#175;" /><glyph d="M170 836H429V777H170Z" glyph-name="macron.cap" horiz-adv-x="600" unicode="&#58405;" /><glyph d="M51 234Q51 285 70.5 330.5Q90 376 124 409.5Q158 443 203 462.5Q248 482 299 482Q351 482 396.5 462.5Q442 443 476 409.5Q510 376 529.5 330.5Q549 285 549 234Q549 183 529.5 137.5Q510 92 476 58.5Q442 25 396.5 5.5Q351 -14 299 -14Q248 -14 203 5.5Q158 25 124 58.5Q90 92 70.5 137.5Q51 183 51 234Z" glyph-name="mediumblackcircle" horiz-adv-x="600" unicode="&#9899;" /><glyph d="M52 236Q52 288 71.5 333Q91 378 124.5 411.5Q158 445 203.5 464.5Q249 484 300 484Q352 484 397 464.5Q442 445 475.5 411.5Q509 378 528.5 333Q548 288 548 236Q548 185 528.5 139.5Q509 94 475.5 60.5Q442 27 397 7.5Q352 -12 300 -12Q249 -12 203.5 7.5Q158 27 124.5 60.5Q91 94 71.5 139.5Q52 185 52 236ZM487 236Q487 276 472.5 310.5Q458 345 432.5 371Q407 397 373 412Q339 427 300 427Q261 427 227 412Q193 397 167.5 371Q142 345 127.5 310.5Q113 276 113 236Q113 196 127.5 161Q142 126 167.5 100.5Q193 75 227 60Q261 45 300 45Q339 45 373 60Q407 75 432.5 100.5Q458 126 472.5 161Q487 196 487 236Z" glyph-name="mediumwhitecircle" horiz-adv-x="600" unicode="&#9898;" /><glyph d="M54 358H546V289H54Z" glyph-name="minus" horiz-adv-x="600" unicode="&#8722;" /><glyph d="M54 395H596V326H54Z" glyph-name="minus.cap" horiz-adv-x="650" unicode="&#58770;" /><glyph d="M50 29H329V-34H50Z" glyph-name="minus.inf" horiz-adv-x="379" unicode="&#58748;" /><glyph d="M472 0H393V71Q368 33 333.5 10.5Q299 -12 246 -12Q223 -12 202.5 -6.5Q182 -1 164 9V-198H80V472H164V158Q164 131 172.5 112Q181 93 195.5 80.5Q210 68 227.5 62.5Q245 57 263 57Q287 57 310 68Q333 79 350 99Q367 119 377.5 148.5Q388 178 388 215V472H472Z" glyph-name="mu" horiz-adv-x="552" unicode="&#181;" /><glyph d="M468 107 299 276 131 107 82 156 251 324 82 493 131 542 299 373 468 542 517 493 348 324 517 156Z" glyph-name="multiply" horiz-adv-x="600" unicode="&#215;" /><glyph d="M514 123 325 312 137 123 88 172 277 360 88 549 137 598 325 409 514 598 563 549 374 360 563 172Z" glyph-name="multiply.cap" horiz-adv-x="650" unicode="&#58771;" /><glyph d="M80 472H159V401Q184 439 219.5 461.5Q255 484 308 484Q342 484 373 474Q404 464 426.5 444.5Q449 425 462.5 395.5Q476 366 476 327V0H392V314Q392 341 383 360Q374 379 359.5 391.5Q345 404 327 409.5Q309 415 291 415Q266 415 243 404Q220 393 202.5 373Q185 353 174.5 323.5Q164 294 164 257V0H80Z" glyph-name="n" horiz-adv-x="551" unicode="n" /><glyph d="M90 564H178Q241 466 296 380Q320 343 344 305.5Q368 268 390 233.5Q412 199 430 171Q448 143 459 125H461V564H538V0H450Q389 96 334 181Q311 217 286.5 255Q262 293 240 327.5Q218 362 199.5 391Q181 420 169 439H167V0H90Z" glyph-name="n.smcp" horiz-adv-x="628" unicode="&#57870;" /><glyph d="M56 588H117V543Q131 567 154 581.5Q177 596 212 596Q256 596 287.5 571Q319 546 319 496V288H255V482Q255 516 236 530Q217 544 195 544Q166 544 143 519.5Q120 495 120 449V288H56Z" glyph-name="n.superior" horiz-adv-x="372" unicode="&#8319;" /><glyph d="M407 639 229 532 200 576 366 700ZM80 472H159V401Q184 439 219.5 461.5Q255 484 308 484Q342 484 373 474Q404 464 426.5 444.5Q449 425 462.5 395.5Q476 366 476 327V0H392V314Q392 341 383 360Q374 379 359.5 391.5Q345 404 327 409.5Q309 415 291 415Q266 415 243 404Q220 393 202.5 373Q185 353 174.5 323.5Q164 294 164 257V0H80Z" glyph-name="nacute" horiz-adv-x="551" unicode="&#324;" /><glyph d="M436 717 258 610 229 654 395 778ZM90 564H178Q241 466 296 380Q320 343 344 305.5Q368 268 390 233.5Q412 199 430 171Q448 143 459 125H461V564H538V0H450Q389 96 334 181Q311 217 286.5 255Q262 293 240 327.5Q218 362 199.5 391Q181 420 169 439H167V0H90Z" glyph-name="nacute.smcp" horiz-adv-x="628" unicode="&#57974;" /><glyph d="M313 534H258L146 663L188 700L286 593L385 700L426 663ZM80 472H159V401Q184 439 219.5 461.5Q255 484 308 484Q342 484 373 474Q404 464 426.5 444.5Q449 425 462.5 395.5Q476 366 476 327V0H392V314Q392 341 383 360Q374 379 359.5 391.5Q345 404 327 409.5Q309 415 291 415Q266 415 243 404Q220 393 202.5 373Q185 353 174.5 323.5Q164 294 164 257V0H80Z" glyph-name="ncaron" horiz-adv-x="551" unicode="&#328;" /><glyph d="M339 612H284L172 741L214 778L312 671L411 778L452 741ZM90 564H178Q241 466 296 380Q320 343 344 305.5Q368 268 390 233.5Q412 199 430 171Q448 143 459 125H461V564H538V0H450Q389 96 334 181Q311 217 286.5 255Q262 293 240 327.5Q218 362 199.5 391Q181 420 169 439H167V0H90Z" glyph-name="ncaron.smcp" horiz-adv-x="628" unicode="&#57978;" /><glyph d="M80 472H159V401Q184 439 219.5 461.5Q255 484 308 484Q342 484 373 474Q404 464 426.5 444.5Q449 425 462.5 395.5Q476 366 476 327V0H392V314Q392 341 383 360Q374 379 359.5 391.5Q345 404 327 409.5Q309 415 291 415Q266 415 243 404Q220 393 202.5 373Q185 353 174.5 323.5Q164 294 164 257V0H80ZM335 -123Q335 -135 331.5 -151Q328 -167 319 -182Q310 -197 294 -208.5Q278 -220 252 -224L239 -191Q255 -191 270 -178.5Q285 -166 285 -149V-146Q284 -147 283 -147H276Q259 -147 245 -134Q231 -121 231 -101Q231 -84 243 -68.5Q255 -53 280 -53Q309 -53 322 -74Q335 -95 335 -123Z" glyph-name="ncommaaccent" horiz-adv-x="551" unicode="&#326;" /><glyph d="M90 564H178Q241 466 296 380Q320 343 344 305.5Q368 268 390 233.5Q412 199 430 171Q448 143 459 125H461V564H538V0H450Q389 96 334 181Q311 217 286.5 255Q262 293 240 327.5Q218 362 199.5 391Q181 420 169 439H167V0H90ZM373 -123Q373 -135 369.5 -151Q366 -167 357 -182Q348 -197 332 -208.5Q316 -220 290 -224L277 -191Q293 -191 308 -178.5Q323 -166 323 -149V-146Q322 -147 321 -147H314Q297 -147 283 -134Q269 -121 269 -101Q269 -84 281 -68.5Q293 -53 318 -53Q347 -53 360 -74Q373 -95 373 -123Z" glyph-name="ncommaaccent.smcp" horiz-adv-x="628" unicode="&#57981;" /><glyph d="M279 56Q325 56 357 78Q389 100 409 137.5Q429 175 438.5 225.5Q448 276 450 334Q432 297 389 270Q346 243 277 243Q223 243 182 262Q141 281 114 312.5Q87 344 73 384.5Q59 425 59 468Q59 514 74 556Q89 598 118 629.5Q147 661 189.5 679.5Q232 698 287 698Q413 698 470.5 609.5Q528 521 528 358Q528 179 465 83.5Q402 -12 278 -12Q229 -12 194.5 1.5Q160 15 136 37Q112 59 98 86.5Q84 114 77 142L160 154Q165 139 172.5 121.5Q180 104 193.5 89.5Q207 75 227.5 65.5Q248 56 279 56ZM288 309Q356 309 395 352Q434 395 434 464Q434 499 423.5 530Q413 561 394 583.5Q375 606 348 619Q321 632 287 632Q257 632 230.5 621Q204 610 185 589Q166 568 155 538Q144 508 144 471Q144 435 153.5 405.5Q163 376 181.5 354.5Q200 333 226.5 321Q253 309 288 309Z" glyph-name="nine" horiz-adv-x="600" unicode="9" /><glyph d="M265 56Q311 56 343 78Q375 100 395 137.5Q415 175 424.5 225.5Q434 276 436 334Q418 297 375 270Q332 243 263 243Q209 243 168 262Q127 281 100 312.5Q73 344 59 384.5Q45 425 45 468Q45 514 60 556Q75 598 104 629.5Q133 661 175.5 679.5Q218 698 273 698Q399 698 456.5 609.5Q514 521 514 358Q514 179 451 83.5Q388 -12 264 -12Q215 -12 180.5 1.5Q146 15 122 37Q98 59 84 86.5Q70 114 63 142L146 154Q151 139 158.5 121.5Q166 104 179.5 89.5Q193 75 213.5 65.5Q234 56 265 56ZM274 309Q342 309 381 352Q420 395 420 464Q420 499 409.5 530Q399 561 380 583.5Q361 606 334 619Q307 632 273 632Q243 632 216.5 621Q190 610 171 589Q152 568 141 538Q130 508 130 471Q130 435 139.5 405.5Q149 376 167.5 354.5Q186 333 212.5 321Q239 309 274 309Z" glyph-name="nine.LP" horiz-adv-x="569" unicode="&#58686;" /><glyph d="M279 56Q325 56 357 78Q389 100 409 137.5Q429 175 438.5 225.5Q448 276 450 334Q432 297 389 270Q346 243 277 243Q223 243 182 262Q141 281 114 312.5Q87 344 73 384.5Q59 425 59 468Q59 514 74 556Q89 598 118 629.5Q147 661 189.5 679.5Q232 698 287 698Q413 698 470.5 609.5Q528 521 528 358Q528 179 465 83.5Q402 -12 278 -12Q229 -12 194.5 1.5Q160 15 136 37Q112 59 98 86.5Q84 114 77 142L160 154Q165 139 172.5 121.5Q180 104 193.5 89.5Q207 75 227.5 65.5Q248 56 279 56ZM288 309Q356 309 395 352Q434 395 434 464Q434 499 423.5 530Q413 561 394 583.5Q375 606 348 619Q321 632 287 632Q257 632 230.5 621Q204 610 185 589Q166 568 155 538Q144 508 144 471Q144 435 153.5 405.5Q163 376 181.5 354.5Q200 333 226.5 321Q253 309 288 309Z" glyph-name="nine.LT" horiz-adv-x="600" unicode="&#58697;" /><glyph d="M262 -67Q307 -67 338.5 -45Q370 -23 389.5 14.5Q409 52 418.5 102.5Q428 153 430 210Q412 175 369.5 148Q327 121 260 121Q206 121 165.5 140Q125 159 98 190Q71 221 57.5 261.5Q44 302 44 344Q44 390 58.5 432Q73 474 101 505.5Q129 537 171 556Q213 575 267 575Q392 575 449.5 486Q507 397 507 231Q507 53 443.5 -40.5Q380 -134 261 -134Q213 -134 178 -120.5Q143 -107 119.5 -85Q96 -63 82.5 -35.5Q69 -8 62 20L144 32Q148 17 155.5 -0.5Q163 -18 176.5 -33Q190 -48 210.5 -57.5Q231 -67 262 -67ZM270 186Q338 186 377.5 227.5Q417 269 417 341Q417 377 406 407.5Q395 438 375.5 461Q356 484 328.5 497Q301 510 268 510Q207 510 167.5 468.5Q128 427 128 349Q128 277 164.5 231.5Q201 186 270 186Z" glyph-name="nine.OP" horiz-adv-x="562" unicode="&#58708;" /><glyph d="M281 -67Q326 -67 357.5 -45Q389 -23 408.5 14.5Q428 52 437.5 102.5Q447 153 449 210Q431 175 388.5 148Q346 121 279 121Q225 121 184.5 140Q144 159 117 190Q90 221 76.5 261.5Q63 302 63 344Q63 390 77.5 432Q92 474 120 505.5Q148 537 190 556Q232 575 286 575Q411 575 468.5 486Q526 397 526 231Q526 53 462.5 -40.5Q399 -134 280 -134Q232 -134 197 -120.5Q162 -107 138.5 -85Q115 -63 101.5 -35.5Q88 -8 81 20L163 32Q167 17 174.5 -0.5Q182 -18 195.5 -33Q209 -48 229.5 -57.5Q250 -67 281 -67ZM289 186Q357 186 396.5 227.5Q436 269 436 341Q436 377 425 407.5Q414 438 394.5 461Q375 484 347.5 497Q320 510 287 510Q226 510 186.5 468.5Q147 427 147 349Q147 277 183.5 231.5Q220 186 289 186Z" glyph-name="nine.OT" horiz-adv-x="600" unicode="&#58719;" /><glyph d="M172 -153Q195 -153 211.5 -142.5Q228 -132 238.5 -114.5Q249 -97 254.5 -74.5Q260 -52 262 -27Q251 -45 228.5 -59Q206 -73 168 -73Q135 -73 111 -62Q87 -51 70.5 -33Q54 -15 46 8Q38 31 38 55Q38 81 47 104.5Q56 128 73.5 145.5Q91 163 117 173.5Q143 184 177 184Q249 184 287.5 139Q326 94 326 -6Q326 -106 286 -157Q246 -208 172 -208Q143 -208 121 -200.5Q99 -193 84 -180.5Q69 -168 59.5 -152Q50 -136 46 -119L113 -110Q118 -124 129.5 -138.5Q141 -153 172 -153ZM178 -19Q212 -19 231.5 2Q251 23 251 53Q251 88 231.5 108.5Q212 129 178 129Q148 129 127.5 109.5Q107 90 107 55Q107 23 126.5 2Q146 -19 178 -19Z" glyph-name="nine.inf" horiz-adv-x="374" unicode="&#58746;" /><glyph d="M158 -12 594 712H669L230 -12ZM172 371Q195 371 211.5 381.5Q228 392 238.5 409.5Q249 427 254.5 449.5Q260 472 262 497Q251 479 228.5 465Q206 451 168 451Q135 451 111 462Q87 473 70.5 491Q54 509 46 532Q38 555 38 579Q38 605 47 628.5Q56 652 73.5 669.5Q91 687 117 697.5Q143 708 177 708Q249 708 287.5 663Q326 618 326 518Q326 418 286 367Q246 316 172 316Q143 316 121 323.5Q99 331 84 343.5Q69 356 59.5 372Q50 388 46 405L113 414Q118 400 129.5 385.5Q141 371 172 371ZM178 505Q212 505 231.5 526Q251 547 251 577Q251 612 231.5 632.5Q212 653 178 653Q148 653 127.5 633.5Q107 614 107 579Q107 547 126.5 526Q146 505 178 505ZM927 329Q904 329 887.5 318.5Q871 308 860.5 290.5Q850 273 844 250.5Q838 228 837 203Q848 221 870.5 235Q893 249 931 249Q964 249 988 238Q1012 227 1028.5 209Q1045 191 1053 168Q1061 145 1061 121Q1061 95 1052 71.5Q1043 48 1025.5 30.5Q1008 13 982 2.5Q956 -8 922 -8Q850 -8 811.5 37Q773 82 773 182Q773 282 813 333Q853 384 927 384Q956 384 978 376.5Q1000 369 1015 356.5Q1030 344 1039.5 328Q1049 312 1053 295L986 286Q981 300 969.5 314.5Q958 329 927 329ZM692 376V0H621V302Q609 293 588.5 287Q568 281 544 280L531 336Q563 340 589.5 349.5Q616 359 630 376ZM921 195Q887 195 867.5 174Q848 153 848 123Q848 88 867.5 67.5Q887 47 921 47Q951 47 971.5 66.5Q992 86 992 121Q992 153 972.5 174Q953 195 921 195Z" glyph-name="ninesixteenths" horiz-adv-x="1099" unicode="&#61977;" /><glyph glyph-name="nonmarkingreturn" horiz-adv-x="235" /><glyph d="M54 450H340L442 616L496 583L414 450H546V382H372L302 268H546V200H260L157 32L102 65L185 200H54V268H227L298 382H54Z" glyph-name="notequal" horiz-adv-x="600" unicode="&#8800;" /><glyph d="M54 485H365L467 651L521 618L439 485H596V417H397L327 303H596V235H285L182 67L127 100L210 235H54V303H252L323 417H54Z" glyph-name="notequal.cap" horiz-adv-x="650" unicode="&#61989;" /><glyph d="M219 661Q244 661 263 653Q282 645 297.5 635.5Q313 626 327 618Q341 610 358 610Q374 610 385 617Q396 624 404 633Q413 643 418 656L461 617Q451 599 436 585Q423 573 403 563Q383 553 354 553Q328 553 310 561Q292 569 276.5 578Q261 587 247 595Q233 603 216 603Q199 603 188.5 595.5Q178 588 170 580Q161 570 156 558L113 597Q122 615 137 629Q150 641 170 651Q190 661 219 661ZM80 472H159V401Q184 439 219.5 461.5Q255 484 308 484Q342 484 373 474Q404 464 426.5 444.5Q449 425 462.5 395.5Q476 366 476 327V0H392V314Q392 341 383 360Q374 379 359.5 391.5Q345 404 327 409.5Q309 415 291 415Q266 415 243 404Q220 393 202.5 373Q185 353 174.5 323.5Q164 294 164 257V0H80Z" glyph-name="ntilde" horiz-adv-x="551" unicode="&#241;" /><glyph d="M243 731Q268 731 287 723Q306 715 321.5 705.5Q337 696 351 688Q365 680 382 680Q398 680 409 687Q420 694 428 703Q437 713 442 726L485 687Q475 669 460 655Q447 643 427 633Q407 623 378 623Q352 623 334 631Q316 639 300.5 648Q285 657 271 665Q257 673 240 673Q223 673 212.5 665.5Q202 658 194 650Q185 640 180 628L137 667Q146 685 161 699Q174 711 194 721Q214 731 243 731ZM90 564H178Q241 466 296 380Q320 343 344 305.5Q368 268 390 233.5Q412 199 430 171Q448 143 459 125H461V564H538V0H450Q389 96 334 181Q311 217 286.5 255Q262 293 240 327.5Q218 362 199.5 391Q181 420 169 439H167V0H90Z" glyph-name="ntilde.smcp" horiz-adv-x="628" unicode="&#57977;" /><glyph d="M356 217H216L178 0H111L149 217H35V279H160L186 428H73V490H198L235 700H302L265 490H405L442 700H509L472 490H590V428H460L434 279H553V217H423L384 0H318ZM227 279H367L393 428H253Z" glyph-name="numbersign" horiz-adv-x="625" unicode="#" /><glyph d="M271 484Q325 484 367 465.5Q409 447 438.5 414Q468 381 483 335.5Q498 290 498 236Q498 182 483 136.5Q468 91 438.5 58Q409 25 367 6.5Q325 -12 271 -12Q217 -12 175 6.5Q133 25 103.5 58Q74 91 59 136.5Q44 182 44 236Q44 290 59 335.5Q74 381 103.5 414Q133 447 175 465.5Q217 484 271 484ZM271 55Q306 55 332.5 69.5Q359 84 376.5 108.5Q394 133 402.5 166Q411 199 411 236Q411 273 402.5 306Q394 339 376.5 363.5Q359 388 332.5 402.5Q306 417 271 417Q236 417 209.5 402.5Q183 388 165.5 363.5Q148 339 139.5 306Q131 273 131 236Q131 199 139.5 166Q148 133 165.5 108.5Q183 84 209.5 69.5Q236 55 271 55Z" glyph-name="o" horiz-adv-x="542" unicode="o" /><glyph d="M57 282Q57 350 76 404Q95 458 129 496Q163 534 210.5 554.5Q258 575 316 575Q373 575 420.5 554.5Q468 534 502 496Q536 458 555 404Q574 350 574 282Q574 213 555 158.5Q536 104 502 66Q468 28 420.5 8Q373 -12 316 -12Q258 -12 210.5 8Q163 28 129 66Q95 104 76 158.5Q57 213 57 282ZM143 282Q143 234 153.5 192.5Q164 151 186 120.5Q208 90 240 73Q272 56 316 56Q359 56 391.5 73Q424 90 445.5 120.5Q467 151 477.5 192.5Q488 234 488 282Q488 330 477.5 371.5Q467 413 445.5 443Q424 473 391.5 490Q359 507 316 507Q272 507 240 490Q208 473 186 443Q164 413 153.5 371.5Q143 330 143 282Z" glyph-name="o.smcp" horiz-adv-x="631" unicode="&#57871;" /><glyph d="M182 596Q252 596 291.5 552Q331 508 331 438Q331 368 291.5 324Q252 280 182 280Q113 280 73.5 324Q34 368 34 438Q34 508 73.5 552Q113 596 182 596ZM182 330Q224 330 244.5 361.5Q265 393 265 438Q265 483 244.5 515Q224 547 182 547Q140 547 120 515Q100 483 100 438Q100 393 120 361.5Q140 330 182 330Z" glyph-name="o.superior" horiz-adv-x="365" unicode="&#58222;" /></font>
</defs>
</svg>
