<?xml version="1.0" standalone="no"?><!DOCTYPE svg PUBLIC "-//W3C//DTD SVG 1.1//EN" "http://www.w3.org/Graphics/SVG/1.1/DTD/svg11.dtd" ><svg version="1.1" xmlns="http://www.w3.org/2000/svg"><defs><font horiz-adv-x="0" id="font"><font-face ascent="770" bbox="-210 -230 1179 950" cap-height="702" descent="-230" font-family="Copyright Klim Type Foundry" font-stretch="normal" font-style="italic" font-weight="400" units-per-em="1000" x-height="530" /><missing-glyph horiz-adv-x="200" /><glyph d="M480 227H186L122 123Q102 92 102 74Q102 54 124 47.5Q146 41 189 39L182 0H-43L-35 39Q-12 42 4.5 48.5Q21 55 34 76L388 645L371 711H477L613 76Q618 56 632 49Q646 42 667 39L660 0H393L400 39Q421 40 439.5 41.5Q458 43 472.5 49Q487 55 495.5 65.5Q504 76 504 95Q504 101 503.5 107.5Q503 114 502 122ZM216 276H470L407 585Z" glyph-name="A" horiz-adv-x="717" unicode="A" /><glyph d="M544 635Q536 652 515.5 657.5Q495 663 458 663L466 702H1065L1029 535H1002Q995 568 988.5 591Q982 614 970.5 628.5Q959 643 941 649.5Q923 656 892 656H698L640 382H800Q834 382 855 404.5Q876 427 893 472H927L879 246H845Q845 292 834.5 314Q824 336 790 336H630L587 131Q584 117 583 107Q582 97 582 92Q582 64 602.5 55Q623 46 671 46H747Q781 46 806.5 52Q832 58 855.5 73.5Q879 89 903.5 115Q928 141 961 180H990L922 0H360L369 39Q394 40 413.5 43Q433 46 447.5 53.5Q462 61 471.5 75Q481 89 486 112L516 252H261L144 123Q130 109 126.5 95.5Q123 82 123 74Q123 54 145.5 47.5Q168 41 211 39L204 0H-43L-35 39Q-12 42 2.5 50Q17 58 34 76ZM301 296H525L594 619Z" glyph-name="AE" horiz-adv-x="1041" unicode="&#198;" /><glyph d="M544 635Q536 652 515.5 657.5Q495 663 458 663L466 702H1065L1029 535H1002Q995 568 988.5 591Q982 614 970.5 628.5Q959 643 941 649.5Q923 656 892 656H698L640 382H800Q834 382 855 404.5Q876 427 893 472H927L879 246H845Q845 292 834.5 314Q824 336 790 336H630L587 131Q584 117 583 107Q582 97 582 92Q582 64 602.5 55Q623 46 671 46H747Q781 46 806.5 52Q832 58 855.5 73.5Q879 89 903.5 115Q928 141 961 180H990L922 0H360L369 39Q394 40 413.5 43Q433 46 447.5 53.5Q462 61 471.5 75Q481 89 486 112L516 252H261L144 123Q130 109 126.5 95.5Q123 82 123 74Q123 54 145.5 47.5Q168 41 211 39L204 0H-43L-35 39Q-12 42 2.5 50Q17 58 34 76ZM301 296H525L594 619ZM955 910 773 761H732L823 910Z" glyph-name="AEacute" horiz-adv-x="1041" unicode="&#508;" /><glyph d="M480 227H186L122 123Q102 92 102 74Q102 54 124 47.5Q146 41 189 39L182 0H-43L-35 39Q-12 42 4.5 48.5Q21 55 34 76L388 645L371 711H477L613 76Q618 56 632 49Q646 42 667 39L660 0H393L400 39Q421 40 439.5 41.5Q458 43 472.5 49Q487 55 495.5 65.5Q504 76 504 95Q504 101 503.5 107.5Q503 114 502 122ZM216 276H470L407 585ZM641 910 459 761H418L509 910Z" glyph-name="Aacute" horiz-adv-x="717" unicode="&#193;" /><glyph d="M480 227H186L122 123Q102 92 102 74Q102 54 124 47.5Q146 41 189 39L182 0H-43L-35 39Q-12 42 4.5 48.5Q21 55 34 76L388 645L371 711H477L613 76Q618 56 632 49Q646 42 667 39L660 0H393L400 39Q421 40 439.5 41.5Q458 43 472.5 49Q487 55 495.5 65.5Q504 76 504 95Q504 101 503.5 107.5Q503 114 502 122ZM216 276H470L407 585ZM445 758Q388 758 355 789Q322 820 322 879Q322 900 328 926H364Q363 921 363 917.5Q363 914 363 909Q363 864 391.5 844Q420 824 458 824Q499 824 536 848Q573 872 590 926H629Q613 845 563 801.5Q513 758 445 758Z" glyph-name="Abreve" horiz-adv-x="717" unicode="&#258;" /><glyph d="M480 227H186L122 123Q102 92 102 74Q102 54 124 47.5Q146 41 189 39L182 0H-43L-35 39Q-12 42 4.5 48.5Q21 55 34 76L388 645L371 711H477L613 76Q618 56 632 49Q646 42 667 39L660 0H393L400 39Q421 40 439.5 41.5Q458 43 472.5 49Q487 55 495.5 65.5Q504 76 504 95Q504 101 503.5 107.5Q503 114 502 122ZM216 276H470L407 585ZM618 761H573L466 850L297 761H250L438 920H512Z" glyph-name="Acircumflex" horiz-adv-x="717" unicode="&#194;" /><glyph d="M480 227H186L122 123Q102 92 102 74Q102 54 124 47.5Q146 41 189 39L182 0H-43L-35 39Q-12 42 4.5 48.5Q21 55 34 76L388 645L371 711H477L613 76Q618 56 632 49Q646 42 667 39L660 0H393L400 39Q421 40 439.5 41.5Q458 43 472.5 49Q487 55 495.5 65.5Q504 76 504 95Q504 101 503.5 107.5Q503 114 502 122ZM216 276H470L407 585ZM363 770Q337 770 321 786.5Q305 803 305 828Q305 854 323.5 873Q342 892 368 892Q394 892 410 875.5Q426 859 426 834Q426 808 407.5 789Q389 770 363 770ZM549 770Q523 770 507 786.5Q491 803 491 828Q491 854 509.5 873Q528 892 554 892Q580 892 596 875.5Q612 859 612 834Q612 808 593.5 789Q575 770 549 770Z" glyph-name="Adieresis" horiz-adv-x="717" unicode="&#196;" /><glyph d="M480 227H186L122 123Q102 92 102 74Q102 54 124 47.5Q146 41 189 39L182 0H-43L-35 39Q-12 42 4.5 48.5Q21 55 34 76L388 645L371 711H477L613 76Q618 56 632 49Q646 42 667 39L660 0H393L400 39Q421 40 439.5 41.5Q458 43 472.5 49Q487 55 495.5 65.5Q504 76 504 95Q504 101 503.5 107.5Q503 114 502 122ZM216 276H470L407 585ZM416 910 472 761H432L294 910Z" glyph-name="Agrave" horiz-adv-x="717" unicode="&#192;" /><glyph d="M480 227H186L122 123Q102 92 102 74Q102 54 124 47.5Q146 41 189 39L182 0H-43L-35 39Q-12 42 4.5 48.5Q21 55 34 76L388 645L371 711H477L613 76Q618 56 632 49Q646 42 667 39L660 0H393L400 39Q421 40 439.5 41.5Q458 43 472.5 49Q487 55 495.5 65.5Q504 76 504 95Q504 101 503.5 107.5Q503 114 502 122ZM216 276H470L407 585ZM320 845H602L588 783H306Z" glyph-name="Amacron" horiz-adv-x="717" unicode="&#256;" /><glyph d="M480 227H186L122 123Q102 92 102 74Q102 54 124 47.5Q146 41 189 39L182 0H-43L-35 39Q-12 42 4.5 48.5Q21 55 34 76L388 645L371 711H477L613 76Q618 56 632 49Q646 42 667 39L660 0H451Q397 -19 362 -48Q327 -77 327 -119Q327 -135 338 -145Q349 -155 371 -155Q395 -155 419 -141Q443 -127 469 -108L482 -127Q470 -140 454 -154.5Q438 -169 419 -181.5Q400 -194 379.5 -202Q359 -210 338 -210Q303 -210 281 -190.5Q259 -171 259 -138Q259 -82 295 -48.5Q331 -15 397 14Q419 24 438.5 30.5Q458 37 472.5 45.5Q487 54 495.5 65Q504 76 504 95Q504 101 503.5 107.5Q503 114 502 122ZM216 276H470L407 585Z" glyph-name="Aogonek" horiz-adv-x="717" unicode="&#260;" /><glyph d="M480 227H186L122 123Q102 92 102 74Q102 54 124 47.5Q146 41 189 39L182 0H-43L-35 39Q-12 42 4.5 48.5Q21 55 34 76L388 645L371 711H477L613 76Q618 56 632 49Q646 42 667 39L660 0H393L400 39Q421 40 439.5 41.5Q458 43 472.5 49Q487 55 495.5 65.5Q504 76 504 95Q504 101 503.5 107.5Q503 114 502 122ZM216 276H470L407 585ZM453 791Q480 791 494.5 810Q509 829 509 855Q509 875 497.5 887Q486 899 465 899Q438 899 423.5 880Q409 861 409 835Q409 815 420.5 803Q432 791 453 791ZM448 754Q410 754 388.5 777Q367 800 367 835Q367 878 396 907Q425 936 470 936Q508 936 529.5 913Q551 890 551 855Q551 812 522 783Q493 754 448 754Z" glyph-name="Aring" horiz-adv-x="717" unicode="&#197;" /><glyph d="M480 227H186L122 123Q102 92 102 74Q102 54 124 47.5Q146 41 189 39L182 0H-43L-35 39Q-12 42 4.5 48.5Q21 55 34 76L388 645L371 711H477L613 76Q618 56 632 49Q646 42 667 39L660 0H393L400 39Q421 40 439.5 41.5Q458 43 472.5 49Q487 55 495.5 65.5Q504 76 504 95Q504 101 503.5 107.5Q503 114 502 122ZM216 276H470L407 585ZM640 880Q621 843 605.5 819.5Q590 796 576 783Q562 770 547.5 765Q533 760 515 760Q492 760 474.5 771Q457 782 441.5 795.5Q426 809 412 820.5Q398 832 382 832Q359 832 345.5 816.5Q332 801 314 770L277 780Q296 817 311.5 840.5Q327 864 341 877Q355 890 369.5 895Q384 900 402 900Q424 900 442 888.5Q460 877 475.5 863.5Q491 850 505 839Q519 828 535 828Q558 828 571.5 843.5Q585 859 604 890Z" glyph-name="Atilde" horiz-adv-x="717" unicode="&#195;" /><glyph d="M-3 39Q22 40 41.5 43Q61 46 75.5 53.5Q90 61 99.5 75Q109 89 114 112L213 575Q218 600 218 612Q218 643 197 652Q176 661 128 663L136 702H436Q539 702 595 664Q651 626 651 549Q651 503 631.5 468.5Q612 434 581.5 410.5Q551 387 512.5 374Q474 361 436 360Q476 357 509 346Q542 335 565.5 316Q589 297 602 270Q615 243 615 208Q615 159 593.5 120.5Q572 82 533 55Q494 28 440.5 14Q387 0 323 0H-12ZM258 336 212 119Q210 111 209 103.5Q208 96 208 88Q208 64 229.5 54.5Q251 45 299 45H317Q410 45 462 87Q514 129 514 210Q514 239 505.5 262Q497 285 478 301.5Q459 318 427.5 327Q396 336 350 336ZM326 656 268 381H336Q381 381 420 389.5Q459 398 488 417.5Q517 437 533.5 468.5Q550 500 550 545Q550 599 517.5 627.5Q485 656 411 656Z" glyph-name="B" horiz-adv-x="682" unicode="B" /><glyph d="M342 -10Q276 -10 224 8.5Q172 27 135.5 62.5Q99 98 79.5 149.5Q60 201 60 267Q60 356 91 436.5Q122 517 177 578.5Q232 640 306.5 676Q381 712 468 712Q531 712 586.5 696Q642 680 679 651L649 502H615Q608 587 569 625Q530 663 462 663Q392 663 336.5 628.5Q281 594 243 539Q205 484 184.5 414Q164 344 164 274Q164 159 213 99.5Q262 40 346 40Q386 40 417.5 50.5Q449 61 475.5 83.5Q502 106 526 141Q550 176 575 225H617L570 55Q521 27 466 8.5Q411 -10 342 -10Z" glyph-name="C" horiz-adv-x="666" unicode="C" /><glyph d="M342 -10Q276 -10 224 8.5Q172 27 135.5 62.5Q99 98 79.5 149.5Q60 201 60 267Q60 356 91 436.5Q122 517 177 578.5Q232 640 306.5 676Q381 712 468 712Q531 712 586.5 696Q642 680 679 651L649 502H615Q608 587 569 625Q530 663 462 663Q392 663 336.5 628.5Q281 594 243 539Q205 484 184.5 414Q164 344 164 274Q164 159 213 99.5Q262 40 346 40Q386 40 417.5 50.5Q449 61 475.5 83.5Q502 106 526 141Q550 176 575 225H617L570 55Q521 27 466 8.5Q411 -10 342 -10ZM699 910 517 761H476L567 910Z" glyph-name="Cacute" horiz-adv-x="666" unicode="&#262;" /><glyph d="M342 -10Q276 -10 224 8.5Q172 27 135.5 62.5Q99 98 79.5 149.5Q60 201 60 267Q60 356 91 436.5Q122 517 177 578.5Q232 640 306.5 676Q381 712 468 712Q531 712 586.5 696Q642 680 679 651L649 502H615Q608 587 569 625Q530 663 462 663Q392 663 336.5 628.5Q281 594 243 539Q205 484 184.5 414Q164 344 164 274Q164 159 213 99.5Q262 40 346 40Q386 40 417.5 50.5Q449 61 475.5 83.5Q502 106 526 141Q550 176 575 225H617L570 55Q521 27 466 8.5Q411 -10 342 -10ZM361 920H406L513 831L682 920H729L541 761H467Z" glyph-name="Ccaron" horiz-adv-x="666" unicode="&#268;" /><glyph d="M185 -188Q241 -188 275 -176Q309 -164 309 -139Q309 -118 285.5 -108.5Q262 -99 220 -97L271 -4Q171 14 115.5 84Q60 154 60 267Q60 356 91 436.5Q122 517 177 578.5Q232 640 306.5 676Q381 712 468 712Q531 712 586.5 696Q642 680 679 651L649 502H615Q608 587 569 625Q530 663 462 663Q392 663 336.5 628.5Q281 594 243 539Q205 484 184.5 414Q164 344 164 274Q164 159 213 99.5Q262 40 346 40Q386 40 417.5 50.5Q449 61 475.5 83.5Q502 106 526 141Q550 176 575 225H617L570 55Q521 27 466 8.5Q411 -10 342 -10Q331 -10 321 -9.5Q311 -9 301 -8L280 -48Q327 -49 354 -64Q381 -79 381 -112Q381 -140 365.5 -160.5Q350 -181 324 -194.5Q298 -208 262.5 -214.5Q227 -221 188 -221Z" glyph-name="Ccedilla" horiz-adv-x="666" unicode="&#199;" /><glyph d="M342 -10Q276 -10 224 8.5Q172 27 135.5 62.5Q99 98 79.5 149.5Q60 201 60 267Q60 356 91 436.5Q122 517 177 578.5Q232 640 306.5 676Q381 712 468 712Q531 712 586.5 696Q642 680 679 651L649 502H615Q608 587 569 625Q530 663 462 663Q392 663 336.5 628.5Q281 594 243 539Q205 484 184.5 414Q164 344 164 274Q164 159 213 99.5Q262 40 346 40Q386 40 417.5 50.5Q449 61 475.5 83.5Q502 106 526 141Q550 176 575 225H617L570 55Q521 27 466 8.5Q411 -10 342 -10ZM676 761H631L524 850L355 761H308L496 920H570Z" glyph-name="Ccircumflex" horiz-adv-x="666" unicode="&#264;" /><glyph d="M342 -10Q276 -10 224 8.5Q172 27 135.5 62.5Q99 98 79.5 149.5Q60 201 60 267Q60 356 91 436.5Q122 517 177 578.5Q232 640 306.5 676Q381 712 468 712Q531 712 586.5 696Q642 680 679 651L649 502H615Q608 587 569 625Q530 663 462 663Q392 663 336.5 628.5Q281 594 243 539Q205 484 184.5 414Q164 344 164 274Q164 159 213 99.5Q262 40 346 40Q386 40 417.5 50.5Q449 61 475.5 83.5Q502 106 526 141Q550 176 575 225H617L570 55Q521 27 466 8.5Q411 -10 342 -10ZM514 767Q487 767 469 785.5Q451 804 451 830Q451 859 471.5 880Q492 901 521 901Q548 901 566 882.5Q584 864 584 838Q584 809 563.5 788Q543 767 514 767Z" glyph-name="Cdotaccent" horiz-adv-x="666" unicode="&#266;" /><glyph d="M326 656 215 133Q212 119 211 109Q210 99 210 94Q210 64 227.5 55Q245 46 292 46H298Q363 46 421.5 70.5Q480 95 524.5 142Q569 189 595 257.5Q621 326 621 414Q621 462 610 506Q599 550 573 583.5Q547 617 503.5 636.5Q460 656 395 656ZM-3 39Q22 40 41.5 43Q61 46 75.5 53.5Q90 61 99.5 75Q109 89 114 112L213 575Q218 600 218 612Q218 643 197 652Q176 661 128 663L136 702H411Q496 702 556 679.5Q616 657 654 618Q692 579 709 526.5Q726 474 726 414Q726 324 692 248.5Q658 173 599 117.5Q540 62 460 31Q380 0 287 0H-12Z" glyph-name="D" horiz-adv-x="747" unicode="D" /><glyph d="M326 656 215 133Q212 119 211 109Q210 99 210 94Q210 64 227.5 55Q245 46 292 46H298Q363 46 421.5 70.5Q480 95 524.5 142Q569 189 595 257.5Q621 326 621 414Q621 462 610 506Q599 550 573 583.5Q547 617 503.5 636.5Q460 656 395 656ZM-3 39Q22 40 41.5 43Q61 46 75.5 53.5Q90 61 99.5 75Q109 89 114 112L213 575Q218 600 218 612Q218 643 197 652Q176 661 128 663L136 702H411Q496 702 556 679.5Q616 657 654 618Q692 579 709 526.5Q726 474 726 414Q726 324 692 248.5Q658 173 599 117.5Q540 62 460 31Q380 0 287 0H-12ZM304 920H349L456 831L625 920H672L484 761H410Z" glyph-name="Dcaron" horiz-adv-x="747" unicode="&#270;" /><glyph d="M81 381H181L223 575Q228 600 228 612Q228 643 207 652Q186 661 138 663L146 702H421Q506 702 566 679.5Q626 657 664 618Q702 579 719 526.5Q736 474 736 414Q736 324 702 248.5Q668 173 609 117.5Q550 62 470 31Q390 0 297 0H-2L7 39Q32 40 51.5 43Q71 46 85.5 53.5Q100 61 109.5 75Q119 89 124 112L172 338H72ZM336 656 277 381H453L444 338H268L225 133Q222 119 221 109Q220 99 220 94Q220 64 237.5 55Q255 46 302 46H308Q373 46 431.5 70.5Q490 95 534.5 142Q579 189 605 257.5Q631 326 631 414Q631 462 620 506Q609 550 583 583.5Q557 617 513.5 636.5Q470 656 405 656Z" glyph-name="Dcroat" horiz-adv-x="757" unicode="&#272;" /><glyph d="M-3 39Q22 40 41.5 43Q61 46 75.5 53.5Q90 61 99.5 75Q109 89 114 112L213 575Q218 600 218 612Q218 643 197 652Q176 661 128 663L136 702H693L657 535H630Q623 568 616.5 591Q610 614 598.5 628.5Q587 643 569 649.5Q551 656 520 656H326L268 382H428Q462 382 483 404.5Q504 427 521 472H555L507 246H473Q473 292 462.5 314Q452 336 418 336H258L215 131Q212 117 211 107Q210 97 210 92Q210 64 230.5 55Q251 46 299 46H375Q409 46 434.5 52Q460 58 483.5 73.5Q507 89 531.5 115Q556 141 589 180H618L550 0H-12Z" glyph-name="E" horiz-adv-x="669" unicode="E" /><glyph d="M-3 39Q22 40 41.5 43Q61 46 75.5 53.5Q90 61 99.5 75Q109 89 114 112L213 575Q218 600 218 612Q218 643 197 652Q176 661 128 663L136 702H693L657 535H630Q623 568 616.5 591Q610 614 598.5 628.5Q587 643 569 649.5Q551 656 520 656H326L268 382H428Q462 382 483 404.5Q504 427 521 472H555L507 246H473Q473 292 462.5 314Q452 336 418 336H258L215 131Q212 117 211 107Q210 97 210 92Q210 64 230.5 55Q251 46 299 46H375Q409 46 434.5 52Q460 58 483.5 73.5Q507 89 531.5 115Q556 141 589 180H618L550 0H-12ZM661 910 479 761H438L529 910Z" glyph-name="Eacute" horiz-adv-x="669" unicode="&#201;" /><glyph d="M-3 39Q22 40 41.5 43Q61 46 75.5 53.5Q90 61 99.5 75Q109 89 114 112L213 575Q218 600 218 612Q218 643 197 652Q176 661 128 663L136 702H693L657 535H630Q623 568 616.5 591Q610 614 598.5 628.5Q587 643 569 649.5Q551 656 520 656H326L268 382H428Q462 382 483 404.5Q504 427 521 472H555L507 246H473Q473 292 462.5 314Q452 336 418 336H258L215 131Q212 117 211 107Q210 97 210 92Q210 64 230.5 55Q251 46 299 46H375Q409 46 434.5 52Q460 58 483.5 73.5Q507 89 531.5 115Q556 141 589 180H618L550 0H-12ZM465 758Q408 758 375 789Q342 820 342 879Q342 900 348 926H384Q383 921 383 917.5Q383 914 383 909Q383 864 411.5 844Q440 824 478 824Q519 824 556 848Q593 872 610 926H649Q633 845 583 801.5Q533 758 465 758Z" glyph-name="Ebreve" horiz-adv-x="669" unicode="&#276;" /><glyph d="M-3 39Q22 40 41.5 43Q61 46 75.5 53.5Q90 61 99.5 75Q109 89 114 112L213 575Q218 600 218 612Q218 643 197 652Q176 661 128 663L136 702H693L657 535H630Q623 568 616.5 591Q610 614 598.5 628.5Q587 643 569 649.5Q551 656 520 656H326L268 382H428Q462 382 483 404.5Q504 427 521 472H555L507 246H473Q473 292 462.5 314Q452 336 418 336H258L215 131Q212 117 211 107Q210 97 210 92Q210 64 230.5 55Q251 46 299 46H375Q409 46 434.5 52Q460 58 483.5 73.5Q507 89 531.5 115Q556 141 589 180H618L550 0H-12ZM323 920H368L475 831L644 920H691L503 761H429Z" glyph-name="Ecaron" horiz-adv-x="669" unicode="&#282;" /><glyph d="M-3 39Q22 40 41.5 43Q61 46 75.5 53.5Q90 61 99.5 75Q109 89 114 112L213 575Q218 600 218 612Q218 643 197 652Q176 661 128 663L136 702H693L657 535H630Q623 568 616.5 591Q610 614 598.5 628.5Q587 643 569 649.5Q551 656 520 656H326L268 382H428Q462 382 483 404.5Q504 427 521 472H555L507 246H473Q473 292 462.5 314Q452 336 418 336H258L215 131Q212 117 211 107Q210 97 210 92Q210 64 230.5 55Q251 46 299 46H375Q409 46 434.5 52Q460 58 483.5 73.5Q507 89 531.5 115Q556 141 589 180H618L550 0H-12ZM638 761H593L486 850L317 761H270L458 920H532Z" glyph-name="Ecircumflex" horiz-adv-x="669" unicode="&#202;" /><glyph d="M-3 39Q22 40 41.5 43Q61 46 75.5 53.5Q90 61 99.5 75Q109 89 114 112L213 575Q218 600 218 612Q218 643 197 652Q176 661 128 663L136 702H693L657 535H630Q623 568 616.5 591Q610 614 598.5 628.5Q587 643 569 649.5Q551 656 520 656H326L268 382H428Q462 382 483 404.5Q504 427 521 472H555L507 246H473Q473 292 462.5 314Q452 336 418 336H258L215 131Q212 117 211 107Q210 97 210 92Q210 64 230.5 55Q251 46 299 46H375Q409 46 434.5 52Q460 58 483.5 73.5Q507 89 531.5 115Q556 141 589 180H618L550 0H-12ZM383 770Q357 770 341 786.5Q325 803 325 828Q325 854 343.5 873Q362 892 388 892Q414 892 430 875.5Q446 859 446 834Q446 808 427.5 789Q409 770 383 770ZM569 770Q543 770 527 786.5Q511 803 511 828Q511 854 529.5 873Q548 892 574 892Q600 892 616 875.5Q632 859 632 834Q632 808 613.5 789Q595 770 569 770Z" glyph-name="Edieresis" horiz-adv-x="669" unicode="&#203;" /><glyph d="M-3 39Q22 40 41.5 43Q61 46 75.5 53.5Q90 61 99.5 75Q109 89 114 112L213 575Q218 600 218 612Q218 643 197 652Q176 661 128 663L136 702H693L657 535H630Q623 568 616.5 591Q610 614 598.5 628.5Q587 643 569 649.5Q551 656 520 656H326L268 382H428Q462 382 483 404.5Q504 427 521 472H555L507 246H473Q473 292 462.5 314Q452 336 418 336H258L215 131Q212 117 211 107Q210 97 210 92Q210 64 230.5 55Q251 46 299 46H375Q409 46 434.5 52Q460 58 483.5 73.5Q507 89 531.5 115Q556 141 589 180H618L550 0H-12ZM476 767Q449 767 431 785.5Q413 804 413 830Q413 859 433.5 880Q454 901 483 901Q510 901 528 882.5Q546 864 546 838Q546 809 525.5 788Q505 767 476 767Z" glyph-name="Edotaccent" horiz-adv-x="669" unicode="&#278;" /><glyph d="M-3 39Q22 40 41.5 43Q61 46 75.5 53.5Q90 61 99.5 75Q109 89 114 112L213 575Q218 600 218 612Q218 643 197 652Q176 661 128 663L136 702H693L657 535H630Q623 568 616.5 591Q610 614 598.5 628.5Q587 643 569 649.5Q551 656 520 656H326L268 382H428Q462 382 483 404.5Q504 427 521 472H555L507 246H473Q473 292 462.5 314Q452 336 418 336H258L215 131Q212 117 211 107Q210 97 210 92Q210 64 230.5 55Q251 46 299 46H375Q409 46 434.5 52Q460 58 483.5 73.5Q507 89 531.5 115Q556 141 589 180H618L550 0H-12ZM437 910 493 761H453L315 910Z" glyph-name="Egrave" horiz-adv-x="669" unicode="&#200;" /><glyph d="M-3 39Q22 40 41.5 43Q61 46 75.5 53.5Q90 61 99.5 75Q109 89 114 112L213 575Q218 600 218 612Q218 643 197 652Q176 661 128 663L136 702H693L657 535H630Q623 568 616.5 591Q610 614 598.5 628.5Q587 643 569 649.5Q551 656 520 656H326L268 382H428Q462 382 483 404.5Q504 427 521 472H555L507 246H473Q473 292 462.5 314Q452 336 418 336H258L215 131Q212 117 211 107Q210 97 210 92Q210 64 230.5 55Q251 46 299 46H375Q409 46 434.5 52Q460 58 483.5 73.5Q507 89 531.5 115Q556 141 589 180H618L550 0H-12ZM340 845H622L608 783H326Z" glyph-name="Emacron" horiz-adv-x="669" unicode="&#274;" /><glyph d="M636 96Q622 28 602 -28Q582 -84 555 -123.5Q528 -163 493.5 -185Q459 -207 415 -207Q375 -207 350 -191Q325 -175 325 -146Q325 -116 342 -103.5Q359 -91 378 -86H392Q400 -124 413.5 -144Q427 -164 451 -164Q476 -164 493.5 -129Q511 -94 526 -29L545 53L267 555L177 127Q172 102 172 90Q172 59 193 50Q214 41 262 39L254 0H-12L-3 39Q22 40 41.5 43Q61 46 75.5 53.5Q90 61 99.5 75Q109 89 114 112L220 606Q208 624 199 635Q190 646 180.5 652Q171 658 158.5 660.5Q146 663 127 663L136 702H295L589 157L678 575Q683 600 683 612Q683 643 662 652Q641 661 593 663L601 702H866L857 663Q832 662 812.5 659Q793 656 778.5 648.5Q764 641 754.5 627Q745 613 740 590Z" glyph-name="Eng" horiz-adv-x="793" unicode="&#330;" /><glyph d="M-3 39Q22 40 41.5 43Q61 46 75.5 53.5Q90 61 99.5 75Q109 89 114 112L213 575Q218 600 218 612Q218 643 197 652Q176 661 128 663L136 702H693L657 535H630Q623 568 616.5 591Q610 614 598.5 628.5Q587 643 569 649.5Q551 656 520 656H326L268 382H428Q462 382 483 404.5Q504 427 521 472H555L507 246H473Q473 292 462.5 314Q452 336 418 336H258L215 131Q212 117 211 107Q210 97 210 92Q210 64 230.5 55Q251 46 299 46H375Q409 46 434.5 52Q460 58 483.5 73.5Q507 89 531.5 115Q556 141 589 180H618L550 0H463Q440 -12 418 -25Q396 -38 378.5 -53Q361 -68 350.5 -84.5Q340 -101 340 -119Q340 -135 351 -145Q362 -155 384 -155Q408 -155 432 -141Q456 -127 482 -108L495 -127Q483 -140 467 -154.5Q451 -169 432 -181.5Q413 -194 392.5 -202Q372 -210 351 -210Q316 -210 294 -192.5Q272 -175 272 -142Q272 -118 282 -98Q292 -78 309.5 -60.5Q327 -43 350.5 -28.5Q374 -14 401 0H-12Z" glyph-name="Eogonek" horiz-adv-x="669" unicode="&#280;" /><glyph d="M81 381H181L223 575Q228 600 228 612Q228 643 207 652Q186 661 138 663L146 702H421Q506 702 566 679.5Q626 657 664 618Q702 579 719 526.5Q736 474 736 414Q736 324 702 248.5Q668 173 609 117.5Q550 62 470 31Q390 0 297 0H-2L7 39Q32 40 51.5 43Q71 46 85.5 53.5Q100 61 109.5 75Q119 89 124 112L172 338H72ZM336 656 277 381H453L444 338H268L225 133Q222 119 221 109Q220 99 220 94Q220 64 237.5 55Q255 46 302 46H308Q373 46 431.5 70.5Q490 95 534.5 142Q579 189 605 257.5Q631 326 631 414Q631 462 620 506Q609 550 583 583.5Q557 617 513.5 636.5Q470 656 405 656Z" glyph-name="Eth" horiz-adv-x="757" unicode="&#208;" /><glyph d="M57 427H142Q161 487 193.5 539Q226 591 269 629Q312 667 363.5 689Q415 711 474 711Q530 711 580 695Q630 679 663 650L639 501H604Q596 586 563 624Q530 662 469 662Q424 662 388 643.5Q352 625 324 593Q296 561 276 518.5Q256 476 244 427H534L511 384H235Q232 367 230 349Q228 331 227 314H479L456 271H225V262Q225 147 260 93.5Q295 40 370 40Q406 40 434 49Q462 58 485.5 79Q509 100 530 134Q551 168 572 217H614L575 47Q531 19 480 4.5Q429 -10 367 -10Q250 -10 183 57.5Q116 125 116 261V271H26L35 314H118Q123 351 130 384H48Z" glyph-name="Euro" horiz-adv-x="682" unicode="&#8364;" /><glyph d="M-3 39Q22 40 41.5 43Q61 46 75.5 53.5Q90 61 99.5 75Q109 89 114 112L213 575Q218 600 218 612Q218 643 197 652Q176 661 128 663L136 702H669L632 529H605Q598 562 591.5 585.5Q585 609 574 625Q563 641 545 648.5Q527 656 496 656H327L265 367H401Q435 367 455.5 389.5Q476 412 493 457H527L480 231H446Q446 276 435.5 298.5Q425 321 391 321H255L215 132Q213 121 211 109.5Q209 98 209 92Q209 75 217 65Q225 55 240 49.5Q255 44 276.5 42Q298 40 325 39L318 0H-12Z" glyph-name="F" horiz-adv-x="612" unicode="F" /><glyph d="M60 269Q60 356 92.5 436Q125 516 181 577.5Q237 639 313 675.5Q389 712 476 712Q539 712 594.5 696Q650 680 687 651L657 502H623Q616 587 577 625Q538 663 470 663Q400 663 343.5 628.5Q287 594 247 538.5Q207 483 185.5 412.5Q164 342 164 270Q164 213 178.5 170Q193 127 218.5 98Q244 69 279 54.5Q314 40 356 40Q400 40 432 49Q464 58 496 77L529 210Q535 235 535 247Q535 278 513.5 287Q492 296 444 298L452 337H737L729 298Q704 297 686.5 294Q669 291 656.5 283.5Q644 276 636.5 262Q629 248 623 225L583 59Q526 27 471.5 8.5Q417 -10 352 -10Q286 -10 232.5 7.5Q179 25 140.5 60Q102 95 81 147.5Q60 200 60 269Z" glyph-name="G" horiz-adv-x="730" unicode="G" /><glyph d="M60 269Q60 356 92.5 436Q125 516 181 577.5Q237 639 313 675.5Q389 712 476 712Q539 712 594.5 696Q650 680 687 651L657 502H623Q616 587 577 625Q538 663 470 663Q400 663 343.5 628.5Q287 594 247 538.5Q207 483 185.5 412.5Q164 342 164 270Q164 213 178.5 170Q193 127 218.5 98Q244 69 279 54.5Q314 40 356 40Q400 40 432 49Q464 58 496 77L529 210Q535 235 535 247Q535 278 513.5 287Q492 296 444 298L452 337H737L729 298Q704 297 686.5 294Q669 291 656.5 283.5Q644 276 636.5 262Q629 248 623 225L583 59Q526 27 471.5 8.5Q417 -10 352 -10Q286 -10 232.5 7.5Q179 25 140.5 60Q102 95 81 147.5Q60 200 60 269ZM498 758Q441 758 408 789Q375 820 375 879Q375 900 381 926H417Q416 921 416 917.5Q416 914 416 909Q416 864 444.5 844Q473 824 511 824Q552 824 589 848Q626 872 643 926H682Q666 845 616 801.5Q566 758 498 758Z" glyph-name="Gbreve" horiz-adv-x="730" unicode="&#286;" /><glyph d="M60 269Q60 356 92.5 436Q125 516 181 577.5Q237 639 313 675.5Q389 712 476 712Q539 712 594.5 696Q650 680 687 651L657 502H623Q616 587 577 625Q538 663 470 663Q400 663 343.5 628.5Q287 594 247 538.5Q207 483 185.5 412.5Q164 342 164 270Q164 213 178.5 170Q193 127 218.5 98Q244 69 279 54.5Q314 40 356 40Q400 40 432 49Q464 58 496 77L529 210Q535 235 535 247Q535 278 513.5 287Q492 296 444 298L452 337H737L729 298Q704 297 686.5 294Q669 291 656.5 283.5Q644 276 636.5 262Q629 248 623 225L583 59Q526 27 471.5 8.5Q417 -10 352 -10Q286 -10 232.5 7.5Q179 25 140.5 60Q102 95 81 147.5Q60 200 60 269ZM671 761H626L519 850L350 761H303L491 920H565Z" glyph-name="Gcircumflex" horiz-adv-x="730" unicode="&#284;" /><glyph d="M60 269Q60 356 92.5 436Q125 516 181 577.5Q237 639 313 675.5Q389 712 476 712Q539 712 594.5 696Q650 680 687 651L657 502H623Q616 587 577 625Q538 663 470 663Q400 663 343.5 628.5Q287 594 247 538.5Q207 483 185.5 412.5Q164 342 164 270Q164 213 178.5 170Q193 127 218.5 98Q244 69 279 54.5Q314 40 356 40Q400 40 432 49Q464 58 496 77L529 210Q535 235 535 247Q535 278 513.5 287Q492 296 444 298L452 337H737L729 298Q704 297 686.5 294Q669 291 656.5 283.5Q644 276 636.5 262Q629 248 623 225L583 59Q526 27 471.5 8.5Q417 -10 352 -10Q286 -10 232.5 7.5Q179 25 140.5 60Q102 95 81 147.5Q60 200 60 269ZM276 -153Q258 -149 250.5 -138Q243 -127 243 -114Q243 -85 264 -68.5Q285 -52 316 -52Q347 -52 363 -69Q379 -86 379 -116Q379 -139 369.5 -160Q360 -181 341.5 -196.5Q323 -212 295 -221Q267 -230 231 -230L238 -197Q313 -197 322 -153Z" glyph-name="Gcommaaccent" horiz-adv-x="730" unicode="&#290;" /><glyph d="M60 269Q60 356 92.5 436Q125 516 181 577.5Q237 639 313 675.5Q389 712 476 712Q539 712 594.5 696Q650 680 687 651L657 502H623Q616 587 577 625Q538 663 470 663Q400 663 343.5 628.5Q287 594 247 538.5Q207 483 185.5 412.5Q164 342 164 270Q164 213 178.5 170Q193 127 218.5 98Q244 69 279 54.5Q314 40 356 40Q400 40 432 49Q464 58 496 77L529 210Q535 235 535 247Q535 278 513.5 287Q492 296 444 298L452 337H737L729 298Q704 297 686.5 294Q669 291 656.5 283.5Q644 276 636.5 262Q629 248 623 225L583 59Q526 27 471.5 8.5Q417 -10 352 -10Q286 -10 232.5 7.5Q179 25 140.5 60Q102 95 81 147.5Q60 200 60 269ZM509 767Q482 767 464 785.5Q446 804 446 830Q446 859 466.5 880Q487 901 516 901Q543 901 561 882.5Q579 864 579 838Q579 809 558.5 788Q538 767 509 767Z" glyph-name="Gdotaccent" horiz-adv-x="730" unicode="&#288;" /><glyph d="M677 127Q672 102 672 90Q672 59 693 50Q714 41 762 39L754 0H451L460 39Q485 40 504.5 43Q524 46 538.5 53.5Q553 61 562.5 75Q572 89 577 112L625 336H258L214 127Q209 102 209 90Q209 59 230 50Q251 41 299 39L291 0H-12L-3 39Q22 40 41.5 43Q61 46 75.5 53.5Q90 61 99.5 75Q109 89 114 112L213 575Q218 600 218 612Q218 643 197 652Q176 661 128 663L136 702H439L430 663Q405 662 385.5 659Q366 656 351.5 648.5Q337 641 327.5 627Q318 613 313 590L268 382H635L676 575Q681 600 681 612Q681 643 660 652Q639 661 591 663L599 702H902L893 663Q868 662 848.5 659Q829 656 814.5 648.5Q800 641 790.5 627Q781 613 776 590Z" glyph-name="H" horiz-adv-x="845" unicode="H" /><glyph d="M111 531H213L223 575Q228 600 228 612Q228 643 207 652Q186 661 138 663L146 702H449L440 663Q415 662 395.5 659Q376 656 361.5 648.5Q347 641 337.5 627Q328 613 323 590L310 531H676L686 575Q691 600 691 612Q691 643 670 652Q649 661 601 663L609 702H912L903 663Q878 662 858.5 659Q839 656 824.5 648.5Q810 641 800.5 627Q791 613 786 590L773 531H878L868 488H764L687 127Q682 102 682 90Q682 59 703 50Q724 41 772 39L764 0H461L470 39Q495 40 514.5 43Q534 46 548.5 53.5Q563 61 572.5 75Q582 89 587 112L633 326H266L224 127Q219 102 219 90Q219 59 240 50Q261 41 309 39L301 0H-2L7 39Q32 40 51.5 43Q71 46 85.5 53.5Q100 61 109.5 75Q119 89 124 112L204 488H101ZM276 372H643L667 488H301Z" glyph-name="Hbar" horiz-adv-x="865" unicode="&#294;" /><glyph d="M677 127Q672 102 672 90Q672 59 693 50Q714 41 762 39L754 0H451L460 39Q485 40 504.5 43Q524 46 538.5 53.5Q553 61 562.5 75Q572 89 577 112L625 336H258L214 127Q209 102 209 90Q209 59 230 50Q251 41 299 39L291 0H-12L-3 39Q22 40 41.5 43Q61 46 75.5 53.5Q90 61 99.5 75Q109 89 114 112L213 575Q218 600 218 612Q218 643 197 652Q176 661 128 663L136 702H439L430 663Q405 662 385.5 659Q366 656 351.5 648.5Q337 641 327.5 627Q318 613 313 590L268 382H635L676 575Q681 600 681 612Q681 643 660 652Q639 661 591 663L599 702H902L893 663Q868 662 848.5 659Q829 656 814.5 648.5Q800 641 790.5 627Q781 613 776 590ZM707 761H662L555 850L386 761H339L527 920H601Z" glyph-name="Hcircumflex" horiz-adv-x="845" unicode="&#292;" /><glyph d="M214 127Q209 102 209 90Q209 59 230 50Q251 41 299 39L291 0H-12L-3 39Q22 40 41.5 43Q61 46 75.5 53.5Q90 61 99.5 75Q109 89 114 112L213 575Q218 600 218 612Q218 643 197 652Q176 661 128 663L136 702H439L430 663Q405 662 385.5 659Q366 656 351.5 648.5Q337 641 327.5 627Q318 613 313 590Z" glyph-name="I" horiz-adv-x="382" unicode="I" /><glyph d="M214 127Q209 102 209 90Q209 59 230 50Q251 41 299 39L291 0H-12L-3 39Q22 40 41.5 43Q61 46 75.5 53.5Q90 61 99.5 75Q109 89 114 112L213 575Q218 600 218 612Q218 643 197 652Q176 661 128 663L136 702H439L430 663Q405 662 385.5 659Q366 656 351.5 648.5Q337 641 327.5 627Q318 613 313 590ZM498 910 316 761H275L366 910Z" glyph-name="Iacute" horiz-adv-x="382" unicode="&#205;" /><glyph d="M214 127Q209 102 209 90Q209 59 230 50Q251 41 299 39L291 0H-12L-3 39Q22 40 41.5 43Q61 46 75.5 53.5Q90 61 99.5 75Q109 89 114 112L213 575Q218 600 218 612Q218 643 197 652Q176 661 128 663L136 702H439L430 663Q405 662 385.5 659Q366 656 351.5 648.5Q337 641 327.5 627Q318 613 313 590ZM302 758Q245 758 212 789Q179 820 179 879Q179 900 185 926H221Q220 921 220 917.5Q220 914 220 909Q220 864 248.5 844Q277 824 315 824Q356 824 393 848Q430 872 447 926H486Q470 845 420 801.5Q370 758 302 758Z" glyph-name="Ibreve" horiz-adv-x="382" unicode="&#300;" /><glyph d="M214 127Q209 102 209 90Q209 59 230 50Q251 41 299 39L291 0H-12L-3 39Q22 40 41.5 43Q61 46 75.5 53.5Q90 61 99.5 75Q109 89 114 112L213 575Q218 600 218 612Q218 643 197 652Q176 661 128 663L136 702H439L430 663Q405 662 385.5 659Q366 656 351.5 648.5Q337 641 327.5 627Q318 613 313 590ZM475 761H430L323 850L154 761H107L295 920H369Z" glyph-name="Icircumflex" horiz-adv-x="382" unicode="&#206;" /><glyph d="M214 127Q209 102 209 90Q209 59 230 50Q251 41 299 39L291 0H-12L-3 39Q22 40 41.5 43Q61 46 75.5 53.5Q90 61 99.5 75Q109 89 114 112L213 575Q218 600 218 612Q218 643 197 652Q176 661 128 663L136 702H439L430 663Q405 662 385.5 659Q366 656 351.5 648.5Q337 641 327.5 627Q318 613 313 590ZM220 770Q194 770 178 786.5Q162 803 162 828Q162 854 180.5 873Q199 892 225 892Q251 892 267 875.5Q283 859 283 834Q283 808 264.5 789Q246 770 220 770ZM406 770Q380 770 364 786.5Q348 803 348 828Q348 854 366.5 873Q385 892 411 892Q437 892 453 875.5Q469 859 469 834Q469 808 450.5 789Q432 770 406 770Z" glyph-name="Idieresis" horiz-adv-x="382" unicode="&#207;" /><glyph d="M214 127Q209 102 209 90Q209 59 230 50Q251 41 299 39L291 0H-12L-3 39Q22 40 41.5 43Q61 46 75.5 53.5Q90 61 99.5 75Q109 89 114 112L213 575Q218 600 218 612Q218 643 197 652Q176 661 128 663L136 702H439L430 663Q405 662 385.5 659Q366 656 351.5 648.5Q337 641 327.5 627Q318 613 313 590ZM313 767Q286 767 268 785.5Q250 804 250 830Q250 859 270.5 880Q291 901 320 901Q347 901 365 882.5Q383 864 383 838Q383 809 362.5 788Q342 767 313 767Z" glyph-name="Idotaccent" horiz-adv-x="382" unicode="&#304;" /><glyph d="M214 127Q209 102 209 90Q209 59 230 50Q251 41 299 39L291 0H-12L-3 39Q22 40 41.5 43Q61 46 75.5 53.5Q90 61 99.5 75Q109 89 114 112L213 575Q218 600 218 612Q218 643 197 652Q176 661 128 663L136 702H439L430 663Q405 662 385.5 659Q366 656 351.5 648.5Q337 641 327.5 627Q318 613 313 590ZM274 910 330 761H290L152 910Z" glyph-name="Igrave" horiz-adv-x="382" unicode="&#204;" /><glyph d="M214 127Q209 102 209 90Q209 59 230 50Q251 41 299 39L291 0H-12L-3 39Q22 40 41.5 43Q61 46 75.5 53.5Q90 61 99.5 75Q109 89 114 112L213 575Q218 600 218 612Q218 643 197 652Q176 661 128 663L136 702H439L430 663Q405 662 385.5 659Q366 656 351.5 648.5Q337 641 327.5 627Q318 613 313 590ZM177 845H459L445 783H163Z" glyph-name="Imacron" horiz-adv-x="382" unicode="&#298;" /><glyph d="M214 127Q209 102 209 90Q209 59 230 50Q251 41 299 39L291 0H200Q177 -12 155 -25Q133 -38 115.5 -53Q98 -68 87.5 -84.5Q77 -101 77 -119Q77 -135 88 -145Q99 -155 121 -155Q145 -155 169 -141Q193 -127 219 -108L232 -127Q220 -140 204 -154.5Q188 -169 169 -181.5Q150 -194 129.5 -202Q109 -210 88 -210Q53 -210 31 -192.5Q9 -175 9 -142Q9 -118 19 -98Q29 -78 46.5 -60.5Q64 -43 87.5 -28.5Q111 -14 138 0H-12L-3 39Q22 40 41.5 43Q61 46 75.5 53.5Q90 61 99.5 75Q109 89 114 112L213 575Q218 600 218 612Q218 643 197 652Q176 661 128 663L136 702H439L430 663Q405 662 385.5 659Q366 656 351.5 648.5Q337 641 327.5 627Q318 613 313 590Z" glyph-name="Iogonek" horiz-adv-x="382" unicode="&#302;" /><glyph d="M214 127Q209 102 209 90Q209 59 230 50Q251 41 299 39L291 0H-12L-3 39Q22 40 41.5 43Q61 46 75.5 53.5Q90 61 99.5 75Q109 89 114 112L213 575Q218 600 218 612Q218 643 197 652Q176 661 128 663L136 702H439L430 663Q405 662 385.5 659Q366 656 351.5 648.5Q337 641 327.5 627Q318 613 313 590ZM497 880Q478 843 462.5 819.5Q447 796 433 783Q419 770 404.5 765Q390 760 372 760Q349 760 331.5 771Q314 782 298.5 795.5Q283 809 269 820.5Q255 832 239 832Q216 832 202.5 816.5Q189 801 171 770L134 780Q153 817 168.5 840.5Q184 864 198 877Q212 890 226.5 895Q241 900 259 900Q281 900 299 888.5Q317 877 332.5 863.5Q348 850 362 839Q376 828 392 828Q415 828 428.5 843.5Q442 859 461 890Z" glyph-name="Itilde" horiz-adv-x="382" unicode="&#296;" /><glyph d="M360 575Q365 600 365 612Q365 643 344 652Q323 661 275 663L283 702H586L577 663Q552 662 532.5 659Q513 656 498.5 648.5Q484 641 474.5 627Q465 613 460 590L375 189Q352 82 291.5 36Q231 -10 138 -10Q94 -10 63 -1Q32 8 13 24Q-6 40 -14.5 61Q-23 82 -23 105Q-23 131 -10.5 150.5Q2 170 17 179H90Q82 162 79 145Q76 128 76 114Q76 72 95 52.5Q114 33 147 33Q170 33 189.5 39.5Q209 46 225.5 61.5Q242 77 254.5 104Q267 131 276 173Z" glyph-name="J" horiz-adv-x="501" unicode="J" /><glyph d="M360 575Q365 600 365 612Q365 643 344 652Q323 661 275 663L283 702H586L577 663Q552 662 532.5 659Q513 656 498.5 648.5Q484 641 474.5 627Q465 613 460 590L375 189Q352 82 291.5 36Q231 -10 138 -10Q94 -10 63 -1Q32 8 13 24Q-6 40 -14.5 61Q-23 82 -23 105Q-23 131 -10.5 150.5Q2 170 17 179H90Q82 162 79 145Q76 128 76 114Q76 72 95 52.5Q114 33 147 33Q170 33 189.5 39.5Q209 46 225.5 61.5Q242 77 254.5 104Q267 131 276 173ZM619 761H574L467 850L298 761H251L439 920H513Z" glyph-name="Jcircumflex" horiz-adv-x="501" unicode="&#308;" /><glyph d="M545 118Q560 96 573 81Q586 66 600 56.5Q614 47 631.5 43Q649 39 672 39L665 0H519Q496 20 475.5 48Q455 76 427 119L274 357L566 598Q595 623 597 637Q597 651 573.5 656Q550 661 520 663L529 702H784L775 663Q739 661 712 649.5Q685 638 654 612L372 382ZM214 127Q209 102 209 90Q209 59 230 50Q251 41 299 39L291 0H-12L-3 39Q22 40 41.5 43Q61 46 75.5 53.5Q90 61 99.5 75Q109 89 114 112L213 575Q218 600 218 612Q218 643 197 652Q176 661 128 663L136 702H439L430 663Q405 662 385.5 659Q366 656 351.5 648.5Q337 641 327.5 627Q318 613 313 590Z" glyph-name="K" horiz-adv-x="715" unicode="K" /><glyph d="M545 118Q560 96 573 81Q586 66 600 56.5Q614 47 631.5 43Q649 39 672 39L665 0H519Q496 20 475.5 48Q455 76 427 119L274 357L566 598Q595 623 597 637Q597 651 573.5 656Q550 661 520 663L529 702H784L775 663Q739 661 712 649.5Q685 638 654 612L372 382ZM214 127Q209 102 209 90Q209 59 230 50Q251 41 299 39L291 0H-12L-3 39Q22 40 41.5 43Q61 46 75.5 53.5Q90 61 99.5 75Q109 89 114 112L213 575Q218 600 218 612Q218 643 197 652Q176 661 128 663L136 702H439L430 663Q405 662 385.5 659Q366 656 351.5 648.5Q337 641 327.5 627Q318 613 313 590ZM295 -153Q277 -149 269.5 -138Q262 -127 262 -114Q262 -85 283 -68.5Q304 -52 335 -52Q366 -52 382 -69Q398 -86 398 -116Q398 -139 388.5 -160Q379 -181 360.5 -196.5Q342 -212 314 -221Q286 -230 250 -230L257 -197Q332 -197 341 -153Z" glyph-name="Kcommaaccent" horiz-adv-x="715" unicode="&#310;" /><glyph d="M214 127Q209 102 209 93Q209 65 230 55.5Q251 46 299 46H348Q382 46 408 54.5Q434 63 458 81.5Q482 100 505.5 128Q529 156 559 195H592L519 0H-12L-3 39Q22 40 41.5 43Q61 46 75.5 53.5Q90 61 99.5 75Q109 89 114 112L213 575Q218 600 218 612Q218 643 197 652Q176 661 128 663L136 702H439L430 663Q405 662 385.5 659Q366 656 351.5 648.5Q337 641 327.5 627Q318 613 313 590Z" glyph-name="L" horiz-adv-x="617" unicode="L" /><glyph d="M214 127Q209 102 209 93Q209 65 230 55.5Q251 46 299 46H348Q382 46 408 54.5Q434 63 458 81.5Q482 100 505.5 128Q529 156 559 195H592L519 0H-12L-3 39Q22 40 41.5 43Q61 46 75.5 53.5Q90 61 99.5 75Q109 89 114 112L213 575Q218 600 218 612Q218 643 197 652Q176 661 128 663L136 702H439L430 663Q405 662 385.5 659Q366 656 351.5 648.5Q337 641 327.5 627Q318 613 313 590ZM511 910 329 761H288L379 910Z" glyph-name="Lacute" horiz-adv-x="617" unicode="&#313;" /><glyph d="M214 127Q209 102 209 93Q209 65 230 55.5Q251 46 299 46H348Q382 46 408 54.5Q434 63 458 81.5Q482 100 505.5 128Q529 156 559 195H592L519 0H-12L-3 39Q22 40 41.5 43Q61 46 75.5 53.5Q90 61 99.5 75Q109 89 114 112L213 575Q218 600 218 612Q218 643 197 652Q176 661 128 663L136 702H439L430 663Q405 662 385.5 659Q366 656 351.5 648.5Q337 641 327.5 627Q318 613 313 590ZM517 497H482L542 702H644Z" glyph-name="Lcaron" horiz-adv-x="617" unicode="&#317;" /><glyph d="M214 127Q209 102 209 93Q209 65 230 55.5Q251 46 299 46H348Q382 46 408 54.5Q434 63 458 81.5Q482 100 505.5 128Q529 156 559 195H592L519 0H-12L-3 39Q22 40 41.5 43Q61 46 75.5 53.5Q90 61 99.5 75Q109 89 114 112L213 575Q218 600 218 612Q218 643 197 652Q176 661 128 663L136 702H439L430 663Q405 662 385.5 659Q366 656 351.5 648.5Q337 641 327.5 627Q318 613 313 590ZM220 -153Q202 -149 194.5 -138Q187 -127 187 -114Q187 -85 208 -68.5Q229 -52 260 -52Q291 -52 307 -69Q323 -86 323 -116Q323 -139 313.5 -160Q304 -181 285.5 -196.5Q267 -212 239 -221Q211 -230 175 -230L182 -197Q257 -197 266 -153Z" glyph-name="Lcommaaccent" horiz-adv-x="617" unicode="&#315;" /><glyph d="M214 127Q209 102 209 93Q209 65 230 55.5Q251 46 299 46H348Q382 46 408 54.5Q434 63 458 81.5Q482 100 505.5 128Q529 156 559 195H592L519 0H-12L-3 39Q22 40 41.5 43Q61 46 75.5 53.5Q90 61 99.5 75Q109 89 114 112L213 575Q218 600 218 612Q218 643 197 652Q176 661 128 663L136 702H439L430 663Q405 662 385.5 659Q366 656 351.5 648.5Q337 641 327.5 627Q318 613 313 590ZM537 313Q510 313 492 331.5Q474 350 474 376Q474 405 494.5 426Q515 447 544 447Q571 447 589 428.5Q607 410 607 384Q607 355 586.5 334Q566 313 537 313Z" glyph-name="Ldot" horiz-adv-x="617" unicode="&#319;" /><glyph d="M285 405 435 473 423 424 275 357 226 127Q221 102 221 93Q221 65 242 55.5Q263 46 311 46H360Q394 46 420 54.5Q446 63 470 81.5Q494 100 517.5 128Q541 156 571 195H604L531 0H0L9 39Q34 40 53.5 43Q73 46 87.5 53.5Q102 61 111.5 75Q121 89 126 112L169 312L58 262L70 311L179 360L225 575Q230 600 230 612Q230 643 209 652Q188 661 140 663L148 702H451L442 663Q417 662 397.5 659Q378 656 363.5 648.5Q349 641 339.5 627Q330 613 325 590Z" glyph-name="Lslash" horiz-adv-x="629" unicode="&#321;" /><glyph d="M756 550 427 0H397L295 557L140 127Q135 115 133.5 105Q132 95 132 87Q132 60 152 50.5Q172 41 216 39L209 0H-32L-24 39Q19 40 40 52Q61 64 74 99L259 604Q259 621 256 632Q253 643 244.5 650Q236 657 221 659.5Q206 662 183 663L192 702H368Q368 688 368.5 674.5Q369 661 372 646L458 140L756 646Q765 662 771.5 673.5Q778 685 784 702H963L954 663Q904 661 883 645.5Q862 630 854 590L815 99Q812 64 828 52Q844 40 887 39L880 0H602L609 39Q633 40 652.5 43.5Q672 47 687 56Q702 65 711 82Q720 99 723 127Z" glyph-name="M" horiz-adv-x="948" unicode="M" /><glyph d="M678 575Q683 600 683 612Q683 643 662 652Q641 661 593 663L601 702H866L857 663Q832 662 812.5 659Q793 656 778.5 648.5Q764 641 754.5 627Q745 613 740 590L616 0H574L267 555L177 127Q172 102 172 90Q172 59 193 50Q214 41 262 39L254 0H-12L-3 39Q22 40 41.5 43Q61 46 75.5 53.5Q90 61 99.5 75Q109 89 114 112L220 606Q208 624 199 635Q190 646 180.5 652Q171 658 158.5 660.5Q146 663 127 663L136 702H295L589 157Z" glyph-name="N" horiz-adv-x="793" unicode="N" /><glyph glyph-name="NULL" horiz-adv-x="0" /><glyph d="M678 575Q683 600 683 612Q683 643 662 652Q641 661 593 663L601 702H866L857 663Q832 662 812.5 659Q793 656 778.5 648.5Q764 641 754.5 627Q745 613 740 590L616 0H574L267 555L177 127Q172 102 172 90Q172 59 193 50Q214 41 262 39L254 0H-12L-3 39Q22 40 41.5 43Q61 46 75.5 53.5Q90 61 99.5 75Q109 89 114 112L220 606Q208 624 199 635Q190 646 180.5 652Q171 658 158.5 660.5Q146 663 127 663L136 702H295L589 157ZM710 910 528 761H487L578 910Z" glyph-name="Nacute" horiz-adv-x="793" unicode="&#323;" /><glyph d="M678 575Q683 600 683 612Q683 643 662 652Q641 661 593 663L601 702H866L857 663Q832 662 812.5 659Q793 656 778.5 648.5Q764 641 754.5 627Q745 613 740 590L616 0H574L267 555L177 127Q172 102 172 90Q172 59 193 50Q214 41 262 39L254 0H-12L-3 39Q22 40 41.5 43Q61 46 75.5 53.5Q90 61 99.5 75Q109 89 114 112L220 606Q208 624 199 635Q190 646 180.5 652Q171 658 158.5 660.5Q146 663 127 663L136 702H295L589 157ZM372 920H417L524 831L693 920H740L552 761H478Z" glyph-name="Ncaron" horiz-adv-x="793" unicode="&#327;" /><glyph d="M678 575Q683 600 683 612Q683 643 662 652Q641 661 593 663L601 702H866L857 663Q832 662 812.5 659Q793 656 778.5 648.5Q764 641 754.5 627Q745 613 740 590L616 0H574L267 555L177 127Q172 102 172 90Q172 59 193 50Q214 41 262 39L254 0H-12L-3 39Q22 40 41.5 43Q61 46 75.5 53.5Q90 61 99.5 75Q109 89 114 112L220 606Q208 624 199 635Q190 646 180.5 652Q171 658 158.5 660.5Q146 663 127 663L136 702H295L589 157ZM311 -153Q293 -149 285.5 -138Q278 -127 278 -114Q278 -85 299 -68.5Q320 -52 351 -52Q382 -52 398 -69Q414 -86 414 -116Q414 -139 404.5 -160Q395 -181 376.5 -196.5Q358 -212 330 -221Q302 -230 266 -230L273 -197Q348 -197 357 -153Z" glyph-name="Ncommaaccent" horiz-adv-x="793" unicode="&#325;" /><glyph d="M678 575Q683 600 683 612Q683 643 662 652Q641 661 593 663L601 702H866L857 663Q832 662 812.5 659Q793 656 778.5 648.5Q764 641 754.5 627Q745 613 740 590L616 0H574L267 555L177 127Q172 102 172 90Q172 59 193 50Q214 41 262 39L254 0H-12L-3 39Q22 40 41.5 43Q61 46 75.5 53.5Q90 61 99.5 75Q109 89 114 112L220 606Q208 624 199 635Q190 646 180.5 652Q171 658 158.5 660.5Q146 663 127 663L136 702H295L589 157ZM686 880Q667 843 651.5 819.5Q636 796 622 783Q608 770 593.5 765Q579 760 561 760Q538 760 520.5 771Q503 782 487.5 795.5Q472 809 458 820.5Q444 832 428 832Q405 832 391.5 816.5Q378 801 360 770L323 780Q342 817 357.5 840.5Q373 864 387 877Q401 890 415.5 895Q430 900 448 900Q470 900 488 888.5Q506 877 521.5 863.5Q537 850 551 839Q565 828 581 828Q604 828 617.5 843.5Q631 859 650 890Z" glyph-name="Ntilde" horiz-adv-x="793" unicode="&#209;" /><glyph d="M323 42Q385 42 435 74.5Q485 107 520.5 160.5Q556 214 575.5 283Q595 352 595 424Q595 474 585.5 517Q576 560 556.5 592Q537 624 507 642Q477 660 436 660Q374 660 324 627.5Q274 595 238.5 542Q203 489 183.5 420Q164 351 164 279Q164 229 173.5 186Q183 143 202.5 111Q222 79 252 60.5Q282 42 323 42ZM322 -10Q257 -10 208 12Q159 34 126 72Q93 110 76.5 162.5Q60 215 60 275Q60 364 89 443.5Q118 523 169 582.5Q220 642 289 677Q358 712 437 712Q502 712 551 690.5Q600 669 633 630.5Q666 592 682.5 540Q699 488 699 428Q699 339 670 259.5Q641 180 590 120Q539 60 470 25Q401 -10 322 -10Z" glyph-name="O" horiz-adv-x="720" unicode="O" /><glyph d="M1018 702 982 535H955Q948 568 941.5 591Q935 614 923.5 628.5Q912 643 894 649.5Q876 656 845 656H651L593 382H753Q787 382 808 404.5Q829 427 846 472H880L832 246H798Q798 292 787.5 314Q777 336 743 336H583L540 131Q537 117 536 107Q535 97 535 92Q535 64 555.5 55Q576 46 624 46H700Q734 46 759.5 52Q785 58 808.5 73.5Q832 89 856.5 115Q881 141 914 180H943L875 0H375Q289 0 229.5 22.5Q170 45 132 84Q94 123 77 175.5Q60 228 60 288Q60 378 94 453.5Q128 529 187 584.5Q246 640 326 671Q406 702 499 702ZM488 656Q423 656 364 631.5Q305 607 261 560Q217 513 191 444.5Q165 376 165 288Q165 240 176 196Q187 152 213 118.5Q239 85 282.5 65.5Q326 46 391 46H425L555 656Z" glyph-name="OE" horiz-adv-x="994" unicode="&#338;" /><glyph d="M323 42Q385 42 435 74.5Q485 107 520.5 160.5Q556 214 575.5 283Q595 352 595 424Q595 474 585.5 517Q576 560 556.5 592Q537 624 507 642Q477 660 436 660Q374 660 324 627.5Q274 595 238.5 542Q203 489 183.5 420Q164 351 164 279Q164 229 173.5 186Q183 143 202.5 111Q222 79 252 60.5Q282 42 323 42ZM322 -10Q257 -10 208 12Q159 34 126 72Q93 110 76.5 162.5Q60 215 60 275Q60 364 89 443.5Q118 523 169 582.5Q220 642 289 677Q358 712 437 712Q502 712 551 690.5Q600 669 633 630.5Q666 592 682.5 540Q699 488 699 428Q699 339 670 259.5Q641 180 590 120Q539 60 470 25Q401 -10 322 -10ZM664 910 482 761H441L532 910Z" glyph-name="Oacute" horiz-adv-x="720" unicode="&#211;" /><glyph d="M323 42Q385 42 435 74.5Q485 107 520.5 160.5Q556 214 575.5 283Q595 352 595 424Q595 474 585.5 517Q576 560 556.5 592Q537 624 507 642Q477 660 436 660Q374 660 324 627.5Q274 595 238.5 542Q203 489 183.5 420Q164 351 164 279Q164 229 173.5 186Q183 143 202.5 111Q222 79 252 60.5Q282 42 323 42ZM322 -10Q257 -10 208 12Q159 34 126 72Q93 110 76.5 162.5Q60 215 60 275Q60 364 89 443.5Q118 523 169 582.5Q220 642 289 677Q358 712 437 712Q502 712 551 690.5Q600 669 633 630.5Q666 592 682.5 540Q699 488 699 428Q699 339 670 259.5Q641 180 590 120Q539 60 470 25Q401 -10 322 -10ZM468 758Q411 758 378 789Q345 820 345 879Q345 900 351 926H387Q386 921 386 917.5Q386 914 386 909Q386 864 414.5 844Q443 824 481 824Q522 824 559 848Q596 872 613 926H652Q636 845 586 801.5Q536 758 468 758Z" glyph-name="Obreve" horiz-adv-x="720" unicode="&#334;" /><glyph d="M323 42Q385 42 435 74.5Q485 107 520.5 160.5Q556 214 575.5 283Q595 352 595 424Q595 474 585.5 517Q576 560 556.5 592Q537 624 507 642Q477 660 436 660Q374 660 324 627.5Q274 595 238.5 542Q203 489 183.5 420Q164 351 164 279Q164 229 173.5 186Q183 143 202.5 111Q222 79 252 60.5Q282 42 323 42ZM322 -10Q257 -10 208 12Q159 34 126 72Q93 110 76.5 162.5Q60 215 60 275Q60 364 89 443.5Q118 523 169 582.5Q220 642 289 677Q358 712 437 712Q502 712 551 690.5Q600 669 633 630.5Q666 592 682.5 540Q699 488 699 428Q699 339 670 259.5Q641 180 590 120Q539 60 470 25Q401 -10 322 -10ZM641 761H596L489 850L320 761H273L461 920H535Z" glyph-name="Ocircumflex" horiz-adv-x="720" unicode="&#212;" /><glyph d="M323 42Q385 42 435 74.5Q485 107 520.5 160.5Q556 214 575.5 283Q595 352 595 424Q595 474 585.5 517Q576 560 556.5 592Q537 624 507 642Q477 660 436 660Q374 660 324 627.5Q274 595 238.5 542Q203 489 183.5 420Q164 351 164 279Q164 229 173.5 186Q183 143 202.5 111Q222 79 252 60.5Q282 42 323 42ZM322 -10Q257 -10 208 12Q159 34 126 72Q93 110 76.5 162.5Q60 215 60 275Q60 364 89 443.5Q118 523 169 582.5Q220 642 289 677Q358 712 437 712Q502 712 551 690.5Q600 669 633 630.5Q666 592 682.5 540Q699 488 699 428Q699 339 670 259.5Q641 180 590 120Q539 60 470 25Q401 -10 322 -10ZM386 770Q360 770 344 786.5Q328 803 328 828Q328 854 346.5 873Q365 892 391 892Q417 892 433 875.5Q449 859 449 834Q449 808 430.5 789Q412 770 386 770ZM572 770Q546 770 530 786.5Q514 803 514 828Q514 854 532.5 873Q551 892 577 892Q603 892 619 875.5Q635 859 635 834Q635 808 616.5 789Q598 770 572 770Z" glyph-name="Odieresis" horiz-adv-x="720" unicode="&#214;" /><glyph d="M323 42Q385 42 435 74.5Q485 107 520.5 160.5Q556 214 575.5 283Q595 352 595 424Q595 474 585.5 517Q576 560 556.5 592Q537 624 507 642Q477 660 436 660Q374 660 324 627.5Q274 595 238.5 542Q203 489 183.5 420Q164 351 164 279Q164 229 173.5 186Q183 143 202.5 111Q222 79 252 60.5Q282 42 323 42ZM322 -10Q257 -10 208 12Q159 34 126 72Q93 110 76.5 162.5Q60 215 60 275Q60 364 89 443.5Q118 523 169 582.5Q220 642 289 677Q358 712 437 712Q502 712 551 690.5Q600 669 633 630.5Q666 592 682.5 540Q699 488 699 428Q699 339 670 259.5Q641 180 590 120Q539 60 470 25Q401 -10 322 -10ZM440 910 496 761H456L318 910Z" glyph-name="Ograve" horiz-adv-x="720" unicode="&#210;" /><glyph d="M323 42Q385 42 435 74.5Q485 107 520.5 160.5Q556 214 575.5 283Q595 352 595 424Q595 474 585.5 517Q576 560 556.5 592Q537 624 507 642Q477 660 436 660Q374 660 324 627.5Q274 595 238.5 542Q203 489 183.5 420Q164 351 164 279Q164 229 173.5 186Q183 143 202.5 111Q222 79 252 60.5Q282 42 323 42ZM322 -10Q257 -10 208 12Q159 34 126 72Q93 110 76.5 162.5Q60 215 60 275Q60 364 89 443.5Q118 523 169 582.5Q220 642 289 677Q358 712 437 712Q502 712 551 690.5Q600 669 633 630.5Q666 592 682.5 540Q699 488 699 428Q699 339 670 259.5Q641 180 590 120Q539 60 470 25Q401 -10 322 -10ZM561 910 402 761H349L456 910ZM715 910 556 761H503L610 910Z" glyph-name="Ohungarumlaut" horiz-adv-x="720" unicode="&#336;" /><glyph d="M323 42Q385 42 435 74.5Q485 107 520.5 160.5Q556 214 575.5 283Q595 352 595 424Q595 474 585.5 517Q576 560 556.5 592Q537 624 507 642Q477 660 436 660Q374 660 324 627.5Q274 595 238.5 542Q203 489 183.5 420Q164 351 164 279Q164 229 173.5 186Q183 143 202.5 111Q222 79 252 60.5Q282 42 323 42ZM322 -10Q257 -10 208 12Q159 34 126 72Q93 110 76.5 162.5Q60 215 60 275Q60 364 89 443.5Q118 523 169 582.5Q220 642 289 677Q358 712 437 712Q502 712 551 690.5Q600 669 633 630.5Q666 592 682.5 540Q699 488 699 428Q699 339 670 259.5Q641 180 590 120Q539 60 470 25Q401 -10 322 -10ZM343 845H625L611 783H329Z" glyph-name="Omacron" horiz-adv-x="720" unicode="&#332;" /><glyph d="M599 662Q649 624 674 563.5Q699 503 699 428Q699 339 670 259.5Q641 180 590 120Q539 60 470 25Q401 -10 322 -10Q286 -10 255 -3Q224 4 198 16L147 -66L108 -43L159 40Q109 78 84.5 139Q60 200 60 275Q60 364 89 443.5Q118 523 169 582.5Q220 642 289 677Q358 712 437 712Q472 712 503 705Q534 698 560 686L606 760L645 737ZM323 42Q385 42 435 74.5Q485 107 520.5 160.5Q556 214 575.5 283Q595 352 595 424Q595 475 585.5 518Q576 561 556 593L233 73Q270 42 323 42ZM164 279Q164 228 173.5 185Q183 142 203 110L525 629Q488 660 436 660Q374 660 324 627.5Q274 595 238.5 542Q203 489 183.5 420Q164 351 164 279Z" glyph-name="Oslash" horiz-adv-x="720" unicode="&#216;" /><glyph d="M599 662Q649 624 674 563.5Q699 503 699 428Q699 339 670 259.5Q641 180 590 120Q539 60 470 25Q401 -10 322 -10Q286 -10 255 -3Q224 4 198 16L147 -66L108 -43L159 40Q109 78 84.5 139Q60 200 60 275Q60 364 89 443.5Q118 523 169 582.5Q220 642 289 677Q358 712 437 712Q472 712 503 705Q534 698 560 686L606 760L645 737ZM323 42Q385 42 435 74.5Q485 107 520.5 160.5Q556 214 575.5 283Q595 352 595 424Q595 475 585.5 518Q576 561 556 593L233 73Q270 42 323 42ZM164 279Q164 228 173.5 185Q183 142 203 110L525 629Q488 660 436 660Q374 660 324 627.5Q274 595 238.5 542Q203 489 183.5 420Q164 351 164 279ZM665 910 483 761H442L533 910Z" glyph-name="Oslashacute" horiz-adv-x="720" unicode="&#510;" /><glyph d="M323 42Q385 42 435 74.5Q485 107 520.5 160.5Q556 214 575.5 283Q595 352 595 424Q595 474 585.5 517Q576 560 556.5 592Q537 624 507 642Q477 660 436 660Q374 660 324 627.5Q274 595 238.5 542Q203 489 183.5 420Q164 351 164 279Q164 229 173.5 186Q183 143 202.5 111Q222 79 252 60.5Q282 42 323 42ZM322 -10Q257 -10 208 12Q159 34 126 72Q93 110 76.5 162.5Q60 215 60 275Q60 364 89 443.5Q118 523 169 582.5Q220 642 289 677Q358 712 437 712Q502 712 551 690.5Q600 669 633 630.5Q666 592 682.5 540Q699 488 699 428Q699 339 670 259.5Q641 180 590 120Q539 60 470 25Q401 -10 322 -10ZM663 880Q644 843 628.5 819.5Q613 796 599 783Q585 770 570.5 765Q556 760 538 760Q515 760 497.5 771Q480 782 464.5 795.5Q449 809 435 820.5Q421 832 405 832Q382 832 368.5 816.5Q355 801 337 770L300 780Q319 817 334.5 840.5Q350 864 364 877Q378 890 392.5 895Q407 900 425 900Q447 900 465 888.5Q483 877 498.5 863.5Q514 850 528 839Q542 828 558 828Q581 828 594.5 843.5Q608 859 627 890Z" glyph-name="Otilde" horiz-adv-x="720" unicode="&#213;" /><glyph d="M215 132Q213 121 211 109.5Q209 98 209 92Q209 75 217 65Q225 55 240 49.5Q255 44 276.5 42Q298 40 325 39L318 0H-12L-3 39Q22 40 41.5 43Q61 46 75.5 53.5Q90 61 99.5 75Q109 89 114 112L213 575Q218 600 218 612Q218 643 197 652Q176 661 128 663L136 702H427Q487 702 530 687.5Q573 673 600.5 648Q628 623 641 589.5Q654 556 654 517Q654 462 630 419Q606 376 563.5 347Q521 318 462 302.5Q403 287 333 287H248ZM257 333H335Q435 333 494 377.5Q553 422 553 517Q553 580 515 618Q477 656 398 656H326Z" glyph-name="P" horiz-adv-x="623" unicode="P" /><glyph d="M286 -8Q230 -2 188.5 22Q147 46 119 83.5Q91 121 77 170Q63 219 63 275Q63 364 92 443.5Q121 523 172 582.5Q223 642 292 677Q361 712 440 712Q505 712 554 690.5Q603 669 636 630.5Q669 592 685.5 540Q702 488 702 428Q702 346 677 272.5Q652 199 608.5 141Q565 83 505.5 44.5Q446 6 377 -5L409 -54Q439 -99 468 -122Q497 -145 539 -150L535 -169Q501 -183 460 -183Q433 -183 413.5 -178Q394 -173 378.5 -162.5Q363 -152 350.5 -134.5Q338 -117 326 -91ZM326 42Q388 42 438 74.5Q488 107 523.5 160.5Q559 214 578.5 283Q598 352 598 424Q598 474 588.5 517Q579 560 559.5 592Q540 624 510 642Q480 660 439 660Q377 660 327 627.5Q277 595 241.5 542Q206 489 186.5 420Q167 351 167 279Q167 229 176.5 186Q186 143 205.5 111Q225 79 255 60.5Q285 42 326 42Z" glyph-name="Q" horiz-adv-x="720" unicode="Q" /><glyph d="M326 656 263 357H310Q358 357 399 366.5Q440 376 470 397Q500 418 516.5 450.5Q533 483 533 529Q533 587 497 621.5Q461 656 377 656ZM214 127Q209 102 209 90Q209 59 230 50Q251 41 299 39L291 0H-12L-3 39Q22 40 41.5 43Q61 46 75.5 53.5Q90 61 99.5 75Q109 89 114 112L213 575Q218 600 218 612Q218 643 197 652Q176 661 128 663L136 702H418Q527 702 581.5 657Q636 612 636 529Q636 482 617.5 446Q599 410 567 384Q535 358 491.5 342.5Q448 327 397 322L512 132Q527 108 539 90.5Q551 73 564.5 61.5Q578 50 595.5 44.5Q613 39 639 39L631 0H496Q470 23 452.5 51Q435 79 412 118L301 313H253Z" glyph-name="R" horiz-adv-x="682" unicode="R" /><glyph d="M326 656 263 357H310Q358 357 399 366.5Q440 376 470 397Q500 418 516.5 450.5Q533 483 533 529Q533 587 497 621.5Q461 656 377 656ZM214 127Q209 102 209 90Q209 59 230 50Q251 41 299 39L291 0H-12L-3 39Q22 40 41.5 43Q61 46 75.5 53.5Q90 61 99.5 75Q109 89 114 112L213 575Q218 600 218 612Q218 643 197 652Q176 661 128 663L136 702H418Q527 702 581.5 657Q636 612 636 529Q636 482 617.5 446Q599 410 567 384Q535 358 491.5 342.5Q448 327 397 322L512 132Q527 108 539 90.5Q551 73 564.5 61.5Q578 50 595.5 44.5Q613 39 639 39L631 0H496Q470 23 452.5 51Q435 79 412 118L301 313H253ZM618 910 436 761H395L486 910Z" glyph-name="Racute" horiz-adv-x="682" unicode="&#340;" /><glyph d="M326 656 263 357H310Q358 357 399 366.5Q440 376 470 397Q500 418 516.5 450.5Q533 483 533 529Q533 587 497 621.5Q461 656 377 656ZM214 127Q209 102 209 90Q209 59 230 50Q251 41 299 39L291 0H-12L-3 39Q22 40 41.5 43Q61 46 75.5 53.5Q90 61 99.5 75Q109 89 114 112L213 575Q218 600 218 612Q218 643 197 652Q176 661 128 663L136 702H418Q527 702 581.5 657Q636 612 636 529Q636 482 617.5 446Q599 410 567 384Q535 358 491.5 342.5Q448 327 397 322L512 132Q527 108 539 90.5Q551 73 564.5 61.5Q578 50 595.5 44.5Q613 39 639 39L631 0H496Q470 23 452.5 51Q435 79 412 118L301 313H253ZM280 920H325L432 831L601 920H648L460 761H386Z" glyph-name="Rcaron" horiz-adv-x="682" unicode="&#344;" /><glyph d="M326 656 263 357H310Q358 357 399 366.5Q440 376 470 397Q500 418 516.5 450.5Q533 483 533 529Q533 587 497 621.5Q461 656 377 656ZM214 127Q209 102 209 90Q209 59 230 50Q251 41 299 39L291 0H-12L-3 39Q22 40 41.5 43Q61 46 75.5 53.5Q90 61 99.5 75Q109 89 114 112L213 575Q218 600 218 612Q218 643 197 652Q176 661 128 663L136 702H418Q527 702 581.5 657Q636 612 636 529Q636 482 617.5 446Q599 410 567 384Q535 358 491.5 342.5Q448 327 397 322L512 132Q527 108 539 90.5Q551 73 564.5 61.5Q578 50 595.5 44.5Q613 39 639 39L631 0H496Q470 23 452.5 51Q435 79 412 118L301 313H253ZM241 -153Q223 -149 215.5 -138Q208 -127 208 -114Q208 -85 229 -68.5Q250 -52 281 -52Q312 -52 328 -69Q344 -86 344 -116Q344 -139 334.5 -160Q325 -181 306.5 -196.5Q288 -212 260 -221Q232 -230 196 -230L203 -197Q278 -197 287 -153Z" glyph-name="Rcommaaccent" horiz-adv-x="682" unicode="&#342;" /><glyph d="M255 -10Q212 -10 176 -1.5Q140 7 110.5 20Q81 33 59.5 48Q38 63 24 77L50 243H84Q92 145 135.5 91.5Q179 38 257 38Q286 38 312.5 45.5Q339 53 359 69Q379 85 390.5 109.5Q402 134 402 168Q402 194 394 215Q386 236 369 254Q352 272 326 290Q300 308 263 328Q193 366 159 411Q125 456 125 519Q125 564 141 600Q157 636 185.5 660.5Q214 685 253 698.5Q292 712 338 712Q406 712 458 691.5Q510 671 547 640L519 494H486Q477 574 442.5 619Q408 664 337 664Q271 664 240 630.5Q209 597 209 541Q209 497 235 466Q261 435 321 404Q360 383 391.5 362Q423 341 445.5 316Q468 291 480 262Q492 233 492 197Q492 145 471 106.5Q450 68 416.5 42Q383 16 340.5 3Q298 -10 255 -10Z" glyph-name="S" horiz-adv-x="559" unicode="S" /><glyph d="M255 -10Q212 -10 176 -1.5Q140 7 110.5 20Q81 33 59.5 48Q38 63 24 77L50 243H84Q92 145 135.5 91.5Q179 38 257 38Q286 38 312.5 45.5Q339 53 359 69Q379 85 390.5 109.5Q402 134 402 168Q402 194 394 215Q386 236 369 254Q352 272 326 290Q300 308 263 328Q193 366 159 411Q125 456 125 519Q125 564 141 600Q157 636 185.5 660.5Q214 685 253 698.5Q292 712 338 712Q406 712 458 691.5Q510 671 547 640L519 494H486Q477 574 442.5 619Q408 664 337 664Q271 664 240 630.5Q209 597 209 541Q209 497 235 466Q261 435 321 404Q360 383 391.5 362Q423 341 445.5 316Q468 291 480 262Q492 233 492 197Q492 145 471 106.5Q450 68 416.5 42Q383 16 340.5 3Q298 -10 255 -10ZM574 910 392 761H351L442 910Z" glyph-name="Sacute" horiz-adv-x="559" unicode="&#346;" /><glyph d="M255 -10Q212 -10 176 -1.5Q140 7 110.5 20Q81 33 59.5 48Q38 63 24 77L50 243H84Q92 145 135.5 91.5Q179 38 257 38Q286 38 312.5 45.5Q339 53 359 69Q379 85 390.5 109.5Q402 134 402 168Q402 194 394 215Q386 236 369 254Q352 272 326 290Q300 308 263 328Q193 366 159 411Q125 456 125 519Q125 564 141 600Q157 636 185.5 660.5Q214 685 253 698.5Q292 712 338 712Q406 712 458 691.5Q510 671 547 640L519 494H486Q477 574 442.5 619Q408 664 337 664Q271 664 240 630.5Q209 597 209 541Q209 497 235 466Q261 435 321 404Q360 383 391.5 362Q423 341 445.5 316Q468 291 480 262Q492 233 492 197Q492 145 471 106.5Q450 68 416.5 42Q383 16 340.5 3Q298 -10 255 -10ZM236 920H281L388 831L557 920H604L416 761H342Z" glyph-name="Scaron" horiz-adv-x="559" unicode="&#352;" /><glyph d="M94 -188Q150 -188 184 -176Q218 -164 218 -139Q218 -118 194.5 -108.5Q171 -99 129 -97L181 -2Q124 9 84.5 32.5Q45 56 24 77L50 243H84Q92 145 135.5 91.5Q179 38 257 38Q286 38 312.5 45.5Q339 53 359 69Q379 85 390.5 109.5Q402 134 402 168Q402 194 394 215Q386 236 369 254Q352 272 326 290Q300 308 263 328Q193 366 159 411Q125 456 125 519Q125 564 141 600Q157 636 185.5 660.5Q214 685 253 698.5Q292 712 338 712Q406 712 458 691.5Q510 671 547 640L519 494H486Q477 574 442.5 619Q408 664 337 664Q271 664 240 630.5Q209 597 209 541Q209 497 235 466Q261 435 321 404Q360 383 391.5 362Q423 341 445.5 316Q468 291 480 262Q492 233 492 197Q492 145 471 106.5Q450 68 416.5 42Q383 16 340.5 3Q298 -10 255 -10Q231 -10 210 -7L189 -48Q236 -49 263 -64Q290 -79 290 -112Q290 -140 274.5 -160.5Q259 -181 233 -194.5Q207 -208 171.5 -214.5Q136 -221 97 -221Z" glyph-name="Scedilla" horiz-adv-x="559" unicode="&#350;" /><glyph d="M255 -10Q212 -10 176 -1.5Q140 7 110.5 20Q81 33 59.5 48Q38 63 24 77L50 243H84Q92 145 135.5 91.5Q179 38 257 38Q286 38 312.5 45.5Q339 53 359 69Q379 85 390.5 109.5Q402 134 402 168Q402 194 394 215Q386 236 369 254Q352 272 326 290Q300 308 263 328Q193 366 159 411Q125 456 125 519Q125 564 141 600Q157 636 185.5 660.5Q214 685 253 698.5Q292 712 338 712Q406 712 458 691.5Q510 671 547 640L519 494H486Q477 574 442.5 619Q408 664 337 664Q271 664 240 630.5Q209 597 209 541Q209 497 235 466Q261 435 321 404Q360 383 391.5 362Q423 341 445.5 316Q468 291 480 262Q492 233 492 197Q492 145 471 106.5Q450 68 416.5 42Q383 16 340.5 3Q298 -10 255 -10ZM551 761H506L399 850L230 761H183L371 920H445Z" glyph-name="Scircumflex" horiz-adv-x="559" unicode="&#348;" /><glyph d="M255 -10Q212 -10 176 -1.5Q140 7 110.5 20Q81 33 59.5 48Q38 63 24 77L50 243H84Q92 145 135.5 91.5Q179 38 257 38Q286 38 312.5 45.5Q339 53 359 69Q379 85 390.5 109.5Q402 134 402 168Q402 194 394 215Q386 236 369 254Q352 272 326 290Q300 308 263 328Q193 366 159 411Q125 456 125 519Q125 564 141 600Q157 636 185.5 660.5Q214 685 253 698.5Q292 712 338 712Q406 712 458 691.5Q510 671 547 640L519 494H486Q477 574 442.5 619Q408 664 337 664Q271 664 240 630.5Q209 597 209 541Q209 497 235 466Q261 435 321 404Q360 383 391.5 362Q423 341 445.5 316Q468 291 480 262Q492 233 492 197Q492 145 471 106.5Q450 68 416.5 42Q383 16 340.5 3Q298 -10 255 -10ZM155 -153Q137 -149 129.5 -138Q122 -127 122 -114Q122 -85 143 -68.5Q164 -52 195 -52Q226 -52 242 -69Q258 -86 258 -116Q258 -139 248.5 -160Q239 -181 220.5 -196.5Q202 -212 174 -221Q146 -230 110 -230L117 -197Q192 -197 201 -153Z" glyph-name="Scommaaccent" horiz-adv-x="559" unicode="&#536;" /><glyph d="M732 702 703 493H671Q659 544 650.5 576Q642 608 629 626Q616 644 596 650.5Q576 657 541 657H471L359 127Q356 115 355 105Q354 95 354 90Q354 59 380 50Q406 41 454 39L446 0H123L131 39Q156 40 177.5 43Q199 46 215.5 53.5Q232 61 243 75Q254 89 259 112L375 657H306Q271 657 248 650.5Q225 644 205 626Q185 608 162.5 576Q140 544 106 493H74L135 702Z" glyph-name="T" horiz-adv-x="673" unicode="T" /><glyph d="M732 702 703 493H671Q659 544 650.5 576Q642 608 629 626Q616 644 596 650.5Q576 657 541 657H471L414 391H548L539 348H405L359 127Q356 115 355 105Q354 95 354 90Q354 59 380 50Q406 41 454 39L446 0H123L131 39Q156 40 177.5 43Q199 46 215.5 53.5Q232 61 243 75Q254 89 259 112L309 348H180L189 391H318L375 657H306Q271 657 248 650.5Q225 644 205 626Q185 608 162.5 576Q140 544 106 493H74L135 702Z" glyph-name="Tbar" horiz-adv-x="673" unicode="&#358;" /><glyph d="M732 702 703 493H671Q659 544 650.5 576Q642 608 629 626Q616 644 596 650.5Q576 657 541 657H471L359 127Q356 115 355 105Q354 95 354 90Q354 59 380 50Q406 41 454 39L446 0H123L131 39Q156 40 177.5 43Q199 46 215.5 53.5Q232 61 243 75Q254 89 259 112L375 657H306Q271 657 248 650.5Q225 644 205 626Q185 608 162.5 576Q140 544 106 493H74L135 702ZM307 920H352L459 831L628 920H675L487 761H413Z" glyph-name="Tcaron" horiz-adv-x="673" unicode="&#356;" /><glyph d="M732 702 703 493H671Q659 544 650.5 576Q642 608 629 626Q616 644 596 650.5Q576 657 541 657H471L359 127Q356 115 355 105Q354 95 354 90Q354 59 380 50Q406 41 454 39L446 0H123L131 39Q156 40 177.5 43Q199 46 215.5 53.5Q232 61 243 75Q254 89 259 112L375 657H306Q271 657 248 650.5Q225 644 205 626Q185 608 162.5 576Q140 544 106 493H74L135 702ZM227 -153Q209 -149 201.5 -138Q194 -127 194 -114Q194 -85 215 -68.5Q236 -52 267 -52Q298 -52 314 -69Q330 -86 330 -116Q330 -139 320.5 -160Q311 -181 292.5 -196.5Q274 -212 246 -221Q218 -230 182 -230L189 -197Q264 -197 273 -153Z" glyph-name="Tcommaaccent" horiz-adv-x="673" unicode="&#354;" /><glyph d="M230 203H308Q358 203 398 212Q438 221 466.5 241.5Q495 262 510.5 295Q526 328 526 375Q526 438 486 472Q446 506 367 506H295ZM305 552H396Q456 552 499.5 539Q543 526 571.5 502.5Q600 479 613.5 446.5Q627 414 627 375Q627 320 603 279Q579 238 536.5 211Q494 184 435 170.5Q376 157 306 157H221L215 132Q213 121 211 109.5Q209 98 209 92Q209 75 217 65Q225 55 240 49.5Q255 44 276.5 42Q298 40 325 39L318 0H-12L-3 39Q22 40 41.5 43Q61 46 75.5 53.5Q90 61 99.5 75Q109 89 114 112L213 575Q218 600 218 612Q218 643 197 652Q176 661 128 663L136 702H439L430 663Q405 662 385.5 659Q366 656 352 648.5Q338 641 328 627Q318 613 313 590Z" glyph-name="Thorn" horiz-adv-x="623" unicode="&#222;" /><glyph d="M656 575Q661 600 661 612Q661 643 640 652Q619 661 571 663L579 702H844L835 663Q810 662 790.5 659Q771 656 756.5 648.5Q742 641 732.5 627Q723 613 718 590L641 226Q628 164 600.5 119Q573 74 535.5 45.5Q498 17 452 3.5Q406 -10 356 -10Q238 -10 176.5 44.5Q115 99 115 203Q115 220 117 237.5Q119 255 123 275L185 575Q190 600 190 612Q190 643 169 652Q148 661 100 663L108 702H411L402 663Q377 662 357.5 659Q338 656 323.5 648.5Q309 641 299.5 627Q290 613 285 590L216 265Q213 249 211 234.5Q209 220 209 206Q209 136 248.5 93Q288 50 363 50Q451 50 507.5 93.5Q564 137 587 245Z" glyph-name="U" horiz-adv-x="762" unicode="U" /><glyph d="M656 575Q661 600 661 612Q661 643 640 652Q619 661 571 663L579 702H844L835 663Q810 662 790.5 659Q771 656 756.5 648.5Q742 641 732.5 627Q723 613 718 590L641 226Q628 164 600.5 119Q573 74 535.5 45.5Q498 17 452 3.5Q406 -10 356 -10Q238 -10 176.5 44.5Q115 99 115 203Q115 220 117 237.5Q119 255 123 275L185 575Q190 600 190 612Q190 643 169 652Q148 661 100 663L108 702H411L402 663Q377 662 357.5 659Q338 656 323.5 648.5Q309 641 299.5 627Q290 613 285 590L216 265Q213 249 211 234.5Q209 220 209 206Q209 136 248.5 93Q288 50 363 50Q451 50 507.5 93.5Q564 137 587 245ZM707 910 525 761H484L575 910Z" glyph-name="Uacute" horiz-adv-x="762" unicode="&#218;" /><glyph d="M656 575Q661 600 661 612Q661 643 640 652Q619 661 571 663L579 702H844L835 663Q810 662 790.5 659Q771 656 756.5 648.5Q742 641 732.5 627Q723 613 718 590L641 226Q628 164 600.5 119Q573 74 535.5 45.5Q498 17 452 3.5Q406 -10 356 -10Q238 -10 176.5 44.5Q115 99 115 203Q115 220 117 237.5Q119 255 123 275L185 575Q190 600 190 612Q190 643 169 652Q148 661 100 663L108 702H411L402 663Q377 662 357.5 659Q338 656 323.5 648.5Q309 641 299.5 627Q290 613 285 590L216 265Q213 249 211 234.5Q209 220 209 206Q209 136 248.5 93Q288 50 363 50Q451 50 507.5 93.5Q564 137 587 245ZM511 758Q454 758 421 789Q388 820 388 879Q388 900 394 926H430Q429 921 429 917.5Q429 914 429 909Q429 864 457.5 844Q486 824 524 824Q565 824 602 848Q639 872 656 926H695Q679 845 629 801.5Q579 758 511 758Z" glyph-name="Ubreve" horiz-adv-x="762" unicode="&#364;" /><glyph d="M656 575Q661 600 661 612Q661 643 640 652Q619 661 571 663L579 702H844L835 663Q810 662 790.5 659Q771 656 756.5 648.5Q742 641 732.5 627Q723 613 718 590L641 226Q628 164 600.5 119Q573 74 535.5 45.5Q498 17 452 3.5Q406 -10 356 -10Q238 -10 176.5 44.5Q115 99 115 203Q115 220 117 237.5Q119 255 123 275L185 575Q190 600 190 612Q190 643 169 652Q148 661 100 663L108 702H411L402 663Q377 662 357.5 659Q338 656 323.5 648.5Q309 641 299.5 627Q290 613 285 590L216 265Q213 249 211 234.5Q209 220 209 206Q209 136 248.5 93Q288 50 363 50Q451 50 507.5 93.5Q564 137 587 245ZM684 761H639L532 850L363 761H316L504 920H578Z" glyph-name="Ucircumflex" horiz-adv-x="762" unicode="&#219;" /><glyph d="M656 575Q661 600 661 612Q661 643 640 652Q619 661 571 663L579 702H844L835 663Q810 662 790.5 659Q771 656 756.5 648.5Q742 641 732.5 627Q723 613 718 590L641 226Q628 164 600.5 119Q573 74 535.5 45.5Q498 17 452 3.5Q406 -10 356 -10Q238 -10 176.5 44.5Q115 99 115 203Q115 220 117 237.5Q119 255 123 275L185 575Q190 600 190 612Q190 643 169 652Q148 661 100 663L108 702H411L402 663Q377 662 357.5 659Q338 656 323.5 648.5Q309 641 299.5 627Q290 613 285 590L216 265Q213 249 211 234.5Q209 220 209 206Q209 136 248.5 93Q288 50 363 50Q451 50 507.5 93.5Q564 137 587 245ZM429 770Q403 770 387 786.5Q371 803 371 828Q371 854 389.5 873Q408 892 434 892Q460 892 476 875.5Q492 859 492 834Q492 808 473.5 789Q455 770 429 770ZM615 770Q589 770 573 786.5Q557 803 557 828Q557 854 575.5 873Q594 892 620 892Q646 892 662 875.5Q678 859 678 834Q678 808 659.5 789Q641 770 615 770Z" glyph-name="Udieresis" horiz-adv-x="762" unicode="&#220;" /><glyph d="M656 575Q661 600 661 612Q661 643 640 652Q619 661 571 663L579 702H844L835 663Q810 662 790.5 659Q771 656 756.5 648.5Q742 641 732.5 627Q723 613 718 590L641 226Q628 164 600.5 119Q573 74 535.5 45.5Q498 17 452 3.5Q406 -10 356 -10Q238 -10 176.5 44.5Q115 99 115 203Q115 220 117 237.5Q119 255 123 275L185 575Q190 600 190 612Q190 643 169 652Q148 661 100 663L108 702H411L402 663Q377 662 357.5 659Q338 656 323.5 648.5Q309 641 299.5 627Q290 613 285 590L216 265Q213 249 211 234.5Q209 220 209 206Q209 136 248.5 93Q288 50 363 50Q451 50 507.5 93.5Q564 137 587 245ZM483 910 539 761H499L361 910Z" glyph-name="Ugrave" horiz-adv-x="762" unicode="&#217;" /><glyph d="M656 575Q661 600 661 612Q661 643 640 652Q619 661 571 663L579 702H844L835 663Q810 662 790.5 659Q771 656 756.5 648.5Q742 641 732.5 627Q723 613 718 590L641 226Q628 164 600.5 119Q573 74 535.5 45.5Q498 17 452 3.5Q406 -10 356 -10Q238 -10 176.5 44.5Q115 99 115 203Q115 220 117 237.5Q119 255 123 275L185 575Q190 600 190 612Q190 643 169 652Q148 661 100 663L108 702H411L402 663Q377 662 357.5 659Q338 656 323.5 648.5Q309 641 299.5 627Q290 613 285 590L216 265Q213 249 211 234.5Q209 220 209 206Q209 136 248.5 93Q288 50 363 50Q451 50 507.5 93.5Q564 137 587 245ZM604 910 445 761H392L499 910ZM758 910 599 761H546L653 910Z" glyph-name="Uhungarumlaut" horiz-adv-x="762" unicode="&#368;" /><glyph d="M656 575Q661 600 661 612Q661 643 640 652Q619 661 571 663L579 702H844L835 663Q810 662 790.5 659Q771 656 756.5 648.5Q742 641 732.5 627Q723 613 718 590L641 226Q628 164 600.5 119Q573 74 535.5 45.5Q498 17 452 3.5Q406 -10 356 -10Q238 -10 176.5 44.5Q115 99 115 203Q115 220 117 237.5Q119 255 123 275L185 575Q190 600 190 612Q190 643 169 652Q148 661 100 663L108 702H411L402 663Q377 662 357.5 659Q338 656 323.5 648.5Q309 641 299.5 627Q290 613 285 590L216 265Q213 249 211 234.5Q209 220 209 206Q209 136 248.5 93Q288 50 363 50Q451 50 507.5 93.5Q564 137 587 245ZM386 845H668L654 783H372Z" glyph-name="Umacron" horiz-adv-x="762" unicode="&#362;" /><glyph d="M656 575Q661 600 661 612Q661 643 640 652Q619 661 571 663L579 702H844L835 663Q810 662 790.5 659Q771 656 756.5 648.5Q742 641 732.5 627Q723 613 718 590L641 226Q620 128 566.5 73.5Q513 19 441 0Q418 -12 396 -25Q374 -38 356.5 -52.5Q339 -67 328 -83.5Q317 -100 317 -119Q317 -135 328 -145Q339 -155 361 -155Q385 -155 409 -141Q433 -127 459 -108L472 -127Q460 -140 444 -154.5Q428 -169 409 -181.5Q390 -194 369.5 -202Q349 -210 328 -210Q293 -210 271 -192.5Q249 -175 249 -142Q249 -98 280.5 -67Q312 -36 359 -10H356Q238 -10 176.5 44.5Q115 99 115 203Q115 220 117 237.5Q119 255 123 275L185 575Q190 600 190 612Q190 643 169 652Q148 661 100 663L108 702H411L402 663Q377 662 357.5 659Q338 656 323.5 648.5Q309 641 299.5 627Q290 613 285 590L216 265Q213 249 211 234.5Q209 220 209 206Q209 136 248.5 93Q288 50 363 50Q451 50 507.5 93.5Q564 137 587 245Z" glyph-name="Uogonek" horiz-adv-x="762" unicode="&#370;" /><glyph d="M656 575Q661 600 661 612Q661 643 640 652Q619 661 571 663L579 702H844L835 663Q810 662 790.5 659Q771 656 756.5 648.5Q742 641 732.5 627Q723 613 718 590L641 226Q628 164 600.5 119Q573 74 535.5 45.5Q498 17 452 3.5Q406 -10 356 -10Q238 -10 176.5 44.5Q115 99 115 203Q115 220 117 237.5Q119 255 123 275L185 575Q190 600 190 612Q190 643 169 652Q148 661 100 663L108 702H411L402 663Q377 662 357.5 659Q338 656 323.5 648.5Q309 641 299.5 627Q290 613 285 590L216 265Q213 249 211 234.5Q209 220 209 206Q209 136 248.5 93Q288 50 363 50Q451 50 507.5 93.5Q564 137 587 245ZM519 781Q546 781 560.5 800Q575 819 575 845Q575 865 563.5 877Q552 889 531 889Q504 889 489.5 870Q475 851 475 825Q475 805 486.5 793Q498 781 519 781ZM514 744Q476 744 454.5 767Q433 790 433 825Q433 868 462 897Q491 926 536 926Q574 926 595.5 903Q617 880 617 845Q617 802 588 773Q559 744 514 744Z" glyph-name="Uring" horiz-adv-x="762" unicode="&#366;" /><glyph d="M656 575Q661 600 661 612Q661 643 640 652Q619 661 571 663L579 702H844L835 663Q810 662 790.5 659Q771 656 756.5 648.5Q742 641 732.5 627Q723 613 718 590L641 226Q628 164 600.5 119Q573 74 535.5 45.5Q498 17 452 3.5Q406 -10 356 -10Q238 -10 176.5 44.5Q115 99 115 203Q115 220 117 237.5Q119 255 123 275L185 575Q190 600 190 612Q190 643 169 652Q148 661 100 663L108 702H411L402 663Q377 662 357.5 659Q338 656 323.5 648.5Q309 641 299.5 627Q290 613 285 590L216 265Q213 249 211 234.5Q209 220 209 206Q209 136 248.5 93Q288 50 363 50Q451 50 507.5 93.5Q564 137 587 245ZM706 880Q687 843 671.5 819.5Q656 796 642 783Q628 770 613.5 765Q599 760 581 760Q558 760 540.5 771Q523 782 507.5 795.5Q492 809 478 820.5Q464 832 448 832Q425 832 411.5 816.5Q398 801 380 770L343 780Q362 817 377.5 840.5Q393 864 407 877Q421 890 435.5 895Q450 900 468 900Q490 900 508 888.5Q526 877 541.5 863.5Q557 850 571 839Q585 828 601 828Q624 828 637.5 843.5Q651 859 670 890Z" glyph-name="Utilde" horiz-adv-x="762" unicode="&#360;" /><glyph d="M624 579Q641 608 641 624Q641 647 617.5 654Q594 661 554 663L563 702H794L785 663Q763 660 745.5 653Q728 646 715 626L326 -9H295L151 626Q146 646 132.5 653Q119 660 97 663L106 702H370L361 663Q342 662 323.5 660.5Q305 659 290.5 653Q276 647 266.5 635.5Q257 624 257 605Q257 593 260 580L353 127Z" glyph-name="V" horiz-adv-x="704" unicode="V" /><glyph d="M903 579Q921 612 921 629Q921 649 899.5 655Q878 661 835 663L844 702H1067L1058 663Q1037 660 1019 654Q1001 648 988 626L625 -9H595L535 422L289 -9H259L151 626Q148 646 133 653Q118 660 97 663L106 702H371L362 663Q339 662 320.5 660.5Q302 659 288 653Q274 647 266 636Q258 625 258 604Q258 599 258 591.5Q258 584 260 573L326 140L525 491L505 626Q502 649 487 654.5Q472 660 451 663L460 702H715L706 663Q683 662 664.5 660.5Q646 659 632 653Q618 647 610 635Q602 623 602 602Q602 597 602.5 591.5Q603 586 604 580L658 141Z" glyph-name="W" horiz-adv-x="977" unicode="W" /><glyph d="M903 579Q921 612 921 629Q921 649 899.5 655Q878 661 835 663L844 702H1067L1058 663Q1037 660 1019 654Q1001 648 988 626L625 -9H595L535 422L289 -9H259L151 626Q148 646 133 653Q118 660 97 663L106 702H371L362 663Q339 662 320.5 660.5Q302 659 288 653Q274 647 266 636Q258 625 258 604Q258 599 258 591.5Q258 584 260 573L326 140L525 491L505 626Q502 649 487 654.5Q472 660 451 663L460 702H715L706 663Q683 662 664.5 660.5Q646 659 632 653Q618 647 610 635Q602 623 602 602Q602 597 602.5 591.5Q603 586 604 580L658 141ZM804 910 622 761H581L672 910Z" glyph-name="Wacute" horiz-adv-x="977" unicode="&#7810;" /><glyph d="M903 579Q921 612 921 629Q921 649 899.5 655Q878 661 835 663L844 702H1067L1058 663Q1037 660 1019 654Q1001 648 988 626L625 -9H595L535 422L289 -9H259L151 626Q148 646 133 653Q118 660 97 663L106 702H371L362 663Q339 662 320.5 660.5Q302 659 288 653Q274 647 266 636Q258 625 258 604Q258 599 258 591.5Q258 584 260 573L326 140L525 491L505 626Q502 649 487 654.5Q472 660 451 663L460 702H715L706 663Q683 662 664.5 660.5Q646 659 632 653Q618 647 610 635Q602 623 602 602Q602 597 602.5 591.5Q603 586 604 580L658 141ZM781 761H736L629 850L460 761H413L601 920H675Z" glyph-name="Wcircumflex" horiz-adv-x="977" unicode="&#372;" /><glyph d="M903 579Q921 612 921 629Q921 649 899.5 655Q878 661 835 663L844 702H1067L1058 663Q1037 660 1019 654Q1001 648 988 626L625 -9H595L535 422L289 -9H259L151 626Q148 646 133 653Q118 660 97 663L106 702H371L362 663Q339 662 320.5 660.5Q302 659 288 653Q274 647 266 636Q258 625 258 604Q258 599 258 591.5Q258 584 260 573L326 140L525 491L505 626Q502 649 487 654.5Q472 660 451 663L460 702H715L706 663Q683 662 664.5 660.5Q646 659 632 653Q618 647 610 635Q602 623 602 602Q602 597 602.5 591.5Q603 586 604 580L658 141ZM527 770Q501 770 485 786.5Q469 803 469 828Q469 854 487.5 873Q506 892 532 892Q558 892 574 875.5Q590 859 590 834Q590 808 571.5 789Q553 770 527 770ZM713 770Q687 770 671 786.5Q655 803 655 828Q655 854 673.5 873Q692 892 718 892Q744 892 760 875.5Q776 859 776 834Q776 808 757.5 789Q739 770 713 770Z" glyph-name="Wdieresis" horiz-adv-x="977" unicode="&#7812;" /><glyph d="M903 579Q921 612 921 629Q921 649 899.5 655Q878 661 835 663L844 702H1067L1058 663Q1037 660 1019 654Q1001 648 988 626L625 -9H595L535 422L289 -9H259L151 626Q148 646 133 653Q118 660 97 663L106 702H371L362 663Q339 662 320.5 660.5Q302 659 288 653Q274 647 266 636Q258 625 258 604Q258 599 258 591.5Q258 584 260 573L326 140L525 491L505 626Q502 649 487 654.5Q472 660 451 663L460 702H715L706 663Q683 662 664.5 660.5Q646 659 632 653Q618 647 610 635Q602 623 602 602Q602 597 602.5 591.5Q603 586 604 580L658 141ZM580 910 636 761H596L458 910Z" glyph-name="Wgrave" horiz-adv-x="977" unicode="&#7808;" /><glyph d="M428 369 574 89Q588 62 606.5 50.5Q625 39 655 39L648 0H367L374 39Q392 39 408.5 39.5Q425 40 438.5 43.5Q452 47 460.5 54Q469 61 469 75Q469 84 465 95.5Q461 107 453 122L351 314L169 125Q129 84 129 66Q129 51 147.5 45.5Q166 40 213 39L206 0H-40L-32 39Q-3 39 18 49Q39 59 69 89L331 355L195 613Q181 640 162 651.5Q143 663 113 663L122 702H405L396 663Q354 663 328 657.5Q302 652 301 629Q301 612 318 580L406 411L570 577Q590 597 598.5 610.5Q607 624 608 635Q608 651 587 656.5Q566 662 524 663L533 702H778L769 663Q739 663 718 653Q697 643 668 613Z" glyph-name="X" horiz-adv-x="707" unicode="X" /><glyph d="M576 580Q603 613 603 629Q603 647 584 653Q565 659 518 663L527 702H756L747 663Q725 660 709.5 653Q694 646 677 626L385 283L352 127Q346 103 346 90Q346 59 372.5 50Q399 41 447 39L439 0H121L129 39Q154 40 175.5 43Q197 46 213.5 53.5Q230 61 241 75Q252 89 257 112L293 282L151 626Q143 646 131 653Q119 660 97 663L106 702H369L360 663Q339 663 321 662Q303 661 289 656.5Q275 652 266.5 643.5Q258 635 258 620Q258 612 260.5 602Q263 592 268 580L365 329Z" glyph-name="Y" horiz-adv-x="666" unicode="Y" /><glyph d="M576 580Q603 613 603 629Q603 647 584 653Q565 659 518 663L527 702H756L747 663Q725 660 709.5 653Q694 646 677 626L385 283L352 127Q346 103 346 90Q346 59 372.5 50Q399 41 447 39L439 0H121L129 39Q154 40 175.5 43Q197 46 213.5 53.5Q230 61 241 75Q252 89 257 112L293 282L151 626Q143 646 131 653Q119 660 97 663L106 702H369L360 663Q339 663 321 662Q303 661 289 656.5Q275 652 266.5 643.5Q258 635 258 620Q258 612 260.5 602Q263 592 268 580L365 329ZM659 910 477 761H436L527 910Z" glyph-name="Yacute" horiz-adv-x="666" unicode="&#221;" /><glyph d="M576 580Q603 613 603 629Q603 647 584 653Q565 659 518 663L527 702H756L747 663Q725 660 709.5 653Q694 646 677 626L385 283L352 127Q346 103 346 90Q346 59 372.5 50Q399 41 447 39L439 0H121L129 39Q154 40 175.5 43Q197 46 213.5 53.5Q230 61 241 75Q252 89 257 112L293 282L151 626Q143 646 131 653Q119 660 97 663L106 702H369L360 663Q339 663 321 662Q303 661 289 656.5Q275 652 266.5 643.5Q258 635 258 620Q258 612 260.5 602Q263 592 268 580L365 329ZM636 761H591L484 850L315 761H268L456 920H530Z" glyph-name="Ycircumflex" horiz-adv-x="666" unicode="&#374;" /><glyph d="M576 580Q603 613 603 629Q603 647 584 653Q565 659 518 663L527 702H756L747 663Q725 660 709.5 653Q694 646 677 626L385 283L352 127Q346 103 346 90Q346 59 372.5 50Q399 41 447 39L439 0H121L129 39Q154 40 175.5 43Q197 46 213.5 53.5Q230 61 241 75Q252 89 257 112L293 282L151 626Q143 646 131 653Q119 660 97 663L106 702H369L360 663Q339 663 321 662Q303 661 289 656.5Q275 652 266.5 643.5Q258 635 258 620Q258 612 260.5 602Q263 592 268 580L365 329ZM369 770Q343 770 327 786.5Q311 803 311 828Q311 854 329.5 873Q348 892 374 892Q400 892 416 875.5Q432 859 432 834Q432 808 413.5 789Q395 770 369 770ZM555 770Q529 770 513 786.5Q497 803 497 828Q497 854 515.5 873Q534 892 560 892Q586 892 602 875.5Q618 859 618 834Q618 808 599.5 789Q581 770 555 770Z" glyph-name="Ydieresis" horiz-adv-x="666" unicode="&#376;" /><glyph d="M576 580Q603 613 603 629Q603 647 584 653Q565 659 518 663L527 702H756L747 663Q725 660 709.5 653Q694 646 677 626L385 283L352 127Q346 103 346 90Q346 59 372.5 50Q399 41 447 39L439 0H121L129 39Q154 40 175.5 43Q197 46 213.5 53.5Q230 61 241 75Q252 89 257 112L293 282L151 626Q143 646 131 653Q119 660 97 663L106 702H369L360 663Q339 663 321 662Q303 661 289 656.5Q275 652 266.5 643.5Q258 635 258 620Q258 612 260.5 602Q263 592 268 580L365 329ZM435 910 491 761H451L313 910Z" glyph-name="Ygrave" horiz-adv-x="666" unicode="&#7922;" /><glyph d="M336 47Q370 47 394.5 56Q419 65 441 83.5Q463 102 485.5 130.5Q508 159 537 198H571L496 0H-22L-17 25L524 654H324Q293 654 272 647.5Q251 641 232.5 625.5Q214 610 195 583.5Q176 557 150 517H120L159 702H661L655 676L113 47Z" glyph-name="Z" horiz-adv-x="608" unicode="Z" /><glyph d="M336 47Q370 47 394.5 56Q419 65 441 83.5Q463 102 485.5 130.5Q508 159 537 198H571L496 0H-22L-17 25L524 654H324Q293 654 272 647.5Q251 641 232.5 625.5Q214 610 195 583.5Q176 557 150 517H120L159 702H661L655 676L113 47ZM604 910 422 761H381L472 910Z" glyph-name="Zacute" horiz-adv-x="608" unicode="&#377;" /><glyph d="M336 47Q370 47 394.5 56Q419 65 441 83.5Q463 102 485.5 130.5Q508 159 537 198H571L496 0H-22L-17 25L524 654H324Q293 654 272 647.5Q251 641 232.5 625.5Q214 610 195 583.5Q176 557 150 517H120L159 702H661L655 676L113 47ZM266 920H311L418 831L587 920H634L446 761H372Z" glyph-name="Zcaron" horiz-adv-x="608" unicode="&#381;" /><glyph d="M336 47Q370 47 394.5 56Q419 65 441 83.5Q463 102 485.5 130.5Q508 159 537 198H571L496 0H-22L-17 25L524 654H324Q293 654 272 647.5Q251 641 232.5 625.5Q214 610 195 583.5Q176 557 150 517H120L159 702H661L655 676L113 47ZM419 767Q392 767 374 785.5Q356 804 356 830Q356 859 376.5 880Q397 901 426 901Q453 901 471 882.5Q489 864 489 838Q489 809 468.5 788Q448 767 419 767Z" glyph-name="Zdotaccent" horiz-adv-x="608" unicode="&#379;" /><glyph d="M179 57Q207 57 240 84Q273 111 306 162Q339 213 370 286.5Q401 360 425 453Q411 477 391 488Q371 499 346 499Q298 499 257.5 467Q217 435 188 384.5Q159 334 142 271.5Q125 209 125 148Q125 106 139 81.5Q153 57 179 57ZM510 548H545L510 436L432 116Q428 102 425.5 90Q423 78 423 72Q423 57 437 57Q451 57 474 73.5Q497 90 529 132L550 111Q505 43 468.5 16.5Q432 -10 395 -10Q366 -10 352.5 8.5Q339 27 339 58Q339 69 342.5 89.5Q346 110 351.5 133.5Q357 157 364 181.5Q371 206 378 226H371Q349 178 322.5 135Q296 92 266.5 60Q237 28 206.5 9Q176 -10 145 -10Q92 -10 63 29.5Q34 69 34 140Q34 221 61 293.5Q88 366 132 421Q176 476 231.5 508Q287 540 343 540Q411 540 451 500Z" glyph-name="a" horiz-adv-x="597" unicode="a" /><glyph d="M179 57Q207 57 240 84Q273 111 306 162Q339 213 370 286.5Q401 360 425 453Q411 477 391 488Q371 499 346 499Q298 499 257.5 467Q217 435 188 384.5Q159 334 142 271.5Q125 209 125 148Q125 106 139 81.5Q153 57 179 57ZM510 548H545L510 436L432 116Q428 102 425.5 90Q423 78 423 72Q423 57 437 57Q451 57 474 73.5Q497 90 529 132L550 111Q505 43 468.5 16.5Q432 -10 395 -10Q366 -10 352.5 8.5Q339 27 339 58Q339 69 342.5 89.5Q346 110 351.5 133.5Q357 157 364 181.5Q371 206 378 226H371Q349 178 322.5 135Q296 92 266.5 60Q237 28 206.5 9Q176 -10 145 -10Q92 -10 63 29.5Q34 69 34 140Q34 221 61 293.5Q88 366 132 421Q176 476 231.5 508Q287 540 343 540Q411 540 451 500ZM581 761 388 592H343L445 761Z" glyph-name="aacute" horiz-adv-x="597" unicode="&#225;" /><glyph d="M179 57Q207 57 240 84Q273 111 306 162Q339 213 370 286.5Q401 360 425 453Q411 477 391 488Q371 499 346 499Q298 499 257.5 467Q217 435 188 384.5Q159 334 142 271.5Q125 209 125 148Q125 106 139 81.5Q153 57 179 57ZM510 548H545L510 436L432 116Q428 102 425.5 90Q423 78 423 72Q423 57 437 57Q451 57 474 73.5Q497 90 529 132L550 111Q505 43 468.5 16.5Q432 -10 395 -10Q366 -10 352.5 8.5Q339 27 339 58Q339 69 342.5 89.5Q346 110 351.5 133.5Q357 157 364 181.5Q371 206 378 226H371Q349 178 322.5 135Q296 92 266.5 60Q237 28 206.5 9Q176 -10 145 -10Q92 -10 63 29.5Q34 69 34 140Q34 221 61 293.5Q88 366 132 421Q176 476 231.5 508Q287 540 343 540Q411 540 451 500ZM372 593Q315 593 287 624Q259 655 259 714Q259 735 265 761H301Q300 756 300 752.5Q300 749 300 744Q300 699 323.5 679Q347 659 385 659Q426 659 458 683Q490 707 507 761H546Q530 680 485 636.5Q440 593 372 593Z" glyph-name="abreve" horiz-adv-x="597" unicode="&#259;" /><glyph d="M179 57Q207 57 240 84Q273 111 306 162Q339 213 370 286.5Q401 360 425 453Q411 477 391 488Q371 499 346 499Q298 499 257.5 467Q217 435 188 384.5Q159 334 142 271.5Q125 209 125 148Q125 106 139 81.5Q153 57 179 57ZM510 548H545L510 436L432 116Q428 102 425.5 90Q423 78 423 72Q423 57 437 57Q451 57 474 73.5Q497 90 529 132L550 111Q505 43 468.5 16.5Q432 -10 395 -10Q366 -10 352.5 8.5Q339 27 339 58Q339 69 342.5 89.5Q346 110 351.5 133.5Q357 157 364 181.5Q371 206 378 226H371Q349 178 322.5 135Q296 92 266.5 60Q237 28 206.5 9Q176 -10 145 -10Q92 -10 63 29.5Q34 69 34 140Q34 221 61 293.5Q88 366 132 421Q176 476 231.5 508Q287 540 343 540Q411 540 451 500ZM532 592H487L390 692L231 592H184L362 761H436Z" glyph-name="acircumflex" horiz-adv-x="597" unicode="&#226;" /><glyph d="M369 761 176 592H131L233 761Z" glyph-name="acute" horiz-adv-x="500" unicode="&#180;" /><glyph d="M361 910 179 761H138L229 910Z" glyph-name="acute.cap" horiz-adv-x="500" /><glyph d="M179 57Q207 57 240 84Q273 111 306 162Q339 213 370 286.5Q401 360 425 453Q411 477 391 488Q371 499 346 499Q298 499 257.5 467Q217 435 188 384.5Q159 334 142 271.5Q125 209 125 148Q125 106 139 81.5Q153 57 179 57ZM510 548H545L510 436L432 116Q428 102 425.5 90Q423 78 423 72Q423 57 437 57Q451 57 474 73.5Q497 90 529 132L550 111Q505 43 468.5 16.5Q432 -10 395 -10Q366 -10 352.5 8.5Q339 27 339 58Q339 69 342.5 89.5Q346 110 351.5 133.5Q357 157 364 181.5Q371 206 378 226H371Q349 178 322.5 135Q296 92 266.5 60Q237 28 206.5 9Q176 -10 145 -10Q92 -10 63 29.5Q34 69 34 140Q34 221 61 293.5Q88 366 132 421Q176 476 231.5 508Q287 540 343 540Q411 540 451 500ZM292 615Q266 615 250 631.5Q234 648 234 673Q234 699 252.5 718Q271 737 297 737Q323 737 339 720.5Q355 704 355 679Q355 653 336.5 634Q318 615 292 615ZM478 615Q452 615 436 631.5Q420 648 420 673Q420 699 438.5 718Q457 737 483 737Q509 737 525 720.5Q541 704 541 679Q541 653 522.5 634Q504 615 478 615Z" glyph-name="adieresis" horiz-adv-x="597" unicode="&#228;" /><glyph d="M343 540Q419 540 469 475Q504 505 545.5 522.5Q587 540 633 540Q694 540 722 508.5Q750 477 750 430Q750 385 719.5 351.5Q689 318 642 293Q595 268 537.5 250.5Q480 233 425 218V192Q425 126 453.5 87.5Q482 49 533 49Q578 49 617 74.5Q656 100 691 142L716 122Q688 85 662 60Q636 35 610 19.5Q584 4 557 -3Q530 -10 500 -10Q460 -10 431 4Q402 18 382 41Q362 64 351 95Q340 126 337 160Q316 124 293 92.5Q270 61 245.5 38.5Q221 16 195.5 3Q170 -10 145 -10Q92 -10 63 29.5Q34 69 34 140Q34 221 61 293.5Q88 366 132 421Q176 476 231.5 508Q287 540 343 540ZM179 57Q213 57 255 97.5Q297 138 337 214Q342 277 367 336Q392 395 434 441Q420 463 399.5 481Q379 499 346 499Q298 499 257.5 467Q217 435 188 384.5Q159 334 142 271.5Q125 209 125 148Q125 106 139 81.5Q153 57 179 57ZM606 490Q576 490 547 471.5Q518 453 494 421Q470 389 453 345Q436 301 429 250Q547 285 606.5 324Q666 363 666 422Q666 451 650.5 470.5Q635 490 606 490Z" glyph-name="ae" horiz-adv-x="771" unicode="&#230;" /><glyph d="M343 540Q419 540 469 475Q504 505 545.5 522.5Q587 540 633 540Q694 540 722 508.5Q750 477 750 430Q750 385 719.5 351.5Q689 318 642 293Q595 268 537.5 250.5Q480 233 425 218V192Q425 126 453.5 87.5Q482 49 533 49Q578 49 617 74.5Q656 100 691 142L716 122Q688 85 662 60Q636 35 610 19.5Q584 4 557 -3Q530 -10 500 -10Q460 -10 431 4Q402 18 382 41Q362 64 351 95Q340 126 337 160Q316 124 293 92.5Q270 61 245.5 38.5Q221 16 195.5 3Q170 -10 145 -10Q92 -10 63 29.5Q34 69 34 140Q34 221 61 293.5Q88 366 132 421Q176 476 231.5 508Q287 540 343 540ZM179 57Q213 57 255 97.5Q297 138 337 214Q342 277 367 336Q392 395 434 441Q420 463 399.5 481Q379 499 346 499Q298 499 257.5 467Q217 435 188 384.5Q159 334 142 271.5Q125 209 125 148Q125 106 139 81.5Q153 57 179 57ZM606 490Q576 490 547 471.5Q518 453 494 421Q470 389 453 345Q436 301 429 250Q547 285 606.5 324Q666 363 666 422Q666 451 650.5 470.5Q635 490 606 490ZM674 761 481 592H436L538 761Z" glyph-name="aeacute" horiz-adv-x="771" unicode="&#509;" /><glyph d="M179 57Q207 57 240 84Q273 111 306 162Q339 213 370 286.5Q401 360 425 453Q411 477 391 488Q371 499 346 499Q298 499 257.5 467Q217 435 188 384.5Q159 334 142 271.5Q125 209 125 148Q125 106 139 81.5Q153 57 179 57ZM510 548H545L510 436L432 116Q428 102 425.5 90Q423 78 423 72Q423 57 437 57Q451 57 474 73.5Q497 90 529 132L550 111Q505 43 468.5 16.5Q432 -10 395 -10Q366 -10 352.5 8.5Q339 27 339 58Q339 69 342.5 89.5Q346 110 351.5 133.5Q357 157 364 181.5Q371 206 378 226H371Q349 178 322.5 135Q296 92 266.5 60Q237 28 206.5 9Q176 -10 145 -10Q92 -10 63 29.5Q34 69 34 140Q34 221 61 293.5Q88 366 132 421Q176 476 231.5 508Q287 540 343 540Q411 540 451 500ZM339 761 402 592H361L215 761Z" glyph-name="agrave" horiz-adv-x="597" unicode="&#224;" /><glyph d="M179 57Q207 57 240 84Q273 111 306 162Q339 213 370 286.5Q401 360 425 453Q411 477 391 488Q371 499 346 499Q298 499 257.5 467Q217 435 188 384.5Q159 334 142 271.5Q125 209 125 148Q125 106 139 81.5Q153 57 179 57ZM510 548H545L510 436L432 116Q428 102 425.5 90Q423 78 423 72Q423 57 437 57Q451 57 474 73.5Q497 90 529 132L550 111Q505 43 468.5 16.5Q432 -10 395 -10Q366 -10 352.5 8.5Q339 27 339 58Q339 69 342.5 89.5Q346 110 351.5 133.5Q357 157 364 181.5Q371 206 378 226H371Q349 178 322.5 135Q296 92 266.5 60Q237 28 206.5 9Q176 -10 145 -10Q92 -10 63 29.5Q34 69 34 140Q34 221 61 293.5Q88 366 132 421Q176 476 231.5 508Q287 540 343 540Q411 540 451 500ZM257 681H519L506 623H244Z" glyph-name="amacron" horiz-adv-x="597" unicode="&#257;" /><glyph d="M15 168Q15 210 32 245.5Q49 281 77 308.5Q105 336 142 357Q179 378 219 392Q205 416 192 449Q179 482 179 524Q179 564 193.5 598Q208 632 234.5 657.5Q261 683 297.5 697.5Q334 712 378 712Q454 712 493 676Q532 640 532 583Q532 516 479 469.5Q426 423 325 388L463 174Q485 208 497.5 245.5Q510 283 510 320Q510 341 500.5 349.5Q491 358 469 358L477 397H680L672 358Q642 358 624 355Q606 352 594 344Q582 336 574.5 322Q567 308 560 286Q545 244 527 207Q509 170 487 138L516 93Q534 65 559.5 51.5Q585 38 623 38L615 0H497Q477 11 461 27.5Q445 44 427 70Q384 32 330.5 11Q277 -10 211 -10Q172 -10 136.5 1Q101 12 74 34.5Q47 57 31 90.5Q15 124 15 168ZM243 40Q288 40 329 58Q370 76 404 105L240 360Q215 348 191.5 331Q168 314 149.5 291Q131 268 120 239.5Q109 211 109 177Q109 114 146 77Q183 40 243 40ZM256 549Q256 512 271.5 479Q287 446 304 420L305 418Q381 443 417 478.5Q453 514 453 577Q453 625 430 647.5Q407 670 365 670Q345 670 325.5 662Q306 654 290.5 638.5Q275 623 265.5 600.5Q256 578 256 549Z" glyph-name="ampersand" horiz-adv-x="675" unicode="&amp;" /><glyph d="M510 548H545L510 436L432 116Q428 102 425.5 90Q423 78 423 72Q423 57 437 57Q451 57 474 73.5Q497 90 529 132L550 111Q528 79 501 54Q474 29 446.5 9.5Q419 -10 393 -26.5Q367 -43 346.5 -57.5Q326 -72 313.5 -87Q301 -102 301 -119Q301 -135 312 -145Q323 -155 345 -155Q369 -155 393 -141Q417 -127 443 -108L456 -127Q444 -140 428 -154.5Q412 -169 393 -181.5Q374 -194 353.5 -202Q333 -210 312 -210Q277 -210 255 -192.5Q233 -175 233 -142Q233 -119 244 -99Q255 -79 274.5 -62Q294 -45 320 -30.5Q346 -16 375 -2Q357 3 348 19Q339 35 339 58Q339 69 342.5 89.5Q346 110 351.5 133.5Q357 157 364 181.5Q371 206 378 226H371Q349 178 322.5 135Q296 92 266.5 60Q237 28 206.5 9Q176 -10 145 -10Q92 -10 63 29.5Q34 69 34 140Q34 221 61 293.5Q88 366 132 421Q176 476 231.5 508Q287 540 343 540Q411 540 451 500ZM179 57Q207 57 240 84Q273 111 306 162Q339 213 370 286.5Q401 360 425 453Q411 477 391 488Q371 499 346 499Q298 499 257.5 467Q217 435 188 384.5Q159 334 142 271.5Q125 209 125 148Q125 106 139 81.5Q153 57 179 57Z" glyph-name="aogonek" horiz-adv-x="597" unicode="&#261;" /><glyph d="M98 451Q135 472 166 481.5Q197 491 225 491Q253 491 276 485Q299 479 321 471.5Q343 464 366 458Q389 452 417 452Q444 452 476 461Q508 470 546 492L530 426Q493 404 461 395Q429 386 403 386Q374 386 351 392Q328 398 306.5 405.5Q285 413 261.5 419Q238 425 210 425Q184 425 153 415.5Q122 406 85 385ZM72 321Q108 343 139.5 352Q171 361 198 361Q226 361 249 355Q272 349 294 342Q316 335 339 329Q362 323 390 323Q417 323 448.5 331.5Q480 340 518 362L504 296Q466 274 434.5 265.5Q403 257 376 257Q347 257 324.5 263Q302 269 280 276Q258 283 235 289Q212 295 184 295Q158 295 126 286Q94 277 58 256Z" glyph-name="approxequal" horiz-adv-x="574" unicode="&#8776;" /><glyph d="M179 57Q207 57 240 84Q273 111 306 162Q339 213 370 286.5Q401 360 425 453Q411 477 391 488Q371 499 346 499Q298 499 257.5 467Q217 435 188 384.5Q159 334 142 271.5Q125 209 125 148Q125 106 139 81.5Q153 57 179 57ZM510 548H545L510 436L432 116Q428 102 425.5 90Q423 78 423 72Q423 57 437 57Q451 57 474 73.5Q497 90 529 132L550 111Q505 43 468.5 16.5Q432 -10 395 -10Q366 -10 352.5 8.5Q339 27 339 58Q339 69 342.5 89.5Q346 110 351.5 133.5Q357 157 364 181.5Q371 206 378 226H371Q349 178 322.5 135Q296 92 266.5 60Q237 28 206.5 9Q176 -10 145 -10Q92 -10 63 29.5Q34 69 34 140Q34 221 61 293.5Q88 366 132 421Q176 476 231.5 508Q287 540 343 540Q411 540 451 500ZM381 625Q408 625 422.5 644Q437 663 437 689Q437 709 425.5 721Q414 733 393 733Q366 733 351.5 714Q337 695 337 669Q337 649 348.5 637Q360 625 381 625ZM376 588Q338 588 316.5 611Q295 634 295 669Q295 712 324 741Q353 770 398 770Q436 770 457.5 747Q479 724 479 689Q479 646 450 617Q421 588 376 588Z" glyph-name="aring" horiz-adv-x="597" unicode="&#229;" /><glyph d="M374 770 468 480H406L331 715L158 480H86L302 770Z" glyph-name="asciicircum" horiz-adv-x="462" unicode="^" /><glyph d="M468 398Q447 336 416.5 305.5Q386 275 338 275Q314 275 292 284Q270 293 248.5 304.5Q227 316 206.5 325Q186 334 165 334Q140 334 126.5 323.5Q113 313 96 281L57 287Q78 349 108.5 379.5Q139 410 187 410Q211 410 233 401Q255 392 276.5 380.5Q298 369 318.5 360Q339 351 360 351Q385 351 398.5 361.5Q412 372 429 404Z" glyph-name="asciitilde" horiz-adv-x="511" unicode="~" /><glyph d="M299 552 258 395 205 414 271 563 113 520 103 576 265 593 150 708 192 745 289 612 331 770 383 751 317 602 475 645 485 589 323 573 439 457 396 420Z" glyph-name="asterisk" horiz-adv-x="436" unicode="*" /><glyph d="M619 75Q581 75 559.5 91.5Q538 108 529.5 135Q521 162 523.5 195.5Q526 229 537 263H531Q514 223 493 188.5Q472 154 448.5 129Q425 104 400 90Q375 76 351 76Q309 76 283.5 108Q258 140 258 200Q258 258 279 312.5Q300 367 334.5 409Q369 451 412.5 476.5Q456 502 501 502Q557 502 591 470L638 508H675L648 419L598 211Q595 197 593 180Q591 163 593.5 148.5Q596 134 604.5 124.5Q613 115 631 115Q676 115 707.5 144.5Q739 174 759 217Q779 260 788 307Q797 354 797 390Q797 448 779.5 496.5Q762 545 727 579.5Q692 614 640 633Q588 652 519 652Q437 652 365 615Q293 578 239.5 517Q186 456 155 377.5Q124 299 124 215Q124 147 147 90.5Q170 34 212.5 -6Q255 -46 314.5 -68Q374 -90 447 -90Q520 -90 583.5 -72.5Q647 -55 715 -17L727 -47Q675 -89 597 -113Q519 -137 434 -137Q349 -137 279.5 -112.5Q210 -88 160.5 -42Q111 4 83.5 69Q56 134 56 215Q56 305 91 390.5Q126 476 188.5 543Q251 610 336 651Q421 692 522 692Q601 692 663.5 670Q726 648 769.5 608Q813 568 836 512.5Q859 457 859 390Q859 341 844.5 285.5Q830 230 800.5 183.5Q771 137 726 106Q681 75 619 75ZM384 134Q405 134 430 155Q455 176 480 215Q505 254 528 308Q551 362 569 428Q559 448 543.5 456.5Q528 465 509 465Q472 465 441 439Q410 413 388 373.5Q366 334 354 288Q342 242 342 202Q342 134 384 134Z" glyph-name="at" horiz-adv-x="905" unicode="@" /><glyph d="M179 57Q207 57 240 84Q273 111 306 162Q339 213 370 286.5Q401 360 425 453Q411 477 391 488Q371 499 346 499Q298 499 257.5 467Q217 435 188 384.5Q159 334 142 271.5Q125 209 125 148Q125 106 139 81.5Q153 57 179 57ZM510 548H545L510 436L432 116Q428 102 425.5 90Q423 78 423 72Q423 57 437 57Q451 57 474 73.5Q497 90 529 132L550 111Q505 43 468.5 16.5Q432 -10 395 -10Q366 -10 352.5 8.5Q339 27 339 58Q339 69 342.5 89.5Q346 110 351.5 133.5Q357 157 364 181.5Q371 206 378 226H371Q349 178 322.5 135Q296 92 266.5 60Q237 28 206.5 9Q176 -10 145 -10Q92 -10 63 29.5Q34 69 34 140Q34 221 61 293.5Q88 366 132 421Q176 476 231.5 508Q287 540 343 540Q411 540 451 500ZM570 731Q551 694 535.5 670.5Q520 647 506 634Q492 621 477.5 616Q463 611 445 611Q422 611 404.5 622Q387 633 371.5 646.5Q356 660 342 671.5Q328 683 312 683Q289 683 275.5 667.5Q262 652 244 621L207 631Q226 668 241.5 691.5Q257 715 271 728Q285 741 299.5 746Q314 751 332 751Q354 751 372 739.5Q390 728 405.5 714.5Q421 701 435 690Q449 679 465 679Q488 679 501.5 694.5Q515 710 534 741Z" glyph-name="atilde" horiz-adv-x="597" unicode="&#227;" /><glyph d="M173 668 99 699 104 719 264 761H287L209 426L157 277H164Q233 402 300.5 471Q368 540 436 540Q491 540 518.5 500.5Q546 461 546 398Q546 317 514 243Q482 169 432 113Q382 57 320.5 23.5Q259 -10 200 -10Q142 -10 100 19.5Q58 49 46 106ZM395 473Q371 473 334 445.5Q297 418 258 369.5Q219 321 185 254.5Q151 188 133 110Q133 75 153 53.5Q173 32 205 32Q253 32 298 65.5Q343 99 377.5 151Q412 203 433 267Q454 331 454 392Q454 473 395 473Z" glyph-name="b" horiz-adv-x="580" unicode="b" /><glyph d="M158 770H215L300 -141H243Z" glyph-name="backslash" horiz-adv-x="397" unicode="\" /><glyph d="M78 -141H21L217 770H274Z" glyph-name="bar" horiz-adv-x="257" unicode="|" /><glyph d="M63 323Q100 331 128.5 353Q157 375 168 423L214 642Q227 702 276.5 736Q326 770 404 770L398 743Q361 738 329.5 717Q298 696 287 645L240 427Q234 401 225.5 383.5Q217 366 204 353Q191 340 172 331Q153 322 126 315Q163 303 180 287Q197 271 197 240Q197 229 193 207Q189 185 183 157.5Q177 130 170 100Q163 70 157 42Q151 14 147 -8.5Q143 -31 143 -43Q143 -78 165 -94Q187 -110 216 -114L210 -141Q147 -141 109 -114.5Q71 -88 71 -40Q71 -28 75 -6.5Q79 15 85 41.5Q91 68 98 97.5Q105 127 111 153.5Q117 180 121 201.5Q125 223 125 235Q125 267 107 284Q89 301 60 307Z" glyph-name="braceleft" horiz-adv-x="341" unicode="{" /><glyph d="M301 306Q264 298 235.5 276Q207 254 196 206L150 -13Q137 -73 87.5 -107Q38 -141 -40 -141L-34 -114Q3 -109 34.5 -88Q66 -67 77 -16L124 202Q130 227 138.5 245Q147 263 160 276Q173 289 192 297.5Q211 306 238 314Q201 326 184 342Q167 358 167 389Q167 400 171 422Q175 444 181 471.5Q187 499 194 529Q201 559 207 587Q213 615 217 637.5Q221 660 221 672Q221 707 199 723Q177 739 148 743L154 770Q217 770 255 743.5Q293 717 293 669Q293 657 289 635.5Q285 614 279 587.5Q273 561 266 531.5Q259 502 253 475.5Q247 449 243 427.5Q239 406 239 394Q239 362 257 345Q275 328 304 322Z" glyph-name="braceright" horiz-adv-x="341" unicode="}" /><glyph d="M88 -49Q87 -54 86.5 -58Q86 -62 86 -66Q86 -93 111.5 -99.5Q137 -106 189 -109L182 -141H0L193 770H375L368 738Q338 736 316 734Q294 732 279 726Q264 720 255.5 708.5Q247 697 243 678Z" glyph-name="bracketleft" horiz-adv-x="312" unicode="[" /><glyph d="M247 678Q248 683 248.5 687Q249 691 249 695Q249 722 223.5 728Q198 734 146 738L153 770H335L141 -141H-41L-34 -109Q-4 -107 18 -105Q40 -103 55 -97Q70 -91 78.5 -80Q87 -69 91 -49Z" glyph-name="bracketright" horiz-adv-x="312" unicode="]" /><glyph d="M219 593Q162 593 134 624Q106 655 106 714Q106 735 112 761H148Q147 756 147 752.5Q147 749 147 744Q147 699 170.5 679Q194 659 232 659Q273 659 305 683Q337 707 354 761H393Q377 680 332 636.5Q287 593 219 593Z" glyph-name="breve" horiz-adv-x="500" unicode="&#728;" /><glyph d="M219 758Q162 758 129 789Q96 820 96 879Q96 900 102 926H138Q137 921 137 917.5Q137 914 137 909Q137 864 165.5 844Q194 824 232 824Q273 824 310 848Q347 872 364 926H403Q387 845 337 801.5Q287 758 219 758Z" glyph-name="breve.cap" horiz-adv-x="500" /><glyph d="M87 300Q87 325 96.5 347.5Q106 370 122.5 386.5Q139 403 161.5 412.5Q184 422 209 422Q234 422 256.5 412.5Q279 403 295.5 386.5Q312 370 321.5 347.5Q331 325 331 300Q331 275 321.5 252.5Q312 230 295.5 213.5Q279 197 256.5 187.5Q234 178 209 178Q184 178 161.5 187.5Q139 197 122.5 213.5Q106 230 96.5 252.5Q87 275 87 300Z" glyph-name="bullet" horiz-adv-x="414" unicode="&#8226;" /><glyph d="M302 495Q267 495 235.5 467.5Q204 440 180.5 396.5Q157 353 143 298.5Q129 244 129 191Q129 164 133.5 138Q138 112 148.5 92Q159 72 177 60Q195 48 223 48Q271 48 306 71.5Q341 95 379 140L402 121Q386 96 365 72.5Q344 49 318 30.5Q292 12 261.5 1Q231 -10 195 -10Q153 -10 123 4Q93 18 74 42.5Q55 67 46 100.5Q37 134 37 174Q37 240 60 305Q83 370 123.5 422.5Q164 475 218.5 507.5Q273 540 337 540Q394 540 423 516Q452 492 452 452Q452 423 434 406.5Q416 390 396 382H380Q378 405 373 425.5Q368 446 358.5 461.5Q349 477 335 486Q321 495 302 495Z" glyph-name="c" horiz-adv-x="463" unicode="c" /><glyph d="M302 495Q267 495 235.5 467.5Q204 440 180.5 396.5Q157 353 143 298.5Q129 244 129 191Q129 164 133.5 138Q138 112 148.5 92Q159 72 177 60Q195 48 223 48Q271 48 306 71.5Q341 95 379 140L402 121Q386 96 365 72.5Q344 49 318 30.5Q292 12 261.5 1Q231 -10 195 -10Q153 -10 123 4Q93 18 74 42.5Q55 67 46 100.5Q37 134 37 174Q37 240 60 305Q83 370 123.5 422.5Q164 475 218.5 507.5Q273 540 337 540Q394 540 423 516Q452 492 452 452Q452 423 434 406.5Q416 390 396 382H380Q378 405 373 425.5Q368 446 358.5 461.5Q349 477 335 486Q321 495 302 495ZM546 761 353 592H308L410 761Z" glyph-name="cacute" horiz-adv-x="463" unicode="&#263;" /><glyph d="M76 763H121L218 663L377 763H424L246 594H172Z" glyph-name="caron" horiz-adv-x="500" unicode="&#711;" /><glyph d="M204 556H169L229 761H331Z" glyph-name="caron.Slovak" horiz-adv-x="500" /><glyph d="M66 920H111L218 831L387 920H434L246 761H172Z" glyph-name="caron.cap" horiz-adv-x="500" /><glyph d="M302 495Q267 495 235.5 467.5Q204 440 180.5 396.5Q157 353 143 298.5Q129 244 129 191Q129 164 133.5 138Q138 112 148.5 92Q159 72 177 60Q195 48 223 48Q271 48 306 71.5Q341 95 379 140L402 121Q386 96 365 72.5Q344 49 318 30.5Q292 12 261.5 1Q231 -10 195 -10Q153 -10 123 4Q93 18 74 42.5Q55 67 46 100.5Q37 134 37 174Q37 240 60 305Q83 370 123.5 422.5Q164 475 218.5 507.5Q273 540 337 540Q394 540 423 516Q452 492 452 452Q452 423 434 406.5Q416 390 396 382H380Q378 405 373 425.5Q368 446 358.5 461.5Q349 477 335 486Q321 495 302 495ZM204 763H249L346 663L505 763H552L374 594H300Z" glyph-name="ccaron" horiz-adv-x="463" unicode="&#269;" /><glyph d="M49 -188Q105 -188 139 -176Q173 -164 173 -139Q173 -118 149.5 -108.5Q126 -99 84 -97L136 -1Q83 16 60 62.5Q37 109 37 174Q37 240 60 305Q83 370 123.5 422.5Q164 475 218.5 507.5Q273 540 337 540Q394 540 423 516Q452 492 452 452Q452 423 434 406.5Q416 390 396 382H380Q378 405 373 425.5Q368 446 358.5 461.5Q349 477 335 486Q321 495 302 495Q267 495 235.5 467.5Q204 440 180.5 396.5Q157 353 143 298.5Q129 244 129 191Q129 164 133.5 138Q138 112 148.5 92Q159 72 177 60Q195 48 223 48Q271 48 306 71.5Q341 95 379 140L402 121Q386 96 365 72.5Q344 49 318 30.5Q292 12 261.5 1Q231 -10 195 -10Q187 -10 179.5 -9.5Q172 -9 165 -8L144 -48Q191 -49 218 -64Q245 -79 245 -112Q245 -140 229.5 -160.5Q214 -181 188 -194.5Q162 -208 126.5 -214.5Q91 -221 52 -221Z" glyph-name="ccedilla" horiz-adv-x="463" unicode="&#231;" /><glyph d="M302 495Q267 495 235.5 467.5Q204 440 180.5 396.5Q157 353 143 298.5Q129 244 129 191Q129 164 133.5 138Q138 112 148.5 92Q159 72 177 60Q195 48 223 48Q271 48 306 71.5Q341 95 379 140L402 121Q386 96 365 72.5Q344 49 318 30.5Q292 12 261.5 1Q231 -10 195 -10Q153 -10 123 4Q93 18 74 42.5Q55 67 46 100.5Q37 134 37 174Q37 240 60 305Q83 370 123.5 422.5Q164 475 218.5 507.5Q273 540 337 540Q394 540 423 516Q452 492 452 452Q452 423 434 406.5Q416 390 396 382H380Q378 405 373 425.5Q368 446 358.5 461.5Q349 477 335 486Q321 495 302 495ZM507 592H462L365 692L206 592H159L337 761H411Z" glyph-name="ccircumflex" horiz-adv-x="463" unicode="&#265;" /><glyph d="M302 495Q267 495 235.5 467.5Q204 440 180.5 396.5Q157 353 143 298.5Q129 244 129 191Q129 164 133.5 138Q138 112 148.5 92Q159 72 177 60Q195 48 223 48Q271 48 306 71.5Q341 95 379 140L402 121Q386 96 365 72.5Q344 49 318 30.5Q292 12 261.5 1Q231 -10 195 -10Q153 -10 123 4Q93 18 74 42.5Q55 67 46 100.5Q37 134 37 174Q37 240 60 305Q83 370 123.5 422.5Q164 475 218.5 507.5Q273 540 337 540Q394 540 423 516Q452 492 452 452Q452 423 434 406.5Q416 390 396 382H380Q378 405 373 425.5Q368 446 358.5 461.5Q349 477 335 486Q321 495 302 495ZM349 611Q322 611 304 629.5Q286 648 286 674Q286 703 306.5 724Q327 745 356 745Q383 745 401 726.5Q419 708 419 682Q419 653 398.5 632Q378 611 349 611Z" glyph-name="cdotaccent" horiz-adv-x="463" unicode="&#267;" /><glyph d="M202 -8Q161 -3 132.5 14Q104 31 85.5 58Q67 85 58.5 119.5Q50 154 50 193Q50 256 70.5 319Q91 382 128.5 434.5Q166 487 218 523.5Q270 560 333 571L356 672H401L379 575H380Q446 575 479.5 548.5Q513 522 513 479Q513 450 493.5 433Q474 416 451 407H433Q431 428 427 448Q423 468 416 484.5Q409 501 397.5 512.5Q386 524 368 529L261 54Q287 54 309.5 62Q332 70 352 83.5Q372 97 391.5 116Q411 135 432 157L465 129Q449 103 427 79Q405 55 377.5 36Q350 17 317 5Q284 -7 246 -9L223 -113H178ZM147 204Q147 156 163 116Q179 76 217 61L323 529Q286 521 254 489.5Q222 458 198 413Q174 368 160.5 313Q147 258 147 204Z" glyph-name="cent" horiz-adv-x="533" unicode="&#162;" /><glyph d="M424 592H379L282 692L123 592H76L254 761H328Z" glyph-name="circumflex" horiz-adv-x="500" unicode="&#710;" /><glyph d="M434 761H389L282 850L113 761H66L254 920H328Z" glyph-name="circumflex.cap" horiz-adv-x="500" /><glyph d="M56 63Q56 94 77 115Q98 136 129 136Q160 136 181 115Q202 94 202 63Q202 32 181 11Q160 -10 129 -10Q98 -10 77 11Q56 32 56 63ZM117 375Q117 406 138 427Q159 448 190 448Q221 448 242 427Q263 406 263 375Q263 344 242 323Q221 302 190 302Q159 302 138 323Q117 344 117 375Z" glyph-name="colon" horiz-adv-x="324" unicode=":" /><glyph d="M101 8Q82 13 70.5 26.5Q59 40 59 64Q59 90 77.5 108.5Q96 127 123 127Q158 127 177 105.5Q196 84 196 46Q196 16 182.5 -14.5Q169 -45 145 -69.5Q121 -94 87.5 -111Q54 -128 15 -132V-94Q71 -82 98 -54Q125 -26 131 8Z" glyph-name="comma" horiz-adv-x="324" unicode="," /><glyph d="M221 -153Q203 -149 195.5 -138Q188 -127 188 -114Q188 -85 209 -68.5Q230 -52 261 -52Q292 -52 308 -69Q324 -86 324 -116Q324 -139 314.5 -160Q305 -181 286.5 -196.5Q268 -212 240 -221Q212 -230 176 -230L183 -197Q258 -197 267 -153Z" glyph-name="commaaccent" horiz-adv-x="500" /><glyph d="M279 708Q297 704 304.5 693Q312 682 312 669Q312 640 291 623.5Q270 607 239 607Q208 607 192 624Q176 641 176 671Q176 694 185.5 715Q195 736 213.5 751.5Q232 767 260 776Q288 785 324 785L317 752Q242 752 233 708Z" glyph-name="commaturn" horiz-adv-x="500" /><glyph d="M395 30Q467 30 528.5 57Q590 84 635.5 131Q681 178 706.5 241Q732 304 732 377Q732 440 711 493.5Q690 547 651.5 587Q613 627 559 649.5Q505 672 440 672Q368 672 306.5 645Q245 618 199.5 571Q154 524 128.5 461Q103 398 103 325Q103 262 124 208.5Q145 155 183.5 115Q222 75 276 52.5Q330 30 395 30ZM395 -10Q321 -10 259.5 15.5Q198 41 153.5 86Q109 131 84 192.5Q59 254 59 325Q59 406 88.5 476.5Q118 547 169 599.5Q220 652 289.5 682Q359 712 440 712Q514 712 575.5 686.5Q637 661 681.5 616Q726 571 751 509.5Q776 448 776 377Q776 296 746.5 225.5Q717 155 666 102.5Q615 50 545.5 20Q476 -10 395 -10ZM396 142Q358 142 326 153.5Q294 165 271 187Q248 209 235 240Q222 271 222 309Q222 361 241.5 407.5Q261 454 295 489Q329 524 374 544.5Q419 565 470 565Q506 565 538 554.5Q570 544 592 524L572 431H545Q540 481 521.5 502.5Q503 524 463 524Q425 524 395 505.5Q365 487 344 457Q323 427 312 388Q301 349 301 308Q301 247 326 214.5Q351 182 400 182Q423 182 440.5 188Q458 194 473 206.5Q488 219 501 239Q514 259 528 288H559L529 180Q500 163 468 152.5Q436 142 396 142Z" glyph-name="copyright" horiz-adv-x="796" unicode="&#169;" /><glyph d="M185 55Q213 55 248 85Q283 115 317.5 168Q352 221 382.5 295Q413 369 432 456Q418 480 398.5 489.5Q379 499 356 499Q306 499 264 467Q222 435 191.5 384.5Q161 334 143.5 271.5Q126 209 126 148Q126 106 141 80.5Q156 55 185 55ZM406 699 411 719 569 761H592L442 116Q439 102 436.5 90Q434 78 434 72Q434 57 448 57Q462 57 485 73.5Q508 90 540 132L561 111Q516 43 479.5 16.5Q443 -10 406 -10Q377 -10 363.5 8Q350 26 350 53Q350 66 353 87Q356 108 361.5 132Q367 156 373.5 181Q380 206 386 227H379Q357 179 330 136Q303 93 273 60.5Q243 28 211.5 9Q180 -10 148 -10Q94 -10 64 29.5Q34 69 34 140Q34 221 61.5 293.5Q89 366 134 421Q179 476 236 508Q293 540 352 540Q381 540 404.5 531Q428 522 445 506L480 668Z" glyph-name="d" horiz-adv-x="604" unicode="d" /><glyph d="M272 593 295 758H360L312 593L481 605L468 544L303 555L252 252H187L264 555L96 544L109 605Z" glyph-name="dagger" horiz-adv-x="462" unicode="&#8224;" /><glyph d="M106 554 119 615 282 603 303 758H368L322 603L491 615L478 554L313 565L287 444L457 456L444 395L280 406L260 252H195L240 406L72 395L85 456L250 444L276 565Z" glyph-name="daggerdbl" horiz-adv-x="462" unicode="&#8225;" /><glyph d="M185 55Q213 55 248 85Q283 115 317.5 168Q352 221 382.5 295Q413 369 432 456Q418 480 398.5 489.5Q379 499 356 499Q306 499 264 467Q222 435 191.5 384.5Q161 334 143.5 271.5Q126 209 126 148Q126 106 141 80.5Q156 55 185 55ZM406 699 411 719 569 761H592L442 116Q439 102 436.5 90Q434 78 434 72Q434 57 448 57Q462 57 485 73.5Q508 90 540 132L561 111Q516 43 479.5 16.5Q443 -10 406 -10Q377 -10 363.5 8Q350 26 350 53Q350 66 353 87Q356 108 361.5 132Q367 156 373.5 181Q380 206 386 227H379Q357 179 330 136Q303 93 273 60.5Q243 28 211.5 9Q180 -10 148 -10Q94 -10 64 29.5Q34 69 34 140Q34 221 61.5 293.5Q89 366 134 421Q179 476 236 508Q293 540 352 540Q381 540 404.5 531Q428 522 445 506L480 668ZM661 556H626L686 761H788Z" glyph-name="dcaron" horiz-adv-x="604" unicode="&#271;" /><glyph d="M551 584 442 116Q439 102 436.5 90Q434 78 434 72Q434 57 448 57Q462 57 485 73.5Q508 90 540 132L561 111Q516 43 479.5 16.5Q443 -10 406 -10Q377 -10 363.5 8Q350 26 350 53Q350 66 353 87Q356 108 361.5 132Q367 156 373.5 181Q380 206 386 227H379Q357 179 330 136Q303 93 273 60.5Q243 28 211.5 9Q180 -10 148 -10Q94 -10 64 29.5Q34 69 34 140Q34 221 61.5 292Q89 363 133 416.5Q177 470 233.5 500.5Q290 531 349 531Q378 531 401.5 522Q425 513 442 497L461 584H307L317 624H469L484 690H405L411 719L569 761H592L560 624H637L627 584ZM185 55Q213 55 248 83.5Q283 112 316.5 163.5Q350 215 380 287.5Q410 360 429 447Q415 471 395.5 480.5Q376 490 353 490Q303 490 261.5 459.5Q220 429 190 380Q160 331 143 270Q126 209 126 148Q126 106 141 80.5Q156 55 185 55Z" glyph-name="dcroat" horiz-adv-x="612" unicode="&#273;" /><glyph d="M198 457Q223 457 243.5 467Q264 477 278 494Q292 511 300 534.5Q308 558 308 585Q308 619 288 642.5Q268 666 230 666Q205 666 184.5 656Q164 646 150 629Q136 612 128 588.5Q120 565 120 538Q120 504 140 480.5Q160 457 198 457ZM195 411Q138 411 102.5 446.5Q67 482 67 536Q67 572 79.5 604Q92 636 114.5 660Q137 684 167 698Q197 712 233 712Q290 712 325.5 676.5Q361 641 361 587Q361 551 348.5 519Q336 487 313.5 463Q291 439 261 425Q231 411 195 411Z" glyph-name="degree" horiz-adv-x="341" unicode="&#176;" /><glyph d="M154 615Q128 615 112 631.5Q96 648 96 673Q96 699 114.5 718Q133 737 159 737Q185 737 201 720.5Q217 704 217 679Q217 653 198.5 634Q180 615 154 615ZM340 615Q314 615 298 631.5Q282 648 282 673Q282 699 300.5 718Q319 737 345 737Q371 737 387 720.5Q403 704 403 679Q403 653 384.5 634Q366 615 340 615Z" glyph-name="dieresis" horiz-adv-x="500" unicode="&#168;" /><glyph d="M154 770Q128 770 112 786.5Q96 803 96 828Q96 854 114.5 873Q133 892 159 892Q185 892 201 875.5Q217 859 217 834Q217 808 198.5 789Q180 770 154 770ZM340 770Q314 770 298 786.5Q282 803 282 828Q282 854 300.5 873Q319 892 345 892Q371 892 387 875.5Q403 859 403 834Q403 808 384.5 789Q366 770 340 770Z" glyph-name="dieresis.cap" horiz-adv-x="500" /><glyph d="M83 402H520L506 340H68ZM205 202Q205 226 221.5 243Q238 260 261 260Q285 260 302 243Q319 226 319 202Q319 179 302 162Q285 145 261 145Q238 145 221.5 162Q205 179 205 202ZM271 540Q271 563 287.5 579.5Q304 596 327 596Q351 596 368 579.5Q385 563 385 540Q385 517 368 499.5Q351 482 327 482Q304 482 287.5 499.5Q271 517 271 540Z" glyph-name="divide" horiz-adv-x="563" unicode="&#247;" /><glyph d="M237 -113H192L212 -7Q178 -3 149.5 6Q121 15 97.5 27Q74 39 56 52Q38 65 26 77L52 243H86Q92 157 126.5 105.5Q161 54 222 41L276 321L265 328Q195 366 161 411Q127 456 127 519Q127 564 143 600Q159 636 187.5 660.5Q216 685 255 698.5Q294 712 340 712H352L372 814H417L396 707Q444 699 482 681.5Q520 664 549 640L521 494H488Q480 559 456.5 601Q433 643 386 657L336 397Q372 377 401 356.5Q430 336 451 312Q472 288 483 259.5Q494 231 494 197Q494 145 473 106.5Q452 68 418.5 42Q385 16 342.5 3Q300 -10 257 -10ZM404 168Q404 210 383 239Q362 268 317 297L266 38Q294 39 319 47Q344 55 363 71Q382 87 393 111Q404 135 404 168ZM211 541Q211 502 230.5 474Q250 446 295 419L343 664H339Q273 664 242 630.5Q211 597 211 541Z" glyph-name="dollar" horiz-adv-x="553" unicode="$" /><glyph d="M246 611Q219 611 201 629.5Q183 648 183 674Q183 703 203.5 724Q224 745 253 745Q280 745 298 726.5Q316 708 316 682Q316 653 295.5 632Q275 611 246 611Z" glyph-name="dotaccent" horiz-adv-x="500" unicode="&#729;" /><glyph d="M246 767Q219 767 201 785.5Q183 804 183 830Q183 859 203.5 880Q224 901 253 901Q280 901 298 882.5Q316 864 316 838Q316 809 295.5 788Q275 767 246 767Z" glyph-name="dotaccent.cap" horiz-adv-x="500" /><glyph d="M162 116Q158 102 155.5 90Q153 78 153 72Q153 57 167 57Q181 57 203.5 73.5Q226 90 260 132L280 111Q234 43 198 16.5Q162 -10 125 -10Q96 -10 79.5 8.5Q63 27 63 58Q63 75 66.5 95Q70 115 77 144L154 454L78 485L84 506L241 540H266Z" glyph-name="dotlessi" horiz-adv-x="334" unicode="&#305;" /><glyph d="M155 454 80 485 86 506 243 540H268L168 96Q153 28 133 -27.5Q113 -83 86 -123Q59 -163 25 -185Q-9 -207 -53 -207Q-93 -207 -118 -191Q-143 -175 -143 -146Q-143 -116 -126 -103.5Q-109 -91 -90 -86H-76Q-68 -124 -54.5 -144Q-41 -164 -17 -164Q8 -164 24 -125.5Q40 -87 54 -22Z" glyph-name="dotlessj" horiz-adv-x="299" unicode="&#567;" /><glyph d="M451 430Q451 385 420.5 351.5Q390 318 343 293Q296 268 238.5 250.5Q181 233 126 218V192Q126 126 154.5 87.5Q183 49 234 49Q279 49 318 74.5Q357 100 392 142L417 122Q389 85 363 60Q337 35 311 19.5Q285 4 258 -3Q231 -10 201 -10Q157 -10 126 7Q95 24 75 52Q55 80 46 116Q37 152 37 190Q37 254 60.5 317Q84 380 124.5 429.5Q165 479 219 509.5Q273 540 334 540Q395 540 423 508.5Q451 477 451 430ZM307 490Q277 490 248 471.5Q219 453 195 421Q171 389 154 345Q137 301 130 250Q248 285 307.5 324Q367 363 367 422Q367 451 351.5 470.5Q336 490 307 490Z" glyph-name="e" horiz-adv-x="472" unicode="e" /><glyph d="M451 430Q451 385 420.5 351.5Q390 318 343 293Q296 268 238.5 250.5Q181 233 126 218V192Q126 126 154.5 87.5Q183 49 234 49Q279 49 318 74.5Q357 100 392 142L417 122Q389 85 363 60Q337 35 311 19.5Q285 4 258 -3Q231 -10 201 -10Q157 -10 126 7Q95 24 75 52Q55 80 46 116Q37 152 37 190Q37 254 60.5 317Q84 380 124.5 429.5Q165 479 219 509.5Q273 540 334 540Q395 540 423 508.5Q451 477 451 430ZM307 490Q277 490 248 471.5Q219 453 195 421Q171 389 154 345Q137 301 130 250Q248 285 307.5 324Q367 363 367 422Q367 451 351.5 470.5Q336 490 307 490ZM540 761 347 592H302L404 761Z" glyph-name="eacute" horiz-adv-x="472" unicode="&#233;" /><glyph d="M451 430Q451 385 420.5 351.5Q390 318 343 293Q296 268 238.5 250.5Q181 233 126 218V192Q126 126 154.5 87.5Q183 49 234 49Q279 49 318 74.5Q357 100 392 142L417 122Q389 85 363 60Q337 35 311 19.5Q285 4 258 -3Q231 -10 201 -10Q157 -10 126 7Q95 24 75 52Q55 80 46 116Q37 152 37 190Q37 254 60.5 317Q84 380 124.5 429.5Q165 479 219 509.5Q273 540 334 540Q395 540 423 508.5Q451 477 451 430ZM307 490Q277 490 248 471.5Q219 453 195 421Q171 389 154 345Q137 301 130 250Q248 285 307.5 324Q367 363 367 422Q367 451 351.5 470.5Q336 490 307 490ZM330 593Q273 593 245 624Q217 655 217 714Q217 735 223 761H259Q258 756 258 752.5Q258 749 258 744Q258 699 281.5 679Q305 659 343 659Q384 659 416 683Q448 707 465 761H504Q488 680 443 636.5Q398 593 330 593Z" glyph-name="ebreve" horiz-adv-x="472" unicode="&#277;" /><glyph d="M451 430Q451 385 420.5 351.5Q390 318 343 293Q296 268 238.5 250.5Q181 233 126 218V192Q126 126 154.5 87.5Q183 49 234 49Q279 49 318 74.5Q357 100 392 142L417 122Q389 85 363 60Q337 35 311 19.5Q285 4 258 -3Q231 -10 201 -10Q157 -10 126 7Q95 24 75 52Q55 80 46 116Q37 152 37 190Q37 254 60.5 317Q84 380 124.5 429.5Q165 479 219 509.5Q273 540 334 540Q395 540 423 508.5Q451 477 451 430ZM307 490Q277 490 248 471.5Q219 453 195 421Q171 389 154 345Q137 301 130 250Q248 285 307.5 324Q367 363 367 422Q367 451 351.5 470.5Q336 490 307 490ZM197 763H242L339 663L498 763H545L367 594H293Z" glyph-name="ecaron" horiz-adv-x="472" unicode="&#283;" /><glyph d="M451 430Q451 385 420.5 351.5Q390 318 343 293Q296 268 238.5 250.5Q181 233 126 218V192Q126 126 154.5 87.5Q183 49 234 49Q279 49 318 74.5Q357 100 392 142L417 122Q389 85 363 60Q337 35 311 19.5Q285 4 258 -3Q231 -10 201 -10Q157 -10 126 7Q95 24 75 52Q55 80 46 116Q37 152 37 190Q37 254 60.5 317Q84 380 124.5 429.5Q165 479 219 509.5Q273 540 334 540Q395 540 423 508.5Q451 477 451 430ZM307 490Q277 490 248 471.5Q219 453 195 421Q171 389 154 345Q137 301 130 250Q248 285 307.5 324Q367 363 367 422Q367 451 351.5 470.5Q336 490 307 490ZM491 592H446L349 692L190 592H143L321 761H395Z" glyph-name="ecircumflex" horiz-adv-x="472" unicode="&#234;" /><glyph d="M451 430Q451 385 420.5 351.5Q390 318 343 293Q296 268 238.5 250.5Q181 233 126 218V192Q126 126 154.5 87.5Q183 49 234 49Q279 49 318 74.5Q357 100 392 142L417 122Q389 85 363 60Q337 35 311 19.5Q285 4 258 -3Q231 -10 201 -10Q157 -10 126 7Q95 24 75 52Q55 80 46 116Q37 152 37 190Q37 254 60.5 317Q84 380 124.5 429.5Q165 479 219 509.5Q273 540 334 540Q395 540 423 508.5Q451 477 451 430ZM307 490Q277 490 248 471.5Q219 453 195 421Q171 389 154 345Q137 301 130 250Q248 285 307.5 324Q367 363 367 422Q367 451 351.5 470.5Q336 490 307 490ZM250 615Q224 615 208 631.5Q192 648 192 673Q192 699 210.5 718Q229 737 255 737Q281 737 297 720.5Q313 704 313 679Q313 653 294.5 634Q276 615 250 615ZM436 615Q410 615 394 631.5Q378 648 378 673Q378 699 396.5 718Q415 737 441 737Q467 737 483 720.5Q499 704 499 679Q499 653 480.5 634Q462 615 436 615Z" glyph-name="edieresis" horiz-adv-x="472" unicode="&#235;" /><glyph d="M451 430Q451 385 420.5 351.5Q390 318 343 293Q296 268 238.5 250.5Q181 233 126 218V192Q126 126 154.5 87.5Q183 49 234 49Q279 49 318 74.5Q357 100 392 142L417 122Q389 85 363 60Q337 35 311 19.5Q285 4 258 -3Q231 -10 201 -10Q157 -10 126 7Q95 24 75 52Q55 80 46 116Q37 152 37 190Q37 254 60.5 317Q84 380 124.5 429.5Q165 479 219 509.5Q273 540 334 540Q395 540 423 508.5Q451 477 451 430ZM307 490Q277 490 248 471.5Q219 453 195 421Q171 389 154 345Q137 301 130 250Q248 285 307.5 324Q367 363 367 422Q367 451 351.5 470.5Q336 490 307 490ZM343 611Q316 611 298 629.5Q280 648 280 674Q280 703 300.5 724Q321 745 350 745Q377 745 395 726.5Q413 708 413 682Q413 653 392.5 632Q372 611 343 611Z" glyph-name="edotaccent" horiz-adv-x="472" unicode="&#279;" /><glyph d="M451 430Q451 385 420.5 351.5Q390 318 343 293Q296 268 238.5 250.5Q181 233 126 218V192Q126 126 154.5 87.5Q183 49 234 49Q279 49 318 74.5Q357 100 392 142L417 122Q389 85 363 60Q337 35 311 19.5Q285 4 258 -3Q231 -10 201 -10Q157 -10 126 7Q95 24 75 52Q55 80 46 116Q37 152 37 190Q37 254 60.5 317Q84 380 124.5 429.5Q165 479 219 509.5Q273 540 334 540Q395 540 423 508.5Q451 477 451 430ZM307 490Q277 490 248 471.5Q219 453 195 421Q171 389 154 345Q137 301 130 250Q248 285 307.5 324Q367 363 367 422Q367 451 351.5 470.5Q336 490 307 490ZM298 761 361 592H320L174 761Z" glyph-name="egrave" horiz-adv-x="472" unicode="&#232;" /><glyph d="M552 546Q552 511 536.5 483.5Q521 456 496.5 434.5Q472 413 440.5 398Q409 383 377 375L405 356Q451 325 479.5 287Q508 249 508 193Q508 147 491 109.5Q474 72 443 45.5Q412 19 368.5 4.5Q325 -10 272 -10Q218 -10 175 4Q132 18 102 42.5Q72 67 56.5 100.5Q41 134 41 174Q41 211 56 241.5Q71 272 96.5 295Q122 318 156.5 335Q191 352 231 362L214 376Q184 401 161 434.5Q138 468 138 519Q138 558 153 593.5Q168 629 196 655Q224 681 263.5 696.5Q303 712 351 712Q393 712 429.5 702Q466 692 493 671Q520 650 536 619Q552 588 552 546ZM255 347Q191 318 163.5 273Q136 228 136 175Q136 114 171.5 74.5Q207 35 273 35Q301 35 327.5 43.5Q354 52 374.5 68.5Q395 85 407.5 109Q420 133 420 164Q420 209 399 239Q378 269 340 293ZM356 390Q407 417 435.5 454Q464 491 464 546Q464 599 435 633Q406 667 351 667Q299 667 263 636Q227 605 227 549Q227 508 243 480.5Q259 453 291 432Z" glyph-name="eight" horiz-adv-x="575" unicode="8" /><glyph d="M56 63Q56 94 77 115Q98 136 129 136Q160 136 181 115Q202 94 202 63Q202 32 181 11Q160 -10 129 -10Q98 -10 77 11Q56 32 56 63ZM380 63Q380 94 401 115Q422 136 453 136Q484 136 505 115Q526 94 526 63Q526 32 505 11Q484 -10 453 -10Q422 -10 401 11Q380 32 380 63ZM704 63Q704 94 725 115Q746 136 777 136Q808 136 829 115Q850 94 850 63Q850 32 829 11Q808 -10 777 -10Q746 -10 725 11Q704 32 704 63Z" glyph-name="ellipsis" horiz-adv-x="972" unicode="&#8230;" /><glyph d="M451 430Q451 385 420.5 351.5Q390 318 343 293Q296 268 238.5 250.5Q181 233 126 218V192Q126 126 154.5 87.5Q183 49 234 49Q279 49 318 74.5Q357 100 392 142L417 122Q389 85 363 60Q337 35 311 19.5Q285 4 258 -3Q231 -10 201 -10Q157 -10 126 7Q95 24 75 52Q55 80 46 116Q37 152 37 190Q37 254 60.5 317Q84 380 124.5 429.5Q165 479 219 509.5Q273 540 334 540Q395 540 423 508.5Q451 477 451 430ZM307 490Q277 490 248 471.5Q219 453 195 421Q171 389 154 345Q137 301 130 250Q248 285 307.5 324Q367 363 367 422Q367 451 351.5 470.5Q336 490 307 490ZM216 681H478L465 623H203Z" glyph-name="emacron" horiz-adv-x="472" unicode="&#275;" /><glyph d="M46 272 63 338H945L928 272Z" glyph-name="emdash" horiz-adv-x="1000" unicode="&#8212;" /><glyph d="M46 272 63 338H525L508 272Z" glyph-name="endash" horiz-adv-x="580" unicode="&#8211;" /><glyph d="M448 422Q453 444 453 455Q453 476 435 476Q412 476 374.5 449.5Q337 423 297.5 377.5Q258 332 223.5 270.5Q189 209 171 139L136 0H45L158 454L82 485L88 506L239 540H264L230 402L195 291H202Q223 328 255.5 371.5Q288 415 325 452.5Q362 490 402 515Q442 540 478 540Q516 540 531 521Q546 502 546 469Q546 459 544 447Q542 435 540 425L453 96Q435 29 415 -26.5Q395 -82 369 -122Q343 -162 309.5 -184.5Q276 -207 232 -207Q192 -207 164.5 -191Q137 -175 137 -146Q137 -116 154 -103.5Q171 -91 190 -86H204Q212 -124 225.5 -144Q239 -164 263 -164Q288 -164 302.5 -125Q317 -86 334 -22Z" glyph-name="eng" horiz-adv-x="592" unicode="&#331;" /><glyph d="M451 430Q451 385 420.5 351.5Q390 318 343 293Q296 268 238.5 250.5Q181 233 126 218V192Q126 126 154.5 87.5Q183 49 234 49Q279 49 318 74.5Q357 100 392 142L417 122Q349 32 285 6Q261 -7 237.5 -20.5Q214 -34 194.5 -49.5Q175 -65 163 -82Q151 -99 151 -119Q151 -135 162 -145Q173 -155 195 -155Q219 -155 243 -141Q267 -127 293 -108L306 -127Q294 -140 278 -154.5Q262 -169 243 -181.5Q224 -194 203.5 -202Q183 -210 162 -210Q127 -210 105 -192.5Q83 -175 83 -142Q83 -98 114.5 -67Q146 -36 193 -10Q151 -9 121.5 8.5Q92 26 73.5 54Q55 82 46 117Q37 152 37 190Q37 254 60.5 317Q84 380 124.5 429.5Q165 479 219 509.5Q273 540 334 540Q395 540 423 508.5Q451 477 451 430ZM307 490Q277 490 248 471.5Q219 453 195 421Q171 389 154 345Q137 301 130 250Q248 285 307.5 324Q367 363 367 422Q367 451 351.5 470.5Q336 490 307 490Z" glyph-name="eogonek" horiz-adv-x="472" unicode="&#281;" /><glyph d="M73 332H511L498 271H61ZM102 471H539L527 409H89Z" glyph-name="equal" horiz-adv-x="574" unicode="=" /><glyph d="M140 614 279 667Q256 688 227 708Q198 728 163 746L185 776Q269 741 332 687L438 728L452 692L363 658Q421 598 453 521Q485 444 485 353Q485 285 465 220Q445 155 408.5 104Q372 53 321 21.5Q270 -10 209 -10Q131 -10 84 42Q37 94 37 191Q37 253 57 315.5Q77 378 113 428Q149 478 198.5 509Q248 540 307 540Q342 540 369 525Q359 554 344.5 582.5Q330 611 307 637L154 578ZM391 363Q391 393 388.5 421.5Q386 450 381 479Q367 491 349 495.5Q331 500 314 500Q272 500 238 468Q204 436 180 387Q156 338 143.5 279Q131 220 131 167Q131 101 152.5 65.5Q174 30 212 30Q253 30 286 62Q319 94 342.5 143Q366 192 378.5 251Q391 310 391 363Z" glyph-name="eth" horiz-adv-x="522" unicode="&#240;" /><glyph d="M37 63Q37 94 58 115Q79 136 110 136Q141 136 162 115Q183 94 183 63Q183 32 162 11Q141 -10 110 -10Q79 -10 58 11Q37 32 37 63ZM159 203H112L186 702H321Z" glyph-name="exclam" horiz-adv-x="292" unicode="!" /><glyph d="M276.0023 467.0038Q276.0023 436.0057 255.0035 415.007Q234.0048 394.0083 203.0067 394.0083Q172.0086 394.0083 151.0099 415.007Q130.0112 436.0057 130.0112 467.0038Q130.0112 498.002 151.0099 519.0007Q172.0086 539.9994 203.0067 539.9994Q234.0048 539.9994 255.0035 519.0007Q276.0023 498.002 276.0023 467.0038ZM154.0097 327.0124H201.0068L127.0114 -171.9572H-7.9804Z" glyph-name="exclamdown" horiz-adv-x="292" unicode="&#161;" /><glyph d="M66 516 151 536Q171 645 223 705.5Q275 766 360 766Q410 766 438 745.5Q466 725 466 692Q466 669 453.5 653Q441 637 418 630H399Q397 671 380 699Q363 727 334 727Q317 727 302.5 718Q288 709 276 686.5Q264 664 255.5 626Q247 588 241 530H364L358 482H236L168 151Q147 50 124.5 -18.5Q102 -87 75 -129Q48 -171 15 -189Q-18 -207 -60 -207Q-100 -207 -125 -191Q-150 -175 -150 -146Q-150 -116 -133 -103.5Q-116 -91 -97 -86H-83Q-75 -124 -61 -144Q-47 -164 -23 -164Q-12 -164 -1 -157Q10 -150 21.5 -124.5Q33 -99 46 -48Q59 3 74 90L141 482H60Z" glyph-name="f" horiz-adv-x="326" unicode="f" /><glyph d="M66 516 151 536Q162 592 183.5 635Q205 678 235 707Q265 736 301.5 751Q338 766 379 766Q424 766 455 750.5Q486 735 506 717L581 761H604L526 426L474 277H481Q550 402 617.5 471Q685 540 753 540Q808 540 835.5 500.5Q863 461 863 398Q863 317 831 243Q799 169 749 113Q699 57 637.5 23.5Q576 -10 517 -10Q459 -10 417 19.5Q375 49 363 106L485 646Q479 661 468.5 676Q458 691 443.5 703Q429 715 411 722.5Q393 730 373 730Q352 730 330 720Q308 710 290 686.5Q272 663 258.5 624Q245 585 241 528H364L358 482H238L168 151Q147 50 124.5 -18.5Q102 -87 75 -129Q48 -171 15 -189Q-18 -207 -60 -207Q-100 -207 -125 -191Q-150 -175 -150 -146Q-150 -116 -133 -103.5Q-116 -91 -97 -86H-83Q-75 -124 -61 -144Q-47 -164 -23 -164Q-12 -164 -1 -157Q10 -150 21.5 -124.5Q33 -99 46 -48Q59 3 74 90L141 482H60ZM712 473Q688 473 651 445.5Q614 418 575 369.5Q536 321 502 254.5Q468 188 450 110Q450 75 470 53.5Q490 32 522 32Q570 32 615 65.5Q660 99 694.5 151Q729 203 750 267Q771 331 771 392Q771 473 712 473Z" glyph-name="f_b" horiz-adv-x="897" /><glyph d="M547 482 482 163Q461 62 438.5 -6.5Q416 -75 389 -117Q362 -159 329 -177Q296 -195 254 -195Q217 -195 195.5 -179Q174 -163 174 -134Q174 -108 190 -94.5Q206 -81 225 -76H239Q247 -114 258 -133Q269 -152 291 -152Q302 -152 313 -145Q324 -138 335.5 -112.5Q347 -87 360 -36Q373 15 388 102L452 482H237L168 151Q147 50 124.5 -18.5Q102 -87 75 -129Q48 -171 15 -189Q-18 -207 -60 -207Q-100 -207 -125 -191Q-150 -175 -150 -146Q-150 -116 -133 -103.5Q-116 -91 -97 -86H-83Q-75 -124 -61 -144Q-47 -164 -23 -164Q-12 -164 -1 -157Q10 -150 21.5 -124.5Q33 -99 46 -48Q59 3 74 90L141 482H60L66 516L151 536Q162 592 183.5 633.5Q205 675 235 702Q265 729 301.5 742.5Q338 756 379 756Q426 756 467.5 735.5Q509 715 532 691Q596 766 690 766Q735 766 766 750.5Q797 735 817 717L892 761H915L837 426L785 277H792Q861 402 928.5 471Q996 540 1064 540Q1119 540 1146.5 500.5Q1174 461 1174 398Q1174 317 1142 243Q1110 169 1060 113Q1010 57 948.5 23.5Q887 -10 828 -10Q770 -10 728 19.5Q686 49 674 106L796 646Q790 661 779.5 676Q769 691 754.5 703Q740 715 722 722.5Q704 730 684 730Q663 730 641 720Q619 710 601 686.5Q583 663 569.5 624Q556 585 552 528H675L669 482ZM1023 473Q999 473 962 445.5Q925 418 886 369.5Q847 321 813 254.5Q779 188 761 110Q761 75 781 53.5Q801 32 833 32Q881 32 926 65.5Q971 99 1005.5 151Q1040 203 1061 267Q1082 331 1082 392Q1082 473 1023 473ZM460 528Q470 585 492 630Q486 645 474.5 660.5Q463 676 448 689.5Q433 703 414 711.5Q395 720 373 720Q352 720 330 711.5Q308 703 290 681.5Q272 660 259 622.5Q246 585 242 528Z" glyph-name="f_f_b" horiz-adv-x="1208" /><glyph d="M547 482 482 163Q461 62 438.5 -6.5Q416 -75 389 -117Q362 -159 329 -177Q296 -195 254 -195Q217 -195 195.5 -179Q174 -163 174 -134Q174 -108 190 -94.5Q206 -81 225 -76H239Q247 -114 258 -133Q269 -152 291 -152Q302 -152 313 -145Q324 -138 335.5 -112.5Q347 -87 360 -36Q373 15 388 102L452 482H237L168 151Q147 50 124.5 -18.5Q102 -87 75 -129Q48 -171 15 -189Q-18 -207 -60 -207Q-100 -207 -125 -191Q-150 -175 -150 -146Q-150 -116 -133 -103.5Q-116 -91 -97 -86H-83Q-75 -124 -61 -144Q-47 -164 -23 -164Q-12 -164 -1 -157Q10 -150 21.5 -124.5Q33 -99 46 -48Q59 3 74 90L141 482H60L66 516L151 536Q162 592 183.5 633.5Q205 675 235 702Q265 729 301.5 742.5Q338 756 379 756Q426 756 467.5 735.5Q509 715 532 691Q596 766 690 766Q735 766 766 750.5Q797 735 817 717L892 761H915L832 403L798 291H805Q826 328 858.5 371.5Q891 415 928 452.5Q965 490 1005 515Q1045 540 1081 540Q1119 540 1134 521Q1149 502 1149 469Q1149 459 1147 447Q1145 435 1143 425L1061 116Q1057 102 1054.5 90Q1052 78 1052 72Q1052 57 1066 57Q1080 57 1102.5 73.5Q1125 90 1159 132L1179 111Q1133 43 1097 16.5Q1061 -10 1024 -10Q995 -10 978.5 8.5Q962 27 962 58Q962 75 965 95Q968 115 976 144L1051 422Q1056 444 1056 455Q1056 476 1038 476Q1015 476 977.5 449.5Q940 423 900.5 377.5Q861 332 826.5 270.5Q792 209 774 139L739 0H648L796 646Q790 661 779.5 676Q769 691 754.5 703Q740 715 722 722.5Q704 730 684 730Q663 730 641 720Q619 710 601 686.5Q583 663 569.5 624Q556 585 552 528H675L669 482ZM460 528Q470 585 492 630Q486 645 474.5 660.5Q463 676 448 689.5Q433 703 414 711.5Q395 720 373 720Q352 720 330 711.5Q308 703 290 681.5Q272 660 259 622.5Q246 585 242 528Z" glyph-name="f_f_h" horiz-adv-x="1229" /><glyph d="M452 482H237L168 151Q147 50 124.5 -18.5Q102 -87 75 -129Q48 -171 15 -189Q-18 -207 -60 -207Q-100 -207 -125 -191Q-150 -175 -150 -146Q-150 -116 -133 -103.5Q-116 -91 -97 -86H-83Q-75 -124 -61 -144Q-47 -164 -23 -164Q-12 -164 -1 -157Q10 -150 21.5 -124.5Q33 -99 46 -48Q59 3 74 90L141 482H60L66 516L151 536Q162 592 183.5 633.5Q205 675 235 702Q265 729 301.5 742.5Q338 756 379 756Q403 756 426 750Q449 744 469 734.5Q489 725 505.5 713Q522 701 534 689Q602 766 705 766Q763 766 797 745.5Q831 725 831 692Q831 669 816 653Q801 637 778 630H766Q757 672 739 699.5Q721 727 685 727Q665 727 644 717.5Q623 708 604.5 685.5Q586 663 572 624.5Q558 586 552 528H802L848 544H874L776 109Q761 41 741 -14.5Q721 -70 694 -110Q667 -150 633 -172Q599 -194 555 -194Q515 -194 490 -178Q465 -162 465 -133Q465 -103 482 -90.5Q499 -78 518 -73H532Q540 -111 553.5 -131Q567 -151 591 -151Q616 -151 632 -112.5Q648 -74 662 -9L768 482H547L482 163Q461 62 438.5 -6.5Q416 -75 389 -117Q362 -159 329 -177Q296 -195 254 -195Q217 -195 195.5 -179Q174 -163 174 -134Q174 -108 190 -94.5Q206 -81 225 -76H239Q247 -114 258 -133Q269 -152 291 -152Q302 -152 313 -145Q324 -138 335.5 -112.5Q347 -87 360 -36Q373 15 388 102ZM373 720Q352 720 330 711.5Q308 703 290 681.5Q272 660 259 622.5Q246 585 242 528H460Q471 584 493 629Q487 644 475.5 660Q464 676 448.5 689.5Q433 703 414 711.5Q395 720 373 720Z" glyph-name="f_f_j" horiz-adv-x="904" /><glyph d="M547 482 482 163Q461 62 438.5 -6.5Q416 -75 389 -117Q362 -159 329 -177Q296 -195 254 -195Q217 -195 195.5 -179Q174 -163 174 -134Q174 -108 190 -94.5Q206 -81 225 -76H239Q247 -114 258 -133Q269 -152 291 -152Q302 -152 313 -145Q324 -138 335.5 -112.5Q347 -87 360 -36Q373 15 388 102L452 482H237L168 151Q147 50 124.5 -18.5Q102 -87 75 -129Q48 -171 15 -189Q-18 -207 -60 -207Q-100 -207 -125 -191Q-150 -175 -150 -146Q-150 -116 -133 -103.5Q-116 -91 -97 -86H-83Q-75 -124 -61 -144Q-47 -164 -23 -164Q-12 -164 -1 -157Q10 -150 21.5 -124.5Q33 -99 46 -48Q59 3 74 90L141 482H60L66 516L151 536Q162 592 183.5 633.5Q205 675 235 702Q265 729 301.5 742.5Q338 756 379 756Q426 756 467.5 735.5Q509 715 532 691Q596 766 690 766Q735 766 766 750.5Q797 735 817 717L892 761H915L739 0H648L796 646Q790 661 779.5 676Q769 691 754.5 703Q740 715 722 722.5Q704 730 684 730Q663 730 641 720Q619 710 601 686.5Q583 663 569.5 624Q556 585 552 528H675L669 482ZM990 118Q1003 89 1015 70.5Q1027 52 1043 52Q1060 52 1084 74Q1108 96 1134 129L1152 107Q1117 50 1082 20Q1047 -10 1009 -10Q969 -10 946 20.5Q923 51 904 96L825 287L1014 491Q1036 515 1056.5 527.5Q1077 540 1105 540Q1138 540 1153 522Q1168 504 1168 482Q1168 458 1154 441.5Q1140 425 1112 414H1098Q1098 432 1090 444Q1082 456 1062 456Q1048 456 1031 447.5Q1014 439 989 411L903 315ZM460 528Q470 585 492 630Q486 645 474.5 660.5Q463 676 448 689.5Q433 703 414 711.5Q395 720 373 720Q352 720 330 711.5Q308 703 290 681.5Q272 660 259 622.5Q246 585 242 528Z" glyph-name="f_f_k" horiz-adv-x="1184" /><glyph d="M66 516 151 536Q162 592 183.5 635Q205 678 235 707Q265 736 301.5 751Q338 766 379 766Q424 766 455 750.5Q486 735 506 717L581 761H604L521 403L487 291H494Q515 328 547.5 371.5Q580 415 617 452.5Q654 490 694 515Q734 540 770 540Q808 540 823 521Q838 502 838 469Q838 459 836 447Q834 435 832 425L750 116Q746 102 743.5 90Q741 78 741 72Q741 57 755 57Q769 57 791.5 73.5Q814 90 848 132L868 111Q822 43 786 16.5Q750 -10 713 -10Q684 -10 667.5 8.5Q651 27 651 58Q651 75 654 95Q657 115 665 144L740 422Q745 444 745 455Q745 476 727 476Q704 476 666.5 449.5Q629 423 589.5 377.5Q550 332 515.5 270.5Q481 209 463 139L428 0H337L485 646Q479 661 468.5 676Q458 691 443.5 703Q429 715 411 722.5Q393 730 373 730Q352 730 330 720Q308 710 290 686.5Q272 663 258.5 624Q245 585 241 528H364L358 482H238L168 151Q147 50 124.5 -18.5Q102 -87 75 -129Q48 -171 15 -189Q-18 -207 -60 -207Q-100 -207 -125 -191Q-150 -175 -150 -146Q-150 -116 -133 -103.5Q-116 -91 -97 -86H-83Q-75 -124 -61 -144Q-47 -164 -23 -164Q-12 -164 -1 -157Q10 -150 21.5 -124.5Q33 -99 46 -48Q59 3 74 90L141 482H60Z" glyph-name="f_h" horiz-adv-x="918" /><glyph d="M141 482H60L66 516L151 536Q161 590 184 633Q207 676 239 705.5Q271 735 310.5 750.5Q350 766 394 766Q452 766 486 745.5Q520 725 520 692Q520 669 505 653Q490 637 467 630H455Q446 672 428 699.5Q410 727 374 727Q354 727 333 717.5Q312 708 293.5 685.5Q275 663 261 624.5Q247 586 241 528H491L537 544H563L465 109Q450 41 430 -14.5Q410 -70 383 -110Q356 -150 322 -172Q288 -194 244 -194Q204 -194 179 -178Q154 -162 154 -133Q154 -103 171 -90.5Q188 -78 207 -73H221Q229 -111 242.5 -131Q256 -151 280 -151Q305 -151 321 -112.5Q337 -74 351 -9L457 482H238L168 151Q147 50 124.5 -18.5Q102 -87 75 -129Q48 -171 15 -189Q-18 -207 -60 -207Q-100 -207 -125 -191Q-150 -175 -150 -146Q-150 -116 -133 -103.5Q-116 -91 -97 -86H-83Q-75 -124 -61 -144Q-47 -164 -23 -164Q-12 -164 -1 -157Q10 -150 21.5 -124.5Q33 -99 46 -48Q59 3 74 90Z" glyph-name="f_j" horiz-adv-x="593" /><glyph d="M66 516 151 536Q162 592 183.5 635Q205 678 235 707Q265 736 301.5 751Q338 766 379 766Q424 766 455 750.5Q486 735 506 717L581 761H604L428 0H337L485 646Q479 661 468.5 676Q458 691 443.5 703Q429 715 411 722.5Q393 730 373 730Q352 730 330 720Q308 710 290 686.5Q272 663 258.5 624Q245 585 241 528H364L358 482H238L168 151Q147 50 124.5 -18.5Q102 -87 75 -129Q48 -171 15 -189Q-18 -207 -60 -207Q-100 -207 -125 -191Q-150 -175 -150 -146Q-150 -116 -133 -103.5Q-116 -91 -97 -86H-83Q-75 -124 -61 -144Q-47 -164 -23 -164Q-12 -164 -1 -157Q10 -150 21.5 -124.5Q33 -99 46 -48Q59 3 74 90L141 482H60ZM679 118Q692 89 704 70.5Q716 52 732 52Q749 52 773 74Q797 96 823 129L841 107Q806 50 771 20Q736 -10 698 -10Q658 -10 635 20.5Q612 51 593 96L514 287L703 491Q725 515 745.5 527.5Q766 540 794 540Q827 540 842 522Q857 504 857 482Q857 458 843 441.5Q829 425 801 414H787Q787 432 779 444Q771 456 751 456Q737 456 720 447.5Q703 439 678 411L592 315Z" glyph-name="f_k" horiz-adv-x="873" /><glyph d="M452 482H237L168 151Q147 50 124.5 -18.5Q102 -87 75 -129Q48 -171 15 -189Q-18 -207 -60 -207Q-100 -207 -125 -191Q-150 -175 -150 -146Q-150 -116 -133 -103.5Q-116 -91 -97 -86H-83Q-75 -124 -61 -144Q-47 -164 -23 -164Q-12 -164 -1 -157Q10 -150 21.5 -124.5Q33 -99 46 -48Q59 3 74 90L141 482H60L66 516L151 536Q162 592 183.5 633.5Q205 675 235 702Q265 729 301.5 742.5Q338 756 379 756Q425 756 464.5 737Q504 718 528 695Q584 766 671 766Q721 766 749 745.5Q777 725 777 692Q777 669 764.5 653Q752 637 729 630H710Q708 671 691 699Q674 727 645 727Q628 727 614 717.5Q600 708 588 685.5Q576 663 567 624.5Q558 586 552 528H675L669 482H547L482 163Q461 62 438.5 -6.5Q416 -75 389 -117Q362 -159 329 -177Q296 -195 254 -195Q217 -195 195.5 -179Q174 -163 174 -134Q174 -108 190 -94.5Q206 -81 225 -76H239Q247 -114 258 -133Q269 -152 291 -152Q302 -152 313 -145Q324 -138 335.5 -112.5Q347 -87 360 -36Q373 15 388 102ZM373 720Q352 720 330 711.5Q308 703 290 681.5Q272 660 259 622.5Q246 585 242 528H460Q465 557 473 583.5Q481 610 491 633Q484 647 473 662.5Q462 678 447 690.5Q432 703 413 711.5Q394 720 373 720Z" glyph-name="ff" horiz-adv-x="637" unicode="&#64256;" /><glyph d="M452 482H237L168 151Q147 50 124.5 -18.5Q102 -87 75 -129Q48 -171 15 -189Q-18 -207 -60 -207Q-100 -207 -125 -191Q-150 -175 -150 -146Q-150 -116 -133 -103.5Q-116 -91 -97 -86H-83Q-75 -124 -61 -144Q-47 -164 -23 -164Q-12 -164 -1 -157Q10 -150 21.5 -124.5Q33 -99 46 -48Q59 3 74 90L141 482H60L66 516L151 536Q162 592 183.5 633.5Q205 675 235 702Q265 729 301.5 742.5Q338 756 379 756Q403 756 426 750Q449 744 469 734.5Q489 725 505.5 713Q522 701 534 689Q602 766 705 766Q763 766 797 745.5Q831 725 831 692Q831 669 816 653Q801 637 778 630H766Q757 672 739 699.5Q721 727 685 727Q665 727 644 717.5Q623 708 604.5 685.5Q586 663 572 624.5Q558 586 552 528H802L848 544H874L769 116Q765 102 762.5 90Q760 78 760 72Q760 57 774 57Q788 57 810.5 73.5Q833 90 867 132L887 111Q841 43 805 16.5Q769 -10 732 -10Q703 -10 686.5 8.5Q670 27 670 58Q670 75 673.5 95Q677 115 684 144L768 482H547L482 163Q461 62 438.5 -6.5Q416 -75 389 -117Q362 -159 329 -177Q296 -195 254 -195Q217 -195 195.5 -179Q174 -163 174 -134Q174 -108 190 -94.5Q206 -81 225 -76H239Q247 -114 258 -133Q269 -152 291 -152Q302 -152 313 -145Q324 -138 335.5 -112.5Q347 -87 360 -36Q373 15 388 102ZM373 720Q352 720 330 711.5Q308 703 290 681.5Q272 660 259 622.5Q246 585 242 528H460Q471 584 493 629Q487 644 475.5 660Q464 676 448.5 689.5Q433 703 414 711.5Q395 720 373 720Z" glyph-name="ffi" horiz-adv-x="941" unicode="&#64259;" /><glyph d="M547 482 482 163Q461 62 438.5 -6.5Q416 -75 389 -117Q362 -159 329 -177Q296 -195 254 -195Q217 -195 195.5 -179Q174 -163 174 -134Q174 -108 190 -94.5Q206 -81 225 -76H239Q247 -114 258 -133Q269 -152 291 -152Q302 -152 313 -145Q324 -138 335.5 -112.5Q347 -87 360 -36Q373 15 388 102L452 482H237L168 151Q147 50 124.5 -18.5Q102 -87 75 -129Q48 -171 15 -189Q-18 -207 -60 -207Q-100 -207 -125 -191Q-150 -175 -150 -146Q-150 -116 -133 -103.5Q-116 -91 -97 -86H-83Q-75 -124 -61 -144Q-47 -164 -23 -164Q-12 -164 -1 -157Q10 -150 21.5 -124.5Q33 -99 46 -48Q59 3 74 90L141 482H60L66 516L151 536Q162 592 183.5 633.5Q205 675 235 702Q265 729 301.5 742.5Q338 756 379 756Q426 756 467.5 735.5Q509 715 532 691Q596 766 690 766Q735 766 766 750.5Q797 735 817 717L892 761H915L767 116Q763 100 761.5 89Q760 78 760 72Q760 57 774 57Q788 57 810.5 73.5Q833 90 867 132L887 111Q841 43 805 16.5Q769 -10 732 -10Q703 -10 686.5 8.5Q670 27 670 58Q670 75 673 95Q676 115 683 144L796 646Q790 661 779.5 676Q769 691 754.5 703Q740 715 722 722.5Q704 730 684 730Q663 730 641 720Q619 710 601 686.5Q583 663 569.5 624Q556 585 552 528H675L669 482ZM460 528Q470 585 492 630Q486 645 474.5 660.5Q463 676 448 689.5Q433 703 414 711.5Q395 720 373 720Q352 720 330 711.5Q308 703 290 681.5Q272 660 259 622.5Q246 585 242 528Z" glyph-name="ffl" horiz-adv-x="927" unicode="&#64260;" /><glyph d="M66 516 151 536Q161 590 184 633Q207 676 239 705.5Q271 735 310.5 750.5Q350 766 394 766Q452 766 486 745.5Q520 725 520 692Q520 669 505 653Q490 637 467 630H455Q446 672 428 699.5Q410 727 374 727Q354 727 333 717.5Q312 708 293.5 685.5Q275 663 261 624.5Q247 586 241 528H491L537 544H563L458 116Q454 102 451.5 90Q449 78 449 72Q449 57 463 57Q477 57 499.5 73.5Q522 90 556 132L576 111Q530 43 494 16.5Q458 -10 421 -10Q392 -10 375.5 8.5Q359 27 359 58Q359 75 362.5 95Q366 115 373 144L457 482H238L168 151Q147 50 124.5 -18.5Q102 -87 75 -129Q48 -171 15 -189Q-18 -207 -60 -207Q-100 -207 -125 -191Q-150 -175 -150 -146Q-150 -116 -133 -103.5Q-116 -91 -97 -86H-83Q-75 -124 -61 -144Q-47 -164 -23 -164Q-12 -164 -1 -157Q10 -150 21.5 -124.5Q33 -99 46 -48Q59 3 74 90L141 482H60Z" glyph-name="fi" horiz-adv-x="630" unicode="&#64257;" /><glyph d="M512 607H244L192 452Q251 451 305 439Q359 427 400.5 400.5Q442 374 467 331.5Q492 289 492 229Q492 176 472.5 132Q453 88 418.5 56.5Q384 25 338 7.5Q292 -10 238 -10Q181 -10 141 3.5Q101 17 75.5 38Q50 59 38 85Q26 111 26 136Q26 169 42.5 191.5Q59 214 81 225H135Q127 205 124 187Q121 169 121 150Q121 127 127 106Q133 85 147.5 69Q162 53 185 43.5Q208 34 241 34Q276 34 304.5 46Q333 58 353.5 79.5Q374 101 385.5 131.5Q397 162 397 200Q397 252 374.5 285.5Q352 319 314 337.5Q276 356 224.5 363.5Q173 371 116 371L228 702H542Z" glyph-name="five" horiz-adv-x="552" unicode="5" /><glyph d="M66 516 151 536Q162 592 183.5 635Q205 678 235 707Q265 736 301.5 751Q338 766 379 766Q424 766 455 750.5Q486 735 506 717L581 761H604L456 116Q452 100 450.5 89Q449 78 449 72Q449 57 463 57Q477 57 499.5 73.5Q522 90 556 132L576 111Q530 43 494 16.5Q458 -10 421 -10Q392 -10 375.5 8.5Q359 27 359 58Q359 75 362 95Q365 115 372 144L485 646Q479 661 468.5 676Q458 691 443.5 703Q429 715 411 722.5Q393 730 373 730Q352 730 330 720Q308 710 290 686.5Q272 663 258.5 624Q245 585 241 528H364L358 482H238L168 151Q147 50 124.5 -18.5Q102 -87 75 -129Q48 -171 15 -189Q-18 -207 -60 -207Q-100 -207 -125 -191Q-150 -175 -150 -146Q-150 -116 -133 -103.5Q-116 -91 -97 -86H-83Q-75 -124 -61 -144Q-47 -164 -23 -164Q-12 -164 -1 -157Q10 -150 21.5 -124.5Q33 -99 46 -48Q59 3 74 90L141 482H60Z" glyph-name="fl" horiz-adv-x="616" unicode="&#64258;" /><glyph d="M102 352H188L208 439Q237 570 290 641Q343 712 428 712Q479 712 500 693Q521 674 521 645Q521 618 505 603Q489 588 466 581H447Q446 601 445 618Q444 635 439.5 647Q435 659 427 666Q419 673 404 673Q378 673 362 648.5Q346 624 336 580L284 352H397L390 309H275L229 105Q199 -27 146 -98.5Q93 -170 8 -170Q-43 -170 -64 -151Q-85 -132 -85 -103Q-85 -76 -69 -61Q-53 -46 -30 -39H-11Q-10 -80 -3.5 -105.5Q3 -131 32 -131Q58 -131 74 -106.5Q90 -82 100 -38L178 309H92Z" glyph-name="florin" horiz-adv-x="470" unicode="&#402;" /><glyph d="M352 232 421 563 84 232ZM340 180H0L7 218L498 702H546L447 232H568L556 180H435L423 125Q418 100 418 90Q418 59 441 50Q464 41 509 39L502 0H199L206 39Q231 40 251 43Q271 46 286 53.5Q301 61 310.5 75Q320 89 325 112Z" glyph-name="four" horiz-adv-x="605" unicode="4" /><glyph d="M403 741H463L-150 0H-210Z" glyph-name="fraction" horiz-adv-x="283" unicode="&#8260;" /><glyph d="M305 540Q349 540 381 523L557 535L542 470H503L421 492Q455 452 455 396Q455 345 436.5 304Q418 263 386.5 234Q355 205 312.5 189.5Q270 174 221 174Q198 174 175 179Q160 169 150 160Q140 151 140 140Q140 126 150.5 120.5Q161 115 181 110L325 69Q346 63 367 53.5Q388 44 405.5 29.5Q423 15 433.5 -5Q444 -25 444 -52Q444 -79 430 -106.5Q416 -134 384.5 -157Q353 -180 302 -194.5Q251 -209 177 -209Q126 -209 82.5 -199Q39 -189 7.5 -171.5Q-24 -154 -42 -130.5Q-60 -107 -60 -80Q-60 -51 -46.5 -30.5Q-33 -10 -10 5Q13 20 43.5 30Q74 40 107 49Q95 57 87 70Q79 83 79 100Q79 129 96.5 149Q114 169 148 189Q110 207 90.5 241.5Q71 276 71 318Q71 369 89.5 410Q108 451 139.5 480Q171 509 213.5 524.5Q256 540 305 540ZM129 36Q77 18 52.5 -5.5Q28 -29 28 -68Q28 -92 41 -111.5Q54 -131 76.5 -144.5Q99 -158 129 -165Q159 -172 193 -172Q230 -172 261.5 -165.5Q293 -159 316 -146.5Q339 -134 351.5 -116Q364 -98 364 -76Q364 -47 342.5 -33.5Q321 -20 283 -9ZM234 209Q259 209 283 224.5Q307 240 326 266.5Q345 293 356 328Q367 363 367 403Q367 447 349.5 476Q332 505 292 505Q266 505 242.5 489.5Q219 474 200 447.5Q181 421 170 386Q159 351 159 311Q159 267 176.5 238Q194 209 234 209Z" glyph-name="g" horiz-adv-x="517" unicode="g" /><glyph d="M305 540Q349 540 381 523L557 535L542 470H503L421 492Q455 452 455 396Q455 345 436.5 304Q418 263 386.5 234Q355 205 312.5 189.5Q270 174 221 174Q198 174 175 179Q160 169 150 160Q140 151 140 140Q140 126 150.5 120.5Q161 115 181 110L325 69Q346 63 367 53.5Q388 44 405.5 29.5Q423 15 433.5 -5Q444 -25 444 -52Q444 -79 430 -106.5Q416 -134 384.5 -157Q353 -180 302 -194.5Q251 -209 177 -209Q126 -209 82.5 -199Q39 -189 7.5 -171.5Q-24 -154 -42 -130.5Q-60 -107 -60 -80Q-60 -51 -46.5 -30.5Q-33 -10 -10 5Q13 20 43.5 30Q74 40 107 49Q95 57 87 70Q79 83 79 100Q79 129 96.5 149Q114 169 148 189Q110 207 90.5 241.5Q71 276 71 318Q71 369 89.5 410Q108 451 139.5 480Q171 509 213.5 524.5Q256 540 305 540ZM129 36Q77 18 52.5 -5.5Q28 -29 28 -68Q28 -92 41 -111.5Q54 -131 76.5 -144.5Q99 -158 129 -165Q159 -172 193 -172Q230 -172 261.5 -165.5Q293 -159 316 -146.5Q339 -134 351.5 -116Q364 -98 364 -76Q364 -47 342.5 -33.5Q321 -20 283 -9ZM234 209Q259 209 283 224.5Q307 240 326 266.5Q345 293 356 328Q367 363 367 403Q367 447 349.5 476Q332 505 292 505Q266 505 242.5 489.5Q219 474 200 447.5Q181 421 170 386Q159 351 159 311Q159 267 176.5 238Q194 209 234 209ZM342 593Q285 593 257 624Q229 655 229 714Q229 735 235 761H271Q270 756 270 752.5Q270 749 270 744Q270 699 293.5 679Q317 659 355 659Q396 659 428 683Q460 707 477 761H516Q500 680 455 636.5Q410 593 342 593Z" glyph-name="gbreve" horiz-adv-x="517" unicode="&#287;" /><glyph d="M305 540Q349 540 381 523L557 535L542 470H503L421 492Q455 452 455 396Q455 345 436.5 304Q418 263 386.5 234Q355 205 312.5 189.5Q270 174 221 174Q198 174 175 179Q160 169 150 160Q140 151 140 140Q140 126 150.5 120.5Q161 115 181 110L325 69Q346 63 367 53.5Q388 44 405.5 29.5Q423 15 433.5 -5Q444 -25 444 -52Q444 -79 430 -106.5Q416 -134 384.5 -157Q353 -180 302 -194.5Q251 -209 177 -209Q126 -209 82.5 -199Q39 -189 7.5 -171.5Q-24 -154 -42 -130.5Q-60 -107 -60 -80Q-60 -51 -46.5 -30.5Q-33 -10 -10 5Q13 20 43.5 30Q74 40 107 49Q95 57 87 70Q79 83 79 100Q79 129 96.5 149Q114 169 148 189Q110 207 90.5 241.5Q71 276 71 318Q71 369 89.5 410Q108 451 139.5 480Q171 509 213.5 524.5Q256 540 305 540ZM129 36Q77 18 52.5 -5.5Q28 -29 28 -68Q28 -92 41 -111.5Q54 -131 76.5 -144.5Q99 -158 129 -165Q159 -172 193 -172Q230 -172 261.5 -165.5Q293 -159 316 -146.5Q339 -134 351.5 -116Q364 -98 364 -76Q364 -47 342.5 -33.5Q321 -20 283 -9ZM234 209Q259 209 283 224.5Q307 240 326 266.5Q345 293 356 328Q367 363 367 403Q367 447 349.5 476Q332 505 292 505Q266 505 242.5 489.5Q219 474 200 447.5Q181 421 170 386Q159 351 159 311Q159 267 176.5 238Q194 209 234 209ZM502 592H457L360 692L201 592H154L332 761H406Z" glyph-name="gcircumflex" horiz-adv-x="517" unicode="&#285;" /><glyph d="M305 540Q349 540 381 523L557 535L542 470H503L421 492Q455 452 455 396Q455 345 436.5 304Q418 263 386.5 234Q355 205 312.5 189.5Q270 174 221 174Q198 174 175 179Q160 169 150 160Q140 151 140 140Q140 126 150.5 120.5Q161 115 181 110L325 69Q346 63 367 53.5Q388 44 405.5 29.5Q423 15 433.5 -5Q444 -25 444 -52Q444 -79 430 -106.5Q416 -134 384.5 -157Q353 -180 302 -194.5Q251 -209 177 -209Q126 -209 82.5 -199Q39 -189 7.5 -171.5Q-24 -154 -42 -130.5Q-60 -107 -60 -80Q-60 -51 -46.5 -30.5Q-33 -10 -10 5Q13 20 43.5 30Q74 40 107 49Q95 57 87 70Q79 83 79 100Q79 129 96.5 149Q114 169 148 189Q110 207 90.5 241.5Q71 276 71 318Q71 369 89.5 410Q108 451 139.5 480Q171 509 213.5 524.5Q256 540 305 540ZM129 36Q77 18 52.5 -5.5Q28 -29 28 -68Q28 -92 41 -111.5Q54 -131 76.5 -144.5Q99 -158 129 -165Q159 -172 193 -172Q230 -172 261.5 -165.5Q293 -159 316 -146.5Q339 -134 351.5 -116Q364 -98 364 -76Q364 -47 342.5 -33.5Q321 -20 283 -9ZM234 209Q259 209 283 224.5Q307 240 326 266.5Q345 293 356 328Q367 363 367 403Q367 447 349.5 476Q332 505 292 505Q266 505 242.5 489.5Q219 474 200 447.5Q181 421 170 386Q159 351 159 311Q159 267 176.5 238Q194 209 234 209ZM390 708Q408 704 415.5 693Q423 682 423 669Q423 640 402 623.5Q381 607 350 607Q319 607 303 624Q287 641 287 671Q287 694 296.5 715Q306 736 324.5 751.5Q343 767 371 776Q399 785 435 785L428 752Q353 752 344 708Z" glyph-name="gcommaaccent" horiz-adv-x="517" unicode="&#291;" /><glyph d="M305 540Q349 540 381 523L557 535L542 470H503L421 492Q455 452 455 396Q455 345 436.5 304Q418 263 386.5 234Q355 205 312.5 189.5Q270 174 221 174Q198 174 175 179Q160 169 150 160Q140 151 140 140Q140 126 150.5 120.5Q161 115 181 110L325 69Q346 63 367 53.5Q388 44 405.5 29.5Q423 15 433.5 -5Q444 -25 444 -52Q444 -79 430 -106.5Q416 -134 384.5 -157Q353 -180 302 -194.5Q251 -209 177 -209Q126 -209 82.5 -199Q39 -189 7.5 -171.5Q-24 -154 -42 -130.5Q-60 -107 -60 -80Q-60 -51 -46.5 -30.5Q-33 -10 -10 5Q13 20 43.5 30Q74 40 107 49Q95 57 87 70Q79 83 79 100Q79 129 96.5 149Q114 169 148 189Q110 207 90.5 241.5Q71 276 71 318Q71 369 89.5 410Q108 451 139.5 480Q171 509 213.5 524.5Q256 540 305 540ZM129 36Q77 18 52.5 -5.5Q28 -29 28 -68Q28 -92 41 -111.5Q54 -131 76.5 -144.5Q99 -158 129 -165Q159 -172 193 -172Q230 -172 261.5 -165.5Q293 -159 316 -146.5Q339 -134 351.5 -116Q364 -98 364 -76Q364 -47 342.5 -33.5Q321 -20 283 -9ZM234 209Q259 209 283 224.5Q307 240 326 266.5Q345 293 356 328Q367 363 367 403Q367 447 349.5 476Q332 505 292 505Q266 505 242.5 489.5Q219 474 200 447.5Q181 421 170 386Q159 351 159 311Q159 267 176.5 238Q194 209 234 209ZM354 611Q327 611 309 629.5Q291 648 291 674Q291 703 311.5 724Q332 745 361 745Q388 745 406 726.5Q424 708 424 682Q424 653 403.5 632Q383 611 354 611Z" glyph-name="gdotaccent" horiz-adv-x="517" unicode="&#289;" /><glyph d="M69 530H152Q164 582 186 625Q208 668 239.5 699.5Q271 731 312 748.5Q353 766 403 766Q473 766 515 735Q557 704 557 650Q557 620 547.5 596.5Q538 573 522 553Q506 533 486.5 516.5Q467 500 447 484Q426 467 414.5 452.5Q403 438 403 417Q403 393 426.5 363.5Q450 334 478 300.5Q506 267 529.5 230.5Q553 194 553 155Q553 117 539 87Q525 57 500.5 35Q476 13 443 1.5Q410 -10 372 -10Q305 -10 265.5 20.5Q226 51 226 96Q226 118 238 135Q250 152 270 161H278Q295 103 325.5 68.5Q356 34 401 34Q436 34 456 53.5Q476 73 476 114Q476 152 452 189Q428 226 398.5 261.5Q369 297 345 330Q321 363 321 393Q321 408 325.5 420.5Q330 433 340.5 445.5Q351 458 368 473Q385 488 411 508Q440 531 457 565.5Q474 600 474 638Q474 679 451.5 702.5Q429 726 391 726Q359 726 336 713.5Q313 701 297 678.5Q281 656 270 625Q259 594 252 558L168 151Q147 50 124.5 -18.5Q102 -87 75 -129Q48 -171 15 -189Q-18 -207 -60 -207Q-100 -207 -125 -191Q-150 -175 -150 -146Q-150 -116 -133 -103.5Q-116 -91 -97 -86H-83Q-75 -124 -61 -144Q-47 -164 -23 -164Q-12 -164 -1 -157Q10 -150 21.5 -124.5Q33 -99 46 -48Q59 3 74 90L143 482H60Z" glyph-name="germandbls" horiz-adv-x="597" unicode="&#223;" /><glyph d="M280 761 343 592H302L156 761Z" glyph-name="grave" horiz-adv-x="500" unicode="`" /><glyph d="M283 910 339 761H299L161 910Z" glyph-name="grave.cap" horiz-adv-x="500" /><glyph d="M385 364 35 175 52 255 275 373 100 491 117 563 387 374Z" glyph-name="greater" horiz-adv-x="413" unicode="&gt;" /><glyph d="M348 144H38L51 205H362ZM402 399 56 233 72 307 283 406 114 505 129 574 404 408Z" glyph-name="greaterequal" horiz-adv-x="433" unicode="&#8805;" /><glyph d="M231 279 437 469H490L323 274L406 79H363L229 269ZM52 279 258 469H312L144 274L227 79H184L50 269Z" glyph-name="guillemotleft" horiz-adv-x="487" unicode="&#171;" /><glyph d="M259 269 53 79H0L167 274L84 469H127L261 279ZM438 269 232 79H178L346 274L263 469H306L440 279Z" glyph-name="guillemotright" horiz-adv-x="487" unicode="&#187;" /><glyph d="M52 279 258 469H312L144 274L227 79H184L50 269Z" glyph-name="guilsinglleft" horiz-adv-x="309" unicode="&#8249;" /><glyph d="M260 269 54 79H0L168 274L85 469H128L262 279Z" glyph-name="guilsinglright" horiz-adv-x="309" unicode="&#8250;" /><glyph d="M188 291H195Q216 328 248.5 371.5Q281 415 318 452.5Q355 490 395 515Q435 540 471 540Q509 540 524 521Q539 502 539 469Q539 459 537 447Q535 435 533 425L451 116Q447 102 444.5 90Q442 78 442 72Q442 57 456 57Q470 57 492.5 73.5Q515 90 549 132L569 111Q523 43 487 16.5Q451 -10 414 -10Q385 -10 368.5 8.5Q352 27 352 58Q352 75 355 95Q358 115 366 144L441 422Q446 444 446 455Q446 476 428 476Q405 476 367.5 449.5Q330 423 290.5 377.5Q251 332 216.5 270.5Q182 209 164 139L129 0H38L191 668L117 699L122 719L282 761H305L222 403Z" glyph-name="h" horiz-adv-x="619" unicode="h" /><glyph d="M195 291H202Q223 328 255.5 371.5Q288 415 325 452.5Q362 490 402 515Q442 540 478 540Q516 540 531 521Q546 502 546 469Q546 459 544 447Q542 435 540 425L458 116Q454 102 451.5 90Q449 78 449 72Q449 57 463 57Q477 57 499.5 73.5Q522 90 556 132L576 111Q530 43 494 16.5Q458 -10 421 -10Q392 -10 375.5 8.5Q359 27 359 58Q359 75 362 95Q365 115 373 144L448 422Q453 444 453 455Q453 476 435 476Q412 476 374.5 449.5Q337 423 297.5 377.5Q258 332 223.5 270.5Q189 209 171 139L136 0H45L178 584H100L110 624H187L202 690H122L129 719L289 761H312L280 624H430L420 584H271L229 403Z" glyph-name="hbar" horiz-adv-x="626" unicode="&#295;" /><glyph d="M188 291H195Q216 328 248.5 371.5Q281 415 318 452.5Q355 490 395 515Q435 540 471 540Q509 540 524 521Q539 502 539 469Q539 459 537 447Q535 435 533 425L451 116Q447 102 444.5 90Q442 78 442 72Q442 57 456 57Q470 57 492.5 73.5Q515 90 549 132L569 111Q523 43 487 16.5Q451 -10 414 -10Q385 -10 368.5 8.5Q352 27 352 58Q352 75 355 95Q358 115 366 144L441 422Q446 444 446 455Q446 476 428 476Q405 476 367.5 449.5Q330 423 290.5 377.5Q251 332 216.5 270.5Q182 209 164 139L129 0H38L191 668L117 699L122 719L282 761H305L222 403ZM596 791H551L444 880L275 791H228L416 950H490Z" glyph-name="hcircumflex" horiz-adv-x="619" unicode="&#293;" /><glyph d="M282 761 116 592H63L177 761ZM436 761 270 592H217L331 761Z" glyph-name="hungarumlaut" horiz-adv-x="500" unicode="&#733;" /><glyph d="M279 910 120 761H67L174 910ZM433 910 274 761H221L328 910Z" glyph-name="hungarumlaut.cap" horiz-adv-x="500" /><glyph d="M45 267 65 343H305L285 267Z" glyph-name="hyphen" horiz-adv-x="360" unicode="-" /><glyph d="M162 116Q158 102 155.5 90Q153 78 153 72Q153 57 167 57Q181 57 203.5 73.5Q226 90 260 132L280 111Q234 43 198 16.5Q162 -10 125 -10Q96 -10 79.5 8.5Q63 27 63 58Q63 75 66.5 95Q70 115 77 144L154 454L78 485L84 506L241 540H266ZM238 611Q211 611 193 629.5Q175 648 175 674Q175 703 195.5 724Q216 745 245 745Q272 745 290 726.5Q308 708 308 682Q308 653 287.5 632Q267 611 238 611Z" glyph-name="i" horiz-adv-x="334" unicode="i" /><glyph d="M162 116Q158 102 155.5 90Q153 78 153 72Q153 57 167 57Q181 57 203.5 73.5Q226 90 260 132L280 111Q234 43 198 16.5Q162 -10 125 -10Q96 -10 79.5 8.5Q63 27 63 58Q63 75 66.5 95Q70 115 77 144L154 454L78 485L84 506L241 540H266ZM441 761 248 592H203L305 761Z" glyph-name="iacute" horiz-adv-x="334" unicode="&#237;" /><glyph d="M162 116Q158 102 155.5 90Q153 78 153 72Q153 57 167 57Q181 57 203.5 73.5Q226 90 260 132L280 111Q234 43 198 16.5Q162 -10 125 -10Q96 -10 79.5 8.5Q63 27 63 58Q63 75 66.5 95Q70 115 77 144L154 454L78 485L84 506L241 540H266ZM232 593Q175 593 147 624Q119 655 119 714Q119 735 125 761H161Q160 756 160 752.5Q160 749 160 744Q160 699 183.5 679Q207 659 245 659Q286 659 318 683Q350 707 367 761H406Q390 680 345 636.5Q300 593 232 593Z" glyph-name="ibreve" horiz-adv-x="334" unicode="&#301;" /><glyph d="M162 116Q158 102 155.5 90Q153 78 153 72Q153 57 167 57Q181 57 203.5 73.5Q226 90 260 132L280 111Q234 43 198 16.5Q162 -10 125 -10Q96 -10 79.5 8.5Q63 27 63 58Q63 75 66.5 95Q70 115 77 144L154 454L78 485L84 506L241 540H266ZM393 592H348L251 692L92 592H45L223 761H297Z" glyph-name="icircumflex" horiz-adv-x="334" unicode="&#238;" /><glyph d="M162 116Q158 102 155.5 90Q153 78 153 72Q153 57 167 57Q181 57 203.5 73.5Q226 90 260 132L280 111Q234 43 198 16.5Q162 -10 125 -10Q96 -10 79.5 8.5Q63 27 63 58Q63 75 66.5 95Q70 115 77 144L154 454L78 485L84 506L241 540H266ZM152 615Q126 615 110 631.5Q94 648 94 673Q94 699 112.5 718Q131 737 157 737Q183 737 199 720.5Q215 704 215 679Q215 653 196.5 634Q178 615 152 615ZM338 615Q312 615 296 631.5Q280 648 280 673Q280 699 298.5 718Q317 737 343 737Q369 737 385 720.5Q401 704 401 679Q401 653 382.5 634Q364 615 338 615Z" glyph-name="idieresis" horiz-adv-x="334" unicode="&#239;" /><glyph d="M162 116Q158 102 155.5 90Q153 78 153 72Q153 57 167 57Q181 57 203.5 73.5Q226 90 260 132L280 111Q234 43 198 16.5Q162 -10 125 -10Q96 -10 79.5 8.5Q63 27 63 58Q63 75 66.5 95Q70 115 77 144L154 454L78 485L84 506L241 540H266ZM245 611Q218 611 200 629.5Q182 648 182 674Q182 703 202.5 724Q223 745 252 745Q279 745 297 726.5Q315 708 315 682Q315 653 294.5 632Q274 611 245 611Z" glyph-name="idotaccent" horiz-adv-x="334" /><glyph d="M162 116Q158 102 155.5 90Q153 78 153 72Q153 57 167 57Q181 57 203.5 73.5Q226 90 260 132L280 111Q234 43 198 16.5Q162 -10 125 -10Q96 -10 79.5 8.5Q63 27 63 58Q63 75 66.5 95Q70 115 77 144L154 454L78 485L84 506L241 540H266ZM200 761 263 592H222L76 761Z" glyph-name="igrave" horiz-adv-x="334" unicode="&#236;" /><glyph d="M130 681H352L339 623H117ZM162 116Q158 102 155.5 90Q153 78 153 72Q153 57 167 57Q181 57 203.5 73.5Q226 90 260 132L280 111Q234 43 198 16.5Q162 -10 125 -10Q96 -10 79.5 8.5Q63 27 63 58Q63 75 66.5 95Q70 115 77 144L154 454L78 485L84 506L241 540H266Z" glyph-name="imacron" horiz-adv-x="334" unicode="&#299;" /><glyph d="M238 611Q211 611 193 629.5Q175 648 175 674Q175 703 195.5 724Q216 745 245 745Q272 745 290 726.5Q308 708 308 682Q308 653 287.5 632Q267 611 238 611ZM63 58Q63 75 66.5 95Q70 115 77 144L154 454L78 485L84 506L241 540H266L162 116Q158 102 155.5 90Q153 78 153 72Q153 57 167 57Q181 57 204 73.5Q227 90 259 132L280 111Q258 79 231 54Q204 29 176.5 9.5Q149 -10 123 -26.5Q97 -43 76.5 -57.5Q56 -72 43.5 -87Q31 -102 31 -119Q31 -135 42 -145Q53 -155 75 -155Q99 -155 123 -141Q147 -127 173 -108L186 -127Q174 -140 158 -154.5Q142 -169 123 -181.5Q104 -194 83.5 -202Q63 -210 42 -210Q7 -210 -15 -192.5Q-37 -175 -37 -142Q-37 -119 -26 -99Q-15 -79 4.5 -62Q24 -45 50 -30.5Q76 -16 105 -2Q87 3 75 19Q63 35 63 58Z" glyph-name="iogonek" horiz-adv-x="334" unicode="&#303;" /><glyph d="M409 731Q390 694 374.5 670.5Q359 647 345.5 634Q332 621 318.5 616Q305 611 289 611Q269 611 254 622Q239 633 226.5 646.5Q214 660 202.5 671.5Q191 683 179 683Q156 683 142.5 667.5Q129 652 111 621L74 631Q93 668 108.5 691.5Q124 715 137.5 728Q151 741 164.5 746Q178 751 194 751Q213 751 227.5 739.5Q242 728 254.5 714.5Q267 701 279 690Q291 679 304 679Q327 679 340.5 694.5Q354 710 373 741ZM162 116Q158 102 155.5 90Q153 78 153 72Q153 57 167 57Q181 57 203.5 73.5Q226 90 260 132L280 111Q234 43 198 16.5Q162 -10 125 -10Q96 -10 79.5 8.5Q63 27 63 58Q63 75 66.5 95Q70 115 77 144L154 454L78 485L84 506L241 540H266Z" glyph-name="itilde" horiz-adv-x="334" unicode="&#297;" /><glyph d="M240 611Q213 611 195 629.5Q177 648 177 674Q177 703 197.5 724Q218 745 247 745Q274 745 292 726.5Q310 708 310 682Q310 653 289.5 632Q269 611 240 611ZM155 454 80 485 86 506 243 540H268L168 96Q153 28 133 -27.5Q113 -83 86 -123Q59 -163 25 -185Q-9 -207 -53 -207Q-93 -207 -118 -191Q-143 -175 -143 -146Q-143 -116 -126 -103.5Q-109 -91 -90 -86H-76Q-68 -124 -54.5 -144Q-41 -164 -17 -164Q8 -164 24 -125.5Q40 -87 54 -22Z" glyph-name="j" horiz-adv-x="299" unicode="j" /><glyph d="M155 454 80 485 86 506 243 540H268L168 96Q153 28 133 -27.5Q113 -83 86 -123Q59 -163 25 -185Q-9 -207 -53 -207Q-93 -207 -118 -191Q-143 -175 -143 -146Q-143 -116 -126 -103.5Q-109 -91 -90 -86H-76Q-68 -124 -54.5 -144Q-41 -164 -17 -164Q8 -164 24 -125.5Q40 -87 54 -22ZM390 592H345L248 692L89 592H42L220 761H294Z" glyph-name="jcircumflex" horiz-adv-x="299" unicode="&#309;" /><glyph d="M380 118Q393 89 405 70.5Q417 52 433 52Q450 52 474 74Q498 96 524 129L542 107Q507 50 472 20Q437 -10 399 -10Q359 -10 336 20.5Q313 51 294 96L215 287L404 491Q426 515 446.5 527.5Q467 540 495 540Q528 540 543 522Q558 504 558 482Q558 458 544 441.5Q530 425 502 414H488Q488 432 480 444Q472 456 452 456Q438 456 421 447.5Q404 439 379 411L293 315ZM129 0H38L191 668L117 699L122 719L282 761H305Z" glyph-name="k" horiz-adv-x="574" unicode="k" /><glyph d="M380 118Q393 89 405 70.5Q417 52 433 52Q450 52 474 74Q498 96 524 129L542 107Q507 50 472 20Q437 -10 399 -10Q359 -10 336 20.5Q313 51 294 96L215 287L404 491Q426 515 446.5 527.5Q467 540 495 540Q528 540 543 522Q558 504 558 482Q558 458 544 441.5Q530 425 502 414H488Q488 432 480 444Q472 456 452 456Q438 456 421 447.5Q404 439 379 411L293 315ZM129 0H38L191 668L117 699L122 719L282 761H305ZM159 -153Q141 -149 133.5 -138Q126 -127 126 -114Q126 -85 147 -68.5Q168 -52 199 -52Q230 -52 246 -69Q262 -86 262 -116Q262 -139 252.5 -160Q243 -181 224.5 -196.5Q206 -212 178 -221Q150 -230 114 -230L121 -197Q196 -197 205 -153Z" glyph-name="kcommaaccent" horiz-adv-x="574" unicode="&#311;" /><glyph d="M387 118Q400 89 412 70.5Q424 52 440 52Q457 52 481 74Q505 96 531 129L549 107Q514 50 479 20Q444 -10 406 -10Q366 -10 343 20.5Q320 51 301 96L222 287L411 491Q433 515 453.5 527.5Q474 540 502 540Q535 540 550 522Q565 504 565 482Q565 458 551 441.5Q537 425 509 414H495Q495 432 487 444Q479 456 459 456Q445 456 428 447.5Q411 439 386 411L300 315ZM136 0H45L158 454L82 485L88 506L241 540H264Z" glyph-name="kgreenlandic" horiz-adv-x="581" unicode="&#312;" /><glyph d="M112 699 117 719 277 761H300L152 116Q148 100 146.5 89Q145 78 145 72Q145 57 159 57Q173 57 195.5 73.5Q218 90 252 132L272 111Q226 43 190 16.5Q154 -10 117 -10Q88 -10 71.5 8.5Q55 27 55 58Q55 75 58 95Q61 115 68 144L186 668Z" glyph-name="l" horiz-adv-x="312" unicode="l" /><glyph d="M112 699 117 719 277 761H300L152 116Q148 100 146.5 89Q145 78 145 72Q145 57 159 57Q173 57 195.5 73.5Q218 90 252 132L272 111Q226 43 190 16.5Q154 -10 117 -10Q88 -10 71.5 8.5Q55 27 55 58Q55 75 58 95Q61 115 68 144L186 668ZM469 942 287 793H246L337 942Z" glyph-name="lacute" horiz-adv-x="312" unicode="&#314;" /><glyph d="M112 699 117 719 277 761H300L152 116Q148 100 146.5 89Q145 78 145 72Q145 57 159 57Q173 57 195.5 73.5Q218 90 252 132L272 111Q226 43 190 16.5Q154 -10 117 -10Q88 -10 71.5 8.5Q55 27 55 58Q55 75 58 95Q61 115 68 144L186 668ZM369 556H334L394 761H496Z" glyph-name="lcaron" horiz-adv-x="312" unicode="&#318;" /><glyph d="M112 699 117 719 277 761H300L152 116Q148 100 146.5 89Q145 78 145 72Q145 57 159 57Q173 57 195.5 73.5Q218 90 252 132L272 111Q226 43 190 16.5Q154 -10 117 -10Q88 -10 71.5 8.5Q55 27 55 58Q55 75 58 95Q61 115 68 144L186 668ZM46 -153Q28 -149 20.5 -138Q13 -127 13 -114Q13 -85 34 -68.5Q55 -52 86 -52Q117 -52 133 -69Q149 -86 149 -116Q149 -139 139.5 -160Q130 -181 111.5 -196.5Q93 -212 65 -221Q37 -230 1 -230L8 -197Q83 -197 92 -153Z" glyph-name="lcommaaccent" horiz-adv-x="312" unicode="&#316;" /><glyph d="M112 699 117 719 277 761H300L152 116Q148 100 146.5 89Q145 78 145 72Q145 57 159 57Q173 57 195.5 73.5Q218 90 252 132L272 111Q226 43 190 16.5Q154 -10 117 -10Q88 -10 71.5 8.5Q55 27 55 58Q55 75 58 95Q61 115 68 144L186 668ZM353 308Q326 308 308 326.5Q290 345 290 371Q290 400 310.5 421Q331 442 360 442Q387 442 405 423.5Q423 405 423 379Q423 350 402.5 329Q382 308 353 308Z" glyph-name="ldot" horiz-adv-x="382" unicode="&#320;" /><glyph d="M60 374 409 563 394 483 169 365 343 248 328 175 57 364Z" glyph-name="less" horiz-adv-x="413" unicode="&lt;" /><glyph d="M75 408 422 574 405 501 194 402 364 302 349 233 73 399ZM32 205H343L329 144H19Z" glyph-name="lessequal" horiz-adv-x="433" unicode="&#8804;" /><glyph d="M119 699 124 719 284 761H307L243 482L358 549L346 496L231 429L159 116Q155 100 153.5 89Q152 78 152 72Q152 57 166 57Q180 57 202.5 73.5Q225 90 259 132L279 111Q233 43 197 16.5Q161 -10 124 -10Q95 -10 78.5 8.5Q62 27 62 58Q62 75 65 95Q68 115 75 144L128 379L40 328L52 381L140 432L193 668Z" glyph-name="lslash" horiz-adv-x="338" unicode="&#322;" /><glyph d="M485 288Q507 325 538 369Q569 413 604.5 451Q640 489 678 514.5Q716 540 752 540Q790 540 805 521Q820 502 820 469Q820 459 818 447Q816 435 814 425L732 116Q728 102 725.5 90Q723 78 723 72Q723 57 737 57Q751 57 773.5 73.5Q796 90 830 132L850 111Q804 43 768 16.5Q732 -10 695 -10Q666 -10 649.5 8.5Q633 27 633 58Q633 75 636 95Q639 115 647 144L721 420Q726 442 726 453Q726 474 708 474Q684 474 648 446Q612 418 574.5 371.5Q537 325 504.5 265Q472 205 456 141L421 0H330L436 420Q441 442 441 453Q441 474 423 474Q399 474 363 446Q327 418 289.5 371.5Q252 325 219.5 265Q187 205 171 141L136 0H45L158 454L82 485L88 506L239 540H264L233 411L194 288H201Q223 325 254 369Q285 413 320 451Q355 489 393 514.5Q431 540 467 540Q503 540 515 522Q527 504 527 478Q527 454 515.5 408Q504 362 478 288Z" glyph-name="m" horiz-adv-x="900" unicode="m" /><glyph d="M125 681H387L374 623H112Z" glyph-name="macron" horiz-adv-x="500" unicode="&#175;" /><glyph d="M116 845H398L384 783H102Z" glyph-name="macron.cap" horiz-adv-x="500" /><glyph d="M83 402H520L506 340H68Z" glyph-name="minus" horiz-adv-x="563" unicode="&#8722;" /><glyph d="M108 506 157 548 264 409 431 548 464 504 298 366 407 229 358 189 250 326 84 189 50 232 216 370Z" glyph-name="multiply" horiz-adv-x="488" unicode="&#215;" /><glyph d="M230 402 195 291H202Q223 328 255.5 371.5Q288 415 325 452.5Q362 490 402 515Q442 540 478 540Q516 540 531 521Q546 502 546 469Q546 459 544 447Q542 435 540 425L458 116Q454 102 451.5 90Q449 78 449 72Q449 57 463 57Q477 57 499.5 73.5Q522 90 556 132L576 111Q530 43 494 16.5Q458 -10 421 -10Q392 -10 375.5 8.5Q359 27 359 58Q359 75 362 95Q365 115 373 144L448 422Q453 444 453 455Q453 476 435 476Q412 476 374.5 449.5Q337 423 297.5 377.5Q258 332 223.5 270.5Q189 209 171 139L136 0H45L158 454L82 485L88 506L239 540H264Z" glyph-name="n" horiz-adv-x="626" unicode="n" /><glyph d="M230 402 195 291H202Q223 328 255.5 371.5Q288 415 325 452.5Q362 490 402 515Q442 540 478 540Q516 540 531 521Q546 502 546 469Q546 459 544 447Q542 435 540 425L458 116Q454 102 451.5 90Q449 78 449 72Q449 57 463 57Q477 57 499.5 73.5Q522 90 556 132L576 111Q530 43 494 16.5Q458 -10 421 -10Q392 -10 375.5 8.5Q359 27 359 58Q359 75 362 95Q365 115 373 144L448 422Q453 444 453 455Q453 476 435 476Q412 476 374.5 449.5Q337 423 297.5 377.5Q258 332 223.5 270.5Q189 209 171 139L136 0H45L158 454L82 485L88 506L239 540H264ZM592 761 399 592H354L456 761Z" glyph-name="nacute" horiz-adv-x="626" unicode="&#324;" /><glyph d="M230 402 195 291H202Q223 328 255.5 371.5Q288 415 325 452.5Q362 490 402 515Q442 540 478 540Q516 540 531 521Q546 502 546 469Q546 459 544 447Q542 435 540 425L458 116Q454 102 451.5 90Q449 78 449 72Q449 57 463 57Q477 57 499.5 73.5Q522 90 556 132L576 111Q530 43 494 16.5Q458 -10 421 -10Q392 -10 375.5 8.5Q359 27 359 58Q359 75 362 95Q365 115 373 144L448 422Q453 444 453 455Q453 476 435 476Q412 476 374.5 449.5Q337 423 297.5 377.5Q258 332 223.5 270.5Q189 209 171 139L136 0H45L158 454L82 485L88 506L239 540H264ZM249 763H294L391 663L550 763H597L419 594H345Z" glyph-name="ncaron" horiz-adv-x="626" unicode="&#328;" /><glyph d="M230 402 195 291H202Q223 328 255.5 371.5Q288 415 325 452.5Q362 490 402 515Q442 540 478 540Q516 540 531 521Q546 502 546 469Q546 459 544 447Q542 435 540 425L458 116Q454 102 451.5 90Q449 78 449 72Q449 57 463 57Q477 57 499.5 73.5Q522 90 556 132L576 111Q530 43 494 16.5Q458 -10 421 -10Q392 -10 375.5 8.5Q359 27 359 58Q359 75 362 95Q365 115 373 144L448 422Q453 444 453 455Q453 476 435 476Q412 476 374.5 449.5Q337 423 297.5 377.5Q258 332 223.5 270.5Q189 209 171 139L136 0H45L158 454L82 485L88 506L239 540H264ZM195 -153Q177 -149 169.5 -138Q162 -127 162 -114Q162 -85 183 -68.5Q204 -52 235 -52Q266 -52 282 -69Q298 -86 298 -116Q298 -139 288.5 -160Q279 -181 260.5 -196.5Q242 -212 214 -221Q186 -230 150 -230L157 -197Q232 -197 241 -153Z" glyph-name="ncommaaccent" horiz-adv-x="626" unicode="&#326;" /><glyph d="M68 26Q134 45 194 72.5Q254 100 303 138.5Q352 177 388.5 226Q425 275 445 337Q412 303 368.5 279.5Q325 256 271 256Q224 256 188.5 270.5Q153 285 129 310.5Q105 336 93 371Q81 406 81 446Q81 504 102 552.5Q123 601 159 636.5Q195 672 241.5 692Q288 712 339 712Q395 712 437.5 694Q480 676 508.5 644Q537 612 551.5 568.5Q566 525 566 474Q566 388 531.5 308.5Q497 229 433 164.5Q369 100 278.5 54.5Q188 9 76 -9ZM313 309Q354 309 390 328Q426 347 455 373Q467 424 467 483Q467 523 459.5 557Q452 591 436 615.5Q420 640 395.5 653.5Q371 667 338 667Q299 667 270 650.5Q241 634 221 606Q201 578 191 541Q181 504 181 464Q181 395 215 352Q249 309 313 309Z" glyph-name="nine" horiz-adv-x="593" unicode="9" /><glyph glyph-name="nonmarkingreturn" horiz-adv-x="200" unicode="" /><glyph d="M102 471H361L459 574H528L430 471H539L527 409H372L299 332H511L498 271H241L143 167H74L172 271H61L73 332H230L303 409H89Z" glyph-name="notequal" horiz-adv-x="574" unicode="&#8800;" /><glyph d="M230 402 195 291H202Q223 328 255.5 371.5Q288 415 325 452.5Q362 490 402 515Q442 540 478 540Q516 540 531 521Q546 502 546 469Q546 459 544 447Q542 435 540 425L458 116Q454 102 451.5 90Q449 78 449 72Q449 57 463 57Q477 57 499.5 73.5Q522 90 556 132L576 111Q530 43 494 16.5Q458 -10 421 -10Q392 -10 375.5 8.5Q359 27 359 58Q359 75 362 95Q365 115 373 144L448 422Q453 444 453 455Q453 476 435 476Q412 476 374.5 449.5Q337 423 297.5 377.5Q258 332 223.5 270.5Q189 209 171 139L136 0H45L158 454L82 485L88 506L239 540H264ZM580 731Q561 694 545.5 670.5Q530 647 516 634Q502 621 487.5 616Q473 611 455 611Q432 611 414.5 622Q397 633 381.5 646.5Q366 660 352 671.5Q338 683 322 683Q299 683 285.5 667.5Q272 652 254 621L217 631Q236 668 251.5 691.5Q267 715 281 728Q295 741 309.5 746Q324 751 342 751Q364 751 382 739.5Q400 728 415.5 714.5Q431 701 445 690Q459 679 475 679Q498 679 511.5 694.5Q525 710 544 741Z" glyph-name="ntilde" horiz-adv-x="626" unicode="&#241;" /><glyph d="M389 210 310 -10 259 8 332 210H196L117 -10L66 8L139 210H34V263H158L222 440H114V493H241L321 713L372 695L299 493H434L514 713L565 695L492 493H597V440H473L408 263H517V210ZM215 263H351L415 440H280Z" glyph-name="numbersign" horiz-adv-x="612" unicode="#" /><glyph d="M212 30Q253 30 286 62Q319 94 342.5 143Q366 192 378.5 251Q391 310 391 363Q391 429 369.5 464.5Q348 500 310 500Q269 500 236 468Q203 436 179.5 387Q156 338 143.5 279Q131 220 131 167Q131 101 152.5 65.5Q174 30 212 30ZM209 -10Q131 -10 84 42Q37 94 37 191Q37 253 57 315.5Q77 378 113.5 428Q150 478 201 509Q252 540 313 540Q391 540 438 488Q485 436 485 339Q485 277 465 214.5Q445 152 408.5 102Q372 52 321 21Q270 -10 209 -10Z" glyph-name="o" horiz-adv-x="522" unicode="o" /><glyph d="M212 30Q253 30 286 62Q319 94 342.5 143Q366 192 378.5 251Q391 310 391 363Q391 429 369.5 464.5Q348 500 310 500Q269 500 236 468Q203 436 179.5 387Q156 338 143.5 279Q131 220 131 167Q131 101 152.5 65.5Q174 30 212 30ZM209 -10Q131 -10 84 42Q37 94 37 191Q37 253 57 315.5Q77 378 113.5 428Q150 478 201 509Q252 540 313 540Q391 540 438 488Q485 436 485 339Q485 277 465 214.5Q445 152 408.5 102Q372 52 321 21Q270 -10 209 -10ZM539 761 346 592H301L403 761Z" glyph-name="oacute" horiz-adv-x="522" unicode="&#243;" /><glyph d="M212 30Q253 30 286 62Q319 94 342.5 143Q366 192 378.5 251Q391 310 391 363Q391 429 369.5 464.5Q348 500 310 500Q269 500 236 468Q203 436 179.5 387Q156 338 143.5 279Q131 220 131 167Q131 101 152.5 65.5Q174 30 212 30ZM209 -10Q131 -10 84 42Q37 94 37 191Q37 253 57 315.5Q77 378 113.5 428Q150 478 201 509Q252 540 313 540Q391 540 438 488Q485 436 485 339Q485 277 465 214.5Q445 152 408.5 102Q372 52 321 21Q270 -10 209 -10ZM333 593Q276 593 248 624Q220 655 220 714Q220 735 226 761H262Q261 756 261 752.5Q261 749 261 744Q261 699 284.5 679Q308 659 346 659Q387 659 419 683Q451 707 468 761H507Q491 680 446 636.5Q401 593 333 593Z" glyph-name="obreve" horiz-adv-x="522" unicode="&#335;" /><glyph d="M212 30Q253 30 286 62Q319 94 342.5 143Q366 192 378.5 251Q391 310 391 363Q391 429 369.5 464.5Q348 500 310 500Q269 500 236 468Q203 436 179.5 387Q156 338 143.5 279Q131 220 131 167Q131 101 152.5 65.5Q174 30 212 30ZM209 -10Q131 -10 84 42Q37 94 37 191Q37 253 57 315.5Q77 378 113.5 428Q150 478 201 509Q252 540 313 540Q391 540 438 488Q485 436 485 339Q485 277 465 214.5Q445 152 408.5 102Q372 52 321 21Q270 -10 209 -10ZM492 592H447L350 692L191 592H144L322 761H396Z" glyph-name="ocircumflex" horiz-adv-x="522" unicode="&#244;" /><glyph d="M212 30Q253 30 286 62Q319 94 342.5 143Q366 192 378.5 251Q391 310 391 363Q391 429 369.5 464.5Q348 500 310 500Q269 500 236 468Q203 436 179.5 387Q156 338 143.5 279Q131 220 131 167Q131 101 152.5 65.5Q174 30 212 30ZM209 -10Q131 -10 84 42Q37 94 37 191Q37 253 57 315.5Q77 378 113.5 428Q150 478 201 509Q252 540 313 540Q391 540 438 488Q485 436 485 339Q485 277 465 214.5Q445 152 408.5 102Q372 52 321 21Q270 -10 209 -10ZM252 615Q226 615 210 631.5Q194 648 194 673Q194 699 212.5 718Q231 737 257 737Q283 737 299 720.5Q315 704 315 679Q315 653 296.5 634Q278 615 252 615ZM438 615Q412 615 396 631.5Q380 648 380 673Q380 699 398.5 718Q417 737 443 737Q469 737 485 720.5Q501 704 501 679Q501 653 482.5 634Q464 615 438 615Z" glyph-name="odieresis" horiz-adv-x="522" unicode="&#246;" /><glyph d="M313 540Q368 540 406 511Q444 482 463 431Q502 480 553 510Q604 540 665 540Q726 540 754 508.5Q782 477 782 430Q782 385 751.5 351.5Q721 318 674 293Q627 268 569.5 250.5Q512 233 457 218V192Q457 126 485.5 87.5Q514 49 565 49Q610 49 649 74.5Q688 100 723 142L748 122Q720 85 694 60Q668 35 642 19.5Q616 4 589 -3Q562 -10 532 -10Q475 -10 441.5 18Q408 46 391 88Q356 43 311 16.5Q266 -10 209 -10Q131 -10 84 42Q37 94 37 191Q37 253 57 315.5Q77 378 113.5 428Q150 478 201 509Q252 540 313 540ZM212 30Q253 30 286 62Q319 94 342.5 143Q366 192 378.5 251Q391 310 391 363Q391 429 369.5 464.5Q348 500 310 500Q269 500 236 468Q203 436 179.5 387Q156 338 143.5 279Q131 220 131 167Q131 101 152.5 65.5Q174 30 212 30ZM638 490Q608 490 579 471.5Q550 453 526 421Q502 389 485 345Q468 301 461 250Q579 285 638.5 324Q698 363 698 422Q698 451 682.5 470.5Q667 490 638 490Z" glyph-name="oe" horiz-adv-x="803" unicode="&#339;" /><glyph d="M212 30Q253 30 286 62Q319 94 342.5 143Q366 192 378.5 251Q391 310 391 363Q391 429 369.5 464.5Q348 500 310 500Q269 500 236 468Q203 436 179.5 387Q156 338 143.5 279Q131 220 131 167Q131 101 152.5 65.5Q174 30 212 30ZM209 -10Q131 -10 84 42Q37 94 37 191Q37 253 57 315.5Q77 378 113.5 428Q150 478 201 509Q252 540 313 540Q391 540 438 488Q485 436 485 339Q485 277 465 214.5Q445 152 408.5 102Q372 52 321 21Q270 -10 209 -10ZM307 761 370 592H329L183 761Z" glyph-name="ograve" horiz-adv-x="522" unicode="&#242;" /><glyph d="M212 30Q253 30 286 62Q319 94 342.5 143Q366 192 378.5 251Q391 310 391 363Q391 429 369.5 464.5Q348 500 310 500Q269 500 236 468Q203 436 179.5 387Q156 338 143.5 279Q131 220 131 167Q131 101 152.5 65.5Q174 30 212 30ZM209 -10Q131 -10 84 42Q37 94 37 191Q37 253 57 315.5Q77 378 113.5 428Q150 478 201 509Q252 540 313 540Q391 540 438 488Q485 436 485 339Q485 277 465 214.5Q445 152 408.5 102Q372 52 321 21Q270 -10 209 -10ZM436 761 270 592H217L331 761ZM590 761 424 592H371L485 761Z" glyph-name="ohungarumlaut" horiz-adv-x="522" unicode="&#337;" /><glyph d="M212 30Q253 30 286 62Q319 94 342.5 143Q366 192 378.5 251Q391 310 391 363Q391 429 369.5 464.5Q348 500 310 500Q269 500 236 468Q203 436 179.5 387Q156 338 143.5 279Q131 220 131 167Q131 101 152.5 65.5Q174 30 212 30ZM209 -10Q131 -10 84 42Q37 94 37 191Q37 253 57 315.5Q77 378 113.5 428Q150 478 201 509Q252 540 313 540Q391 540 438 488Q485 436 485 339Q485 277 465 214.5Q445 152 408.5 102Q372 52 321 21Q270 -10 209 -10ZM220 681H482L469 623H207Z" glyph-name="omacron" horiz-adv-x="522" unicode="&#333;" /><glyph d="M366 711 243 133Q237 104 237 90Q237 75 242 66Q247 57 260.5 52Q274 47 296 44.5Q318 42 353 40L346 0H-10L-3 40Q36 43 61 46Q86 49 102 56Q118 63 126.5 76Q135 89 140 112L239 576H101L107 607L143 613Q180 619 207 625.5Q234 632 256.5 642.5Q279 653 299.5 669.5Q320 686 344 711Z" glyph-name="one" horiz-adv-x="414" unicode="1" /><glyph d="M803 741H863L250 0H190ZM334 748 256 380Q252 364 252 352Q252 332 272 327.5Q292 323 337 320L331 287H60L67 320Q116 323 139.5 330Q163 337 169 367L225 635H126L133 669L166 673Q190 676 209 681Q228 686 244 694Q260 702 274.5 715Q289 728 304 748ZM731 3Q752 3 767 5Q782 7 794 14.5Q806 22 818 35.5Q830 49 847 72H874L821 -72H525L531 -45Q620 28 672 75.5Q724 123 751 156Q778 189 785.5 213.5Q793 238 793 265Q793 295 775 313.5Q757 332 724 332Q707 332 690.5 326Q674 320 659 310.5Q644 301 631 289.5Q618 278 608 266L592 288Q603 307 620 325Q637 343 658.5 357Q680 371 705.5 380Q731 389 760 389Q814 389 845.5 359Q877 329 877 278Q877 238 860 207Q843 176 812 146Q781 116 737 82Q693 48 639 3Z" glyph-name="onehalf" horiz-adv-x="957" unicode="&#189;" /><glyph d="M686 92 729 291 522 92ZM651 -71 677 48H455L463 82L775 389H831L769 92H845L836 48H760L734 -71ZM803 741H863L250 0H190ZM334 748 256 380Q252 364 252 352Q252 332 272 327.5Q292 323 337 320L331 287H60L67 320Q116 323 139.5 330Q163 337 169 367L225 635H126L133 669L166 673Q190 676 209 681Q228 686 244 694Q260 702 274.5 715Q289 728 304 748Z" glyph-name="onequarter" horiz-adv-x="943" unicode="&#188;" /><glyph d="M334 748 256 380Q252 364 252 352Q252 332 272 327.5Q292 323 337 320L331 287H60L67 320Q116 323 139.5 330Q163 337 169 367L225 635H126L133 669L166 673Q190 676 209 681Q228 686 244 694Q260 702 274.5 715Q289 728 304 748Z" glyph-name="onesuperior" horiz-adv-x="367" unicode="&#185;" /><glyph d="M194 370Q214 370 237.5 390Q261 410 284.5 447.5Q308 485 330 538Q352 591 369 657Q348 691 312 691Q281 691 253.5 668Q226 645 205 608.5Q184 572 172 527Q160 482 160 437Q160 407 167.5 388.5Q175 370 194 370ZM446 730H472L446 647L389 412Q386 401 384 392.5Q382 384 382 379Q382 368 393 368Q404 368 420.5 380.5Q437 393 461 424L478 406Q444 355 411.5 335Q379 315 350 315Q329 315 317.5 329Q306 343 306 366Q306 374 308.5 389Q311 404 315 421.5Q319 439 324.5 457.5Q330 476 335 491H330Q313 455 293.5 423Q274 391 252.5 367Q231 343 208 329Q185 315 162 315Q122 315 99.5 344.5Q77 374 77 427Q77 487 97.5 541Q118 595 151 635.5Q184 676 225.5 700Q267 724 309 724Q359 724 389 694Z" glyph-name="ordfeminine" horiz-adv-x="460" unicode="&#170;" /><glyph d="M206 351Q238 351 262.5 373Q287 395 303.5 430.5Q320 466 328.5 509Q337 552 337 594Q337 637 324.5 661.5Q312 686 283 686Q251 686 226.5 664Q202 642 185.5 606.5Q169 571 160.5 528Q152 485 152 443Q152 400 164.5 375.5Q177 351 206 351ZM204 315Q144 315 106.5 353.5Q69 392 69 464Q69 510 85 556Q101 602 130 639Q159 676 198.5 699Q238 722 285 722Q345 722 382.5 683.5Q420 645 420 573Q420 527 404 481Q388 435 359 398Q330 361 290.5 338Q251 315 204 315Z" glyph-name="ordmasculine" horiz-adv-x="396" unicode="&#186;" /><glyph d="M427 506Q461 481 480.5 439Q500 397 500 339Q500 277 478.5 214.5Q457 152 419 102Q381 52 329 21Q277 -10 216 -10Q174 -10 140 5L94 -77L58 -57L105 26Q73 51 55 92.5Q37 134 37 191Q37 253 58.5 315.5Q80 378 117.5 428Q155 478 207 509Q259 540 320 540Q357 540 391 527L431 596L467 576ZM219 30Q260 30 295 62Q330 94 355.5 142.5Q381 191 395.5 248Q410 305 410 356Q410 414 394 449L165 48Q186 30 219 30ZM127 173Q127 119 140 86L367 484Q347 500 317 500Q276 500 241.5 468Q207 436 181.5 387.5Q156 339 141.5 281.5Q127 224 127 173Z" glyph-name="oslash" horiz-adv-x="537" unicode="&#248;" /><glyph d="M427 506Q461 481 480.5 439Q500 397 500 339Q500 277 478.5 214.5Q457 152 419 102Q381 52 329 21Q277 -10 216 -10Q174 -10 140 5L94 -77L58 -57L105 26Q73 51 55 92.5Q37 134 37 191Q37 253 58.5 315.5Q80 378 117.5 428Q155 478 207 509Q259 540 320 540Q357 540 391 527L431 596L467 576ZM219 30Q260 30 295 62Q330 94 355.5 142.5Q381 191 395.5 248Q410 305 410 356Q410 414 394 449L165 48Q186 30 219 30ZM127 173Q127 119 140 86L367 484Q347 500 317 500Q276 500 241.5 468Q207 436 181.5 387.5Q156 339 141.5 281.5Q127 224 127 173ZM531 761 338 592H293L395 761Z" glyph-name="oslashacute" horiz-adv-x="537" unicode="&#511;" /><glyph d="M212 30Q253 30 286 62Q319 94 342.5 143Q366 192 378.5 251Q391 310 391 363Q391 429 369.5 464.5Q348 500 310 500Q269 500 236 468Q203 436 179.5 387Q156 338 143.5 279Q131 220 131 167Q131 101 152.5 65.5Q174 30 212 30ZM209 -10Q131 -10 84 42Q37 94 37 191Q37 253 57 315.5Q77 378 113.5 428Q150 478 201 509Q252 540 313 540Q391 540 438 488Q485 436 485 339Q485 277 465 214.5Q445 152 408.5 102Q372 52 321 21Q270 -10 209 -10ZM535 731Q516 694 500.5 670.5Q485 647 471 634Q457 621 442.5 616Q428 611 410 611Q387 611 369.5 622Q352 633 336.5 646.5Q321 660 307 671.5Q293 683 277 683Q254 683 240.5 667.5Q227 652 209 621L172 631Q191 668 206.5 691.5Q222 715 236 728Q250 741 264.5 746Q279 751 297 751Q319 751 337 739.5Q355 728 370.5 714.5Q386 701 400 690Q414 679 430 679Q453 679 466.5 694.5Q480 710 499 741Z" glyph-name="otilde" horiz-adv-x="522" unicode="&#245;" /><glyph d="M188 261Q221 325 255 377Q289 429 324 465Q359 501 393.5 520.5Q428 540 461 540Q511 540 541 500.5Q571 461 571 398Q571 317 540 243Q509 169 460.5 113Q412 57 352.5 23.5Q293 -10 235 -10Q205 -10 180 3Q155 16 143 34L114 -91Q112 -100 111 -108Q110 -116 110 -122Q110 -145 129.5 -151.5Q149 -158 178 -162L169 -197H-82L-73 -162Q-55 -160 -40 -157Q-25 -154 -12.5 -148.5Q0 -143 8.5 -132.5Q17 -122 21 -105L158 457L81 485L87 506L238 540H263L229 399L181 261ZM420 471Q397 471 362 444Q327 417 289.5 369Q252 321 216.5 255.5Q181 190 159 114Q159 79 179.5 56Q200 33 233 33Q281 33 324.5 66Q368 99 401.5 150.5Q435 202 455.5 265.5Q476 329 476 390Q476 432 461 451.5Q446 471 420 471Z" glyph-name="p" horiz-adv-x="605" unicode="p" /><glyph d="M308 224Q252 224 211 239.5Q170 255 143 281.5Q116 308 103 343Q90 378 90 418Q90 480 112 532.5Q134 585 175.5 622.5Q217 660 276 681Q335 702 410 702H683L674 663Q650 662 630.5 659Q611 656 596 648.5Q581 641 571.5 627Q562 613 557 590L390 -197H338L521 664H454L271 -197H219ZM402 664Q349 664 310.5 640.5Q272 617 247 581Q222 545 210 501.5Q198 458 198 418Q198 387 204 359Q210 331 224 309.5Q238 288 260.5 275Q283 262 316 262Z" glyph-name="paragraph" horiz-adv-x="620" unicode="&#182;" /><glyph d="M59 187Q59 270 81 351.5Q103 433 143.5 508Q184 583 240.5 650Q297 717 366 770H416Q340 704 287 627Q234 550 200.5 469.5Q167 389 152 307.5Q137 226 137 151Q137 76 157.5 1.5Q178 -73 227 -141H177Q117 -77 88 9.5Q59 96 59 187Z" glyph-name="parenleft" horiz-adv-x="338" unicode="(" /><glyph d="M306 442Q306 359 284 277.5Q262 196 221.5 121Q181 46 124.5 -21Q68 -88 -1 -141H-51Q25 -75 78 2Q131 79 164.5 159.5Q198 240 213 321.5Q228 403 228 478Q228 553 207.5 627.5Q187 702 138 770H188Q248 706 277 619.5Q306 533 306 442Z" glyph-name="parenright" horiz-adv-x="338" unicode=")" /><glyph d="M261 671Q235 671 214.5 654.5Q194 638 179.5 612Q165 586 157 553.5Q149 521 149 488Q149 468 152.5 449.5Q156 431 164.5 417.5Q173 404 187.5 396Q202 388 224 388Q250 388 270.5 404.5Q291 421 305.5 447Q320 473 328 505.5Q336 538 336 571Q336 591 332.5 609.5Q329 628 320.5 641.5Q312 655 297.5 663Q283 671 261 671ZM719 722H779L166 -19H106ZM223 347Q190 347 162.5 358.5Q135 370 114.5 390.5Q94 411 82.5 440Q71 469 71 505Q71 553 88 591.5Q105 630 132 656.5Q159 683 193 697.5Q227 712 262 712Q295 712 322.5 700.5Q350 689 370.5 668.5Q391 648 402.5 619Q414 590 414 554Q414 506 397 467.5Q380 429 353 402.5Q326 376 292 361.5Q258 347 223 347ZM624 32Q650 32 670.5 48.5Q691 65 705.5 91Q720 117 728 149.5Q736 182 736 215Q736 235 732.5 253.5Q729 272 720.5 285.5Q712 299 697.5 307Q683 315 661 315Q635 315 614.5 298.5Q594 282 579.5 256Q565 230 557 197.5Q549 165 549 132Q549 112 552.5 93.5Q556 75 564.5 61.5Q573 48 587.5 40Q602 32 624 32ZM662 356Q695 356 722.5 344.5Q750 333 770.5 312.5Q791 292 802.5 263Q814 234 814 198Q814 150 797 111.5Q780 73 753 46.5Q726 20 692 5.5Q658 -9 623 -9Q590 -9 562.5 2.5Q535 14 514.5 34.5Q494 55 482.5 84Q471 113 471 149Q471 197 488 235.5Q505 274 532 300.5Q559 327 593 341.5Q627 356 662 356Z" glyph-name="percent" horiz-adv-x="865" unicode="%" /><glyph d="M56 63Q56 94 77 115Q98 136 129 136Q160 136 181 115Q202 94 202 63Q202 32 181 11Q160 -10 129 -10Q98 -10 77 11Q56 32 56 63Z" glyph-name="period" horiz-adv-x="324" unicode="." /><glyph d="M64 301Q64 332 85 353Q106 374 137 374Q168 374 189 353Q210 332 210 301Q210 270 189 249Q168 228 137 228Q106 228 85 249Q64 270 64 301Z" glyph-name="periodcentered" horiz-adv-x="256" unicode="&#183;" /><glyph d="M84 356Q84 387 105 408Q126 429 157 429Q188 429 209 408Q230 387 230 356Q230 325 209 304Q188 283 157 283Q126 283 105 304Q84 325 84 356Z" glyph-name="periodcentered.cap" horiz-adv-x="256" /><glyph d="M371 590 331 402H520L506 340H318L279 152H218L257 340H68L83 402H270L309 590Z" glyph-name="plus" horiz-adv-x="563" unicode="+" /><glyph d="M374 602 344 459H532L519 398H331L301 256H241L270 398H81L95 459H282L312 602ZM41 205H479L465 144H28Z" glyph-name="plusminus" horiz-adv-x="563" unicode="&#177;" /><glyph d="M352 540Q381 540 409.5 530Q438 520 458 500L517 548H552L517 436L385 -93Q383 -102 381.5 -109Q380 -116 380 -122Q380 -145 399.5 -151.5Q419 -158 448 -162L439 -197H188L197 -162Q215 -160 230 -157Q245 -154 257 -148.5Q269 -143 277.5 -132.5Q286 -122 291 -105L341 79L385 225H378Q356 177 329 134.5Q302 92 272.5 59.5Q243 27 211 8.5Q179 -10 148 -10Q94 -10 64 29.5Q34 69 34 140Q34 221 61.5 293.5Q89 366 134 421Q179 476 236 508Q293 540 352 540ZM183 56Q212 56 247.5 86Q283 116 317.5 169Q352 222 382.5 296Q413 370 432 457Q418 481 398.5 490.5Q379 500 356 500Q306 500 264 468Q222 436 191.5 385Q161 334 143.5 271.5Q126 209 126 148Q126 106 141 81Q156 56 183 56Z" glyph-name="q" horiz-adv-x="567" unicode="q" /><glyph d="M94 63Q94 94 115 115Q136 136 167 136Q198 136 219 115Q240 94 240 63Q240 32 219 11Q198 -10 167 -10Q136 -10 115 11Q94 32 94 63ZM278 442Q303 457 322.5 470.5Q342 484 355.5 499Q369 514 375.5 532.5Q382 551 382 575Q382 617 357 641.5Q332 666 289 666Q245 666 219.5 639Q194 612 194 564Q194 554 195.5 544.5Q197 535 199 528H125Q115 536 108 551Q101 566 101 585Q101 613 115.5 636.5Q130 660 155.5 676.5Q181 693 215.5 702Q250 711 291 711Q375 711 424 670Q473 629 473 560Q473 524 462 497.5Q451 471 431.5 450Q412 429 385 411.5Q358 394 326 376Q273 347 240 314.5Q207 282 207 233Q207 217 210 204H184Q156 243 156 286Q156 312 166 334.5Q176 357 193 376Q210 395 232 411.5Q254 428 278 442Z" glyph-name="question" horiz-adv-x="440" unicode="?" /><glyph d="M378 466Q378 435 357 414Q336 393 305 393Q274 393 253 414Q232 435 232 466Q232 497 253 518Q274 539 305 539Q336 539 357 518Q378 497 378 466ZM194 87Q168 72 149 58.5Q130 45 116.5 30Q103 15 96.5 -3.5Q90 -22 90 -46Q90 -88 115 -112.5Q140 -137 183 -137Q227 -137 252.5 -110Q278 -83 278 -35Q278 -25 276.5 -15.5Q275 -6 273 1H347Q357 -7 364 -22Q371 -37 371 -56Q371 -84 356.5 -107.5Q342 -131 316.5 -147.5Q291 -164 256 -173Q221 -182 181 -182Q97 -182 48 -141Q-1 -100 -1 -31Q-1 5 10 31.5Q21 58 40.5 79Q60 100 87 117.5Q114 135 146 153Q172 168 194 182.5Q216 197 231.5 214Q247 231 256 251Q265 271 265 296Q265 305 264.5 311.5Q264 318 262 325H288Q316 286 316 243Q316 217 306 194.5Q296 172 279 153Q262 134 240 117.5Q218 101 194 87Z" glyph-name="questiondown" horiz-adv-x="440" unicode="&#191;" /><glyph d="M129 482 144 627Q148 665 151 692Q154 719 165 738Q172 748 182 755Q192 762 210 762Q232 762 244.5 748Q257 734 257 714Q257 688 244.5 665Q232 642 219 616L151 482ZM299 482 314 627Q318 665 321 692Q324 719 335 738Q342 748 352 755Q362 762 380 762Q402 762 414.5 748Q427 734 427 714Q427 688 414.5 665Q402 642 389 616L321 482Z" glyph-name="quotedbl" horiz-adv-x="388" unicode="&quot;" /><glyph d="M299 22Q280 27 268.5 38.5Q257 50 257 74Q257 100 275.5 118.5Q294 137 321 137Q356 137 375 115.5Q394 94 394 56Q394 26 380.5 -3Q367 -32 343 -55Q319 -78 285.5 -93Q252 -108 213 -112V-74Q264 -63 295.5 -37.5Q327 -12 333 22ZM103 22Q84 27 72.5 38.5Q61 50 61 74Q61 100 79.5 118.5Q98 137 125 137Q160 137 179 115.5Q198 94 198 56Q198 26 184.5 -3Q171 -32 147 -55Q123 -78 89.5 -93Q56 -108 17 -112V-74Q68 -63 99.5 -37.5Q131 -12 137 22Z" glyph-name="quotedblbase" horiz-adv-x="498" unicode="&#8222;" /><glyph d="M240 627Q259 622 270.5 610.5Q282 599 282 575Q282 549 263.5 530.5Q245 512 218 512Q183 512 164 533.5Q145 555 145 593Q145 623 158.5 652Q172 681 196 704Q220 727 253.5 742Q287 757 326 761V723Q275 712 243.5 686.5Q212 661 206 627ZM436 627Q455 622 466.5 610.5Q478 599 478 575Q478 549 459.5 530.5Q441 512 414 512Q379 512 360 533.5Q341 555 341 593Q341 623 354.5 652Q368 681 392 704Q416 727 449.5 742Q483 757 522 761V723Q471 712 439.5 686.5Q408 661 402 627Z" glyph-name="quotedblleft" horiz-adv-x="498" unicode="&#8220;" /><glyph d="M391 646Q372 651 360.5 662.5Q349 674 349 698Q349 724 367.5 742.5Q386 761 413 761Q448 761 467 739.5Q486 718 486 680Q486 650 472.5 621Q459 592 435 569Q411 546 377.5 531Q344 516 305 512V550Q356 561 387.5 586.5Q419 612 425 646ZM195 646Q176 651 164.5 662.5Q153 674 153 698Q153 724 171.5 742.5Q190 761 217 761Q252 761 271 739.5Q290 718 290 680Q290 650 276.5 621Q263 592 239 569Q215 546 181.5 531Q148 516 109 512V550Q160 561 191.5 586.5Q223 612 229 646Z" glyph-name="quotedblright" horiz-adv-x="498" unicode="&#8221;" /><glyph d="M240 627Q259 622 270.5 610.5Q282 599 282 575Q282 549 263.5 530.5Q245 512 218 512Q183 512 164 533.5Q145 555 145 593Q145 623 158.5 652Q172 681 196 704Q220 727 253.5 742Q287 757 326 761V723Q275 712 243.5 686.5Q212 661 206 627Z" glyph-name="quoteleft" horiz-adv-x="302" unicode="&#8216;" /><glyph d="M195 646Q176 651 164.5 662.5Q153 674 153 698Q153 724 171.5 742.5Q190 761 217 761Q252 761 271 739.5Q290 718 290 680Q290 650 276.5 621Q263 592 239 569Q215 546 181.5 531Q148 516 109 512V550Q160 561 191.5 586.5Q223 612 229 646Z" glyph-name="quoteright" horiz-adv-x="302" unicode="&#8217;" /><glyph d="M103 22Q84 27 72.5 38.5Q61 50 61 74Q61 100 79.5 118.5Q98 137 125 137Q160 137 179 115.5Q198 94 198 56Q198 26 184.5 -3Q171 -32 147 -55Q123 -78 89.5 -93Q56 -108 17 -112V-74Q68 -63 99.5 -37.5Q131 -12 137 22Z" glyph-name="quotesinglbase" horiz-adv-x="302" unicode="&#8218;" /><glyph d="M129 482 144 627Q148 665 151 692Q154 719 165 738Q172 748 182 755Q192 762 210 762Q232 762 244.5 748Q257 734 257 714Q257 688 244.5 665Q232 642 219 616L151 482Z" glyph-name="quotesingle" horiz-adv-x="218" unicode="'" /><glyph d="M181 201Q219 279 253 341.5Q287 404 318 448Q349 492 377.5 516Q406 540 432 540Q463 540 475.5 521Q488 502 488 479Q488 447 472 429Q456 411 427 397H412Q412 411 407 422.5Q402 434 384 434Q365 434 333 401Q301 368 266 310Q231 252 197.5 172.5Q164 93 141 0H50L163 454L87 485L93 506L244 540H269L227 374L174 201Z" glyph-name="r" horiz-adv-x="461" unicode="r" /><glyph d="M181 201Q219 279 253 341.5Q287 404 318 448Q349 492 377.5 516Q406 540 432 540Q463 540 475.5 521Q488 502 488 479Q488 447 472 429Q456 411 427 397H412Q412 411 407 422.5Q402 434 384 434Q365 434 333 401Q301 368 266 310Q231 252 197.5 172.5Q164 93 141 0H50L163 454L87 485L93 506L244 540H269L227 374L174 201ZM549 761 356 592H311L413 761Z" glyph-name="racute" horiz-adv-x="461" unicode="&#341;" /><glyph d="M181 201Q219 279 253 341.5Q287 404 318 448Q349 492 377.5 516Q406 540 432 540Q463 540 475.5 521Q488 502 488 479Q488 447 472 429Q456 411 427 397H412Q412 411 407 422.5Q402 434 384 434Q365 434 333 401Q301 368 266 310Q231 252 197.5 172.5Q164 93 141 0H50L163 454L87 485L93 506L244 540H269L227 374L174 201ZM207 763H252L349 663L508 763H555L377 594H303Z" glyph-name="rcaron" horiz-adv-x="461" unicode="&#345;" /><glyph d="M181 201Q219 279 253 341.5Q287 404 318 448Q349 492 377.5 516Q406 540 432 540Q463 540 475.5 521Q488 502 488 479Q488 447 472 429Q456 411 427 397H412Q412 411 407 422.5Q402 434 384 434Q365 434 333 401Q301 368 266 310Q231 252 197.5 172.5Q164 93 141 0H50L163 454L87 485L93 506L244 540H269L227 374L174 201ZM43 -153Q25 -149 17.5 -138Q10 -127 10 -114Q10 -85 31 -68.5Q52 -52 83 -52Q114 -52 130 -69Q146 -86 146 -116Q146 -139 136.5 -160Q127 -181 108.5 -196.5Q90 -212 62 -221Q34 -230 -2 -230L5 -197Q80 -197 89 -153Z" glyph-name="rcommaaccent" horiz-adv-x="461" unicode="&#343;" /><glyph d="M318 586 298 492H323Q349 492 366.5 505Q384 518 384 545Q384 562 373 574Q362 586 337 586ZM356 608Q378 608 392.5 602Q407 596 415.5 587.5Q424 579 427 569Q430 559 430 550Q430 531 423 518Q416 505 404.5 496.5Q393 488 380 483.5Q367 479 355 477L385 421Q393 405 405.5 398.5Q418 392 430 392L426 373H371Q365 378 355.5 390Q346 402 339 416L312 471H293L283 421Q281 411 281 406Q281 397 286 394.5Q291 392 305 392L301 373H197L202 392Q219 392 227 397Q235 402 238 416L268 559Q269 563 270 568Q271 573 271 575Q271 583 264.5 585Q258 587 244 589L248 608ZM310 287Q355 287 393.5 303.5Q432 320 459.5 349Q487 378 503 416.5Q519 455 519 500Q519 539 506 572Q493 605 469 629.5Q445 654 411.5 668Q378 682 338 682Q293 682 254.5 665.5Q216 649 188.5 620Q161 591 145 552.5Q129 514 129 469Q129 430 142 397Q155 364 179 339.5Q203 315 236 301Q269 287 310 287ZM310 257Q263 257 223.5 273Q184 289 155.5 317.5Q127 346 111.5 385Q96 424 96 469Q96 520 114.5 564.5Q133 609 165.5 641.5Q198 674 242.5 693Q287 712 338 712Q385 712 424.5 695.5Q464 679 492.5 650.5Q521 622 536.5 583.5Q552 545 552 500Q552 449 533.5 404.5Q515 360 482.5 327.5Q450 295 405.5 276Q361 257 310 257Z" glyph-name="registered" horiz-adv-x="555" unicode="&#174;" /><glyph d="M244 625Q271 625 285.5 644Q300 663 300 689Q300 709 288.5 721Q277 733 256 733Q229 733 214.5 714Q200 695 200 669Q200 649 211.5 637Q223 625 244 625ZM239 588Q201 588 179.5 611Q158 634 158 669Q158 712 187 741Q216 770 261 770Q299 770 320.5 747Q342 724 342 689Q342 646 313 617Q284 588 239 588Z" glyph-name="ring" horiz-adv-x="500" unicode="&#730;" /><glyph d="M244 781Q271 781 285.5 800Q300 819 300 845Q300 865 288.5 877Q277 889 256 889Q229 889 214.5 870Q200 851 200 825Q200 805 211.5 793Q223 781 244 781ZM239 744Q201 744 179.5 767Q158 790 158 825Q158 868 187 897Q216 926 261 926Q299 926 320.5 903Q342 880 342 845Q342 802 313 773Q284 744 239 744Z" glyph-name="ring.cap" horiz-adv-x="500" /><glyph d="M194 36Q232 36 252 55.5Q272 75 272 110Q272 129 258.5 149.5Q245 170 225 191.5Q205 213 181.5 236Q158 259 138 283.5Q118 308 104.5 334Q91 360 91 389Q91 420 104 448Q117 476 140 496Q163 516 194.5 528Q226 540 263 540Q321 540 354.5 515Q388 490 388 451Q388 433 374 420Q360 407 345 399H335Q314 442 287.5 466Q261 490 224 490Q189 490 172 473Q155 456 155 425Q155 408 169 388Q183 368 203.5 346.5Q224 325 248 302Q272 279 292.5 254.5Q313 230 327 204Q341 178 341 151Q341 113 326 83.5Q311 54 286 33Q261 12 229 1Q197 -10 163 -10Q128 -10 100 -1.5Q72 7 52.5 21Q33 35 22 54.5Q11 74 11 96Q11 118 23 135Q35 152 55 161H63Q83 107 116 71.5Q149 36 194 36Z" glyph-name="s" horiz-adv-x="415" unicode="s" /><glyph d="M194 36Q232 36 252 55.5Q272 75 272 110Q272 129 258.5 149.5Q245 170 225 191.5Q205 213 181.5 236Q158 259 138 283.5Q118 308 104.5 334Q91 360 91 389Q91 420 104 448Q117 476 140 496Q163 516 194.5 528Q226 540 263 540Q321 540 354.5 515Q388 490 388 451Q388 433 374 420Q360 407 345 399H335Q314 442 287.5 466Q261 490 224 490Q189 490 172 473Q155 456 155 425Q155 408 169 388Q183 368 203.5 346.5Q224 325 248 302Q272 279 292.5 254.5Q313 230 327 204Q341 178 341 151Q341 113 326 83.5Q311 54 286 33Q261 12 229 1Q197 -10 163 -10Q128 -10 100 -1.5Q72 7 52.5 21Q33 35 22 54.5Q11 74 11 96Q11 118 23 135Q35 152 55 161H63Q83 107 116 71.5Q149 36 194 36ZM503 761 310 592H265L367 761Z" glyph-name="sacute" horiz-adv-x="415" unicode="&#347;" /><glyph d="M194 36Q232 36 252 55.5Q272 75 272 110Q272 129 258.5 149.5Q245 170 225 191.5Q205 213 181.5 236Q158 259 138 283.5Q118 308 104.5 334Q91 360 91 389Q91 420 104 448Q117 476 140 496Q163 516 194.5 528Q226 540 263 540Q321 540 354.5 515Q388 490 388 451Q388 433 374 420Q360 407 345 399H335Q314 442 287.5 466Q261 490 224 490Q189 490 172 473Q155 456 155 425Q155 408 169 388Q183 368 203.5 346.5Q224 325 248 302Q272 279 292.5 254.5Q313 230 327 204Q341 178 341 151Q341 113 326 83.5Q311 54 286 33Q261 12 229 1Q197 -10 163 -10Q128 -10 100 -1.5Q72 7 52.5 21Q33 35 22 54.5Q11 74 11 96Q11 118 23 135Q35 152 55 161H63Q83 107 116 71.5Q149 36 194 36ZM160 763H205L302 663L461 763H508L330 594H256Z" glyph-name="scaron" horiz-adv-x="415" unicode="&#353;" /><glyph d="M24 -188Q80 -188 114 -176Q148 -164 148 -139Q148 -118 124.5 -108.5Q101 -99 59 -97L110 -4Q63 7 37 34Q11 61 11 96Q11 118 23 135Q35 152 55 161H63Q83 107 116 71.5Q149 36 194 36Q232 36 252 55.5Q272 75 272 110Q272 129 258.5 149.5Q245 170 225 191.5Q205 213 181.5 236Q158 259 138 283.5Q118 308 104.5 334Q91 360 91 389Q91 420 104 448Q117 476 140 496Q163 516 194.5 528Q226 540 263 540Q321 540 354.5 515Q388 490 388 451Q388 433 374 420Q360 407 345 399H335Q314 442 287.5 466Q261 490 224 490Q189 490 172 473Q155 456 155 425Q155 408 169 388Q183 368 203.5 346.5Q224 325 248 302Q272 279 292.5 254.5Q313 230 327 204Q341 178 341 151Q341 113 326 83.5Q311 54 286 33Q261 12 229 1Q197 -10 163 -10Q157 -10 151 -9.5Q145 -9 140 -9L119 -48Q166 -49 193 -64Q220 -79 220 -112Q220 -140 204.5 -160.5Q189 -181 163 -194.5Q137 -208 101.5 -214.5Q66 -221 27 -221Z" glyph-name="scedilla" horiz-adv-x="415" unicode="&#351;" /><glyph d="M194 36Q232 36 252 55.5Q272 75 272 110Q272 129 258.5 149.5Q245 170 225 191.5Q205 213 181.5 236Q158 259 138 283.5Q118 308 104.5 334Q91 360 91 389Q91 420 104 448Q117 476 140 496Q163 516 194.5 528Q226 540 263 540Q321 540 354.5 515Q388 490 388 451Q388 433 374 420Q360 407 345 399H335Q314 442 287.5 466Q261 490 224 490Q189 490 172 473Q155 456 155 425Q155 408 169 388Q183 368 203.5 346.5Q224 325 248 302Q272 279 292.5 254.5Q313 230 327 204Q341 178 341 151Q341 113 326 83.5Q311 54 286 33Q261 12 229 1Q197 -10 163 -10Q128 -10 100 -1.5Q72 7 52.5 21Q33 35 22 54.5Q11 74 11 96Q11 118 23 135Q35 152 55 161H63Q83 107 116 71.5Q149 36 194 36ZM454 592H409L312 692L153 592H106L284 761H358Z" glyph-name="scircumflex" horiz-adv-x="415" unicode="&#349;" /><glyph d="M194 36Q232 36 252 55.5Q272 75 272 110Q272 129 258.5 149.5Q245 170 225 191.5Q205 213 181.5 236Q158 259 138 283.5Q118 308 104.5 334Q91 360 91 389Q91 420 104 448Q117 476 140 496Q163 516 194.5 528Q226 540 263 540Q321 540 354.5 515Q388 490 388 451Q388 433 374 420Q360 407 345 399H335Q314 442 287.5 466Q261 490 224 490Q189 490 172 473Q155 456 155 425Q155 408 169 388Q183 368 203.5 346.5Q224 325 248 302Q272 279 292.5 254.5Q313 230 327 204Q341 178 341 151Q341 113 326 83.5Q311 54 286 33Q261 12 229 1Q197 -10 163 -10Q128 -10 100 -1.5Q72 7 52.5 21Q33 35 22 54.5Q11 74 11 96Q11 118 23 135Q35 152 55 161H63Q83 107 116 71.5Q149 36 194 36ZM78 -153Q60 -149 52.5 -138Q45 -127 45 -114Q45 -85 66 -68.5Q87 -52 118 -52Q149 -52 165 -69Q181 -86 181 -116Q181 -139 171.5 -160Q162 -181 143.5 -196.5Q125 -212 97 -221Q69 -230 33 -230L40 -197Q115 -197 124 -153Z" glyph-name="scommaaccent" horiz-adv-x="415" unicode="&#537;" /><glyph d="M118 -202Q81 -202 55.5 -194.5Q30 -187 14 -174Q-2 -161 -9.5 -144Q-17 -127 -17 -107Q-17 -78 1 -64.5Q19 -51 37 -44H89Q84 -53 82.5 -63Q81 -73 81 -81Q81 -93 84 -106.5Q87 -120 95 -131.5Q103 -143 117 -150Q131 -157 153 -157Q199 -157 223 -130.5Q247 -104 247 -61Q247 -30 236.5 0.5Q226 31 210.5 62.5Q195 94 177 127.5Q159 161 143.5 198Q128 235 117.5 277Q107 319 107 368Q107 430 126.5 491.5Q146 553 184.5 602Q223 651 279 681.5Q335 712 409 712Q482 712 513 684Q544 656 544 617Q544 588 526 574.5Q508 561 490 554H438Q443 563 444.5 573Q446 583 446 591Q446 603 443 616.5Q440 630 432 641.5Q424 653 410 660Q396 667 374 667Q328 667 304 640.5Q280 614 280 571Q280 540 290.5 509.5Q301 479 316.5 447.5Q332 416 350 382.5Q368 349 383.5 312Q399 275 409.5 233Q420 191 420 142Q420 80 400.5 18.5Q381 -43 342.5 -92Q304 -141 247.5 -171.5Q191 -202 118 -202ZM242 606Q204 566 179.5 503.5Q155 441 155 368Q155 306 177 251.5Q199 197 225 145.5Q251 94 273 45Q295 -4 295 -53Q295 -63 292.5 -74.5Q290 -86 285 -96Q323 -56 347.5 6.5Q372 69 372 142Q372 203 350 258Q328 313 302 364.5Q276 416 254 464.5Q232 513 232 563Q232 573 234.5 584.5Q237 596 242 606Z" glyph-name="section" horiz-adv-x="518" unicode="&#167;" /><glyph d="M101 8Q82 13 70.5 26.5Q59 40 59 64Q59 90 77.5 108.5Q96 127 123 127Q158 127 177 105.5Q196 84 196 46Q196 16 182.5 -14.5Q169 -45 145 -69.5Q121 -94 87.5 -111Q54 -128 15 -132V-94Q71 -82 98 -54Q125 -26 131 8ZM117 375Q117 406 138 427Q159 448 190 448Q221 448 242 427Q263 406 263 375Q263 344 242 323Q221 302 190 302Q159 302 138 323Q117 344 117 375Z" glyph-name="semicolon" horiz-adv-x="324" unicode=";" /><glyph d="M215 607Q196 607 182 604Q168 601 156 594Q144 587 132.5 574Q121 561 107 542H71L144 702H569L564 674L148 0H39L477 607Z" glyph-name="seven" horiz-adv-x="503" unicode="7" /><glyph d="M555 676Q489 657 429 629.5Q369 602 320 563.5Q271 525 234.5 476Q198 427 178 365Q211 399 254.5 422.5Q298 446 352 446Q398 446 433.5 431.5Q469 417 493 391.5Q517 366 529.5 331Q542 296 542 256Q542 198 521 149.5Q500 101 464 65.5Q428 30 381.5 10Q335 -10 284 -10Q228 -10 185.5 8Q143 26 114.5 58Q86 90 71.5 133.5Q57 177 57 228Q57 314 91.5 393.5Q126 473 190 537.5Q254 602 344.5 647.5Q435 693 547 711ZM310 393Q269 393 233 374Q197 355 168 329Q156 278 156 219Q156 179 163.5 145Q171 111 187 86.5Q203 62 227.5 48.5Q252 35 285 35Q324 35 353 51.5Q382 68 402 96Q422 124 432 160.5Q442 197 442 238Q442 307 408 350Q374 393 310 393Z" glyph-name="six" horiz-adv-x="593" unicode="6" /><glyph d="M3 -141H-57L413 770H474Z" glyph-name="slash" horiz-adv-x="397" unicode="/" /><glyph glyph-name="space" horiz-adv-x="200" unicode=" " /><glyph d="M130 384H248L285 494Q301 544 322 584Q343 624 371 652.5Q399 681 435.5 696Q472 711 520 711Q592 711 633.5 680Q675 649 675 602Q675 579 664 561.5Q653 544 634 537H565Q573 558 573 588Q573 600 570.5 614Q568 628 561 640Q554 652 541 660Q528 668 508 668Q485 668 468 654.5Q451 641 437 617Q423 593 410 560Q397 527 384 488L347 384H525L514 341H332L265 148Q292 138 320 126.5Q348 115 376 105Q404 95 432.5 88Q461 81 489 81Q530 81 550.5 96.5Q571 112 571 147Q571 176 541 200L567 227Q592 212 611 186.5Q630 161 630 117Q630 54 592.5 22Q555 -10 490 -10Q451 -10 416 1Q381 12 350 28.5Q319 45 292 62.5Q265 80 242 94Q225 48 188 19Q151 -10 98 -10Q69 -10 49.5 -2Q30 6 17.5 18.5Q5 31 -0.5 47.5Q-6 64 -6 81Q-6 132 24.5 161.5Q55 191 109 191Q125 191 144 187Q163 183 179 177L234 341H120ZM91 39Q115 39 134 61Q153 83 165 131Q134 144 106 144Q77 144 62 127Q47 110 47 87Q47 65 59 52Q71 39 91 39Z" glyph-name="sterling" horiz-adv-x="691" unicode="&#163;" /><glyph d="M160 136Q155 115 153 101.5Q151 88 151 77Q151 54 173 54Q201 54 233.5 78Q266 102 311 150L334 126Q283 60 228 25Q173 -10 131 -10Q93 -10 77 10.5Q61 31 61 67Q61 84 64 102Q67 120 72 143L149 482H76L84 511Q111 520 132.5 532Q154 544 173 560.5Q192 577 209.5 597.5Q227 618 246 644H277L250 530H375L363 482H238Z" glyph-name="t" horiz-adv-x="383" unicode="t" /><glyph d="M218 350H348L337 305H208L170 136Q165 115 163 101.5Q161 88 161 77Q161 54 183 54Q211 54 243.5 78Q276 102 321 150L344 126Q293 60 238 25Q183 -10 141 -10Q103 -10 87 10.5Q71 31 71 67Q71 84 74 102Q77 120 82 143L119 305H50L61 350H129L159 482H86L94 511Q121 520 142.5 532Q164 544 183 560.5Q202 577 219.5 597.5Q237 618 256 644H287L260 530H385L373 482H248Z" glyph-name="tbar" horiz-adv-x="405" unicode="&#359;" /><glyph d="M160 136Q155 115 153 101.5Q151 88 151 77Q151 54 173 54Q201 54 233.5 78Q266 102 311 150L334 126Q283 60 228 25Q173 -10 131 -10Q93 -10 77 10.5Q61 31 61 67Q61 84 64 102Q67 120 72 143L149 482H76L84 511Q111 520 132.5 532Q154 544 173 560.5Q192 577 209.5 597.5Q227 618 246 644H277L250 530H375L363 482H238ZM352 598H317L377 803H479Z" glyph-name="tcaron" horiz-adv-x="383" unicode="&#357;" /><glyph d="M160 136Q155 115 153 101.5Q151 88 151 77Q151 54 173 54Q201 54 233.5 78Q266 102 311 150L334 126Q283 60 228 25Q173 -10 131 -10Q93 -10 77 10.5Q61 31 61 67Q61 84 64 102Q67 120 72 143L149 482H76L84 511Q111 520 132.5 532Q154 544 173 560.5Q192 577 209.5 597.5Q227 618 246 644H277L250 530H375L363 482H238ZM72 -153Q54 -149 46.5 -138Q39 -127 39 -114Q39 -85 60 -68.5Q81 -52 112 -52Q143 -52 159 -69Q175 -86 175 -116Q175 -139 165.5 -160Q156 -181 137.5 -196.5Q119 -212 91 -221Q63 -230 27 -230L34 -197Q109 -197 118 -153Z" glyph-name="tcommaaccent" horiz-adv-x="383" unicode="&#355;" /><glyph d="M134 114Q134 79 154.5 56Q175 33 208 33Q256 33 299.5 66Q343 99 376.5 150.5Q410 202 430.5 265.5Q451 329 451 390Q451 473 395 473Q371 473 334 446.5Q297 420 258.5 372Q220 324 186 258Q152 192 134 114ZM173 668 99 699 104 719 264 761H287L209 426L157 277H164Q233 402 300.5 471Q368 540 436 540Q491 540 518.5 500.5Q546 461 546 398Q546 317 515 243Q484 169 435.5 113Q387 57 327.5 23.5Q268 -10 210 -10Q180 -10 153 3.5Q126 17 114 35L87 -93Q85 -102 83.5 -109Q82 -116 82 -122Q82 -145 101.5 -151.5Q121 -158 150 -162L141 -197H-110L-101 -162Q-83 -160 -68 -157Q-53 -154 -40.5 -148.5Q-28 -143 -19.5 -132.5Q-11 -122 -7 -105Z" glyph-name="thorn" horiz-adv-x="580" unicode="&#254;" /><glyph d="M192 372Q236 383 276 400Q316 417 346 440Q376 463 394 491Q412 519 412 552Q412 592 386.5 614.5Q361 637 314 637Q263 637 220 613Q177 589 138 546L118 570Q139 600 163 626Q187 652 216 671Q245 690 279 701Q313 712 354 712Q391 712 420 702Q449 692 469 674Q489 656 499.5 632Q510 608 510 580Q510 539 493 508Q476 477 450 455Q424 433 393 418.5Q362 404 334 395Q404 384 445 341Q486 298 486 235Q486 173 461.5 127Q437 81 398.5 50.5Q360 20 313.5 5Q267 -10 223 -10Q165 -10 124 3Q83 16 57.5 37Q32 58 20.5 83.5Q9 109 9 134Q9 171 27 193.5Q45 216 68 227H124Q116 207 112 188Q108 169 108 143Q108 121 115 101Q122 81 136 65.5Q150 50 172 41Q194 32 223 32Q258 32 288.5 44.5Q319 57 341.5 80.5Q364 104 377 138Q390 172 390 214Q390 272 356.5 309Q323 346 263 346Q246 346 232 344.5Q218 343 198 338L192 372Z" glyph-name="three" horiz-adv-x="542" unicode="3" /><glyph d="M274 540Q324 533 352.5 505.5Q381 478 381 431Q381 392 365 363Q349 334 323 315Q297 296 264 287Q231 278 198 278Q160 278 133 286Q106 294 89 306.5Q72 319 63.5 335.5Q55 352 55 369Q55 392 66 407.5Q77 423 95 431H142Q135 407 135 382Q135 353 151 332Q167 311 201 311Q245 311 272 340Q299 369 299 420Q299 462 276 483Q253 504 218 504Q207 504 199 503.5Q191 503 180 501L175 524Q201 533 226 543Q251 553 270.5 566.5Q290 580 301.5 597Q313 614 313 636Q313 659 298.5 672.5Q284 686 257 686Q225 686 197.5 670.5Q170 655 146 631L130 650Q156 691 196 717.5Q236 744 292 744Q343 744 371 721Q399 698 399 659Q399 633 387 613Q375 593 357 578.5Q339 564 317 554.5Q295 545 274 540ZM686 92 729 291 522 92ZM651 -71 677 48H455L463 82L775 389H831L769 92H845L836 48H760L734 -71ZM803 741H863L250 0H190Z" glyph-name="threequarters" horiz-adv-x="943" unicode="&#190;" /><glyph d="M274 540Q324 533 352.5 505.5Q381 478 381 431Q381 392 365 363Q349 334 323 315Q297 296 264 287Q231 278 198 278Q160 278 133 286Q106 294 89 306.5Q72 319 63.5 335.5Q55 352 55 369Q55 392 66 407.5Q77 423 95 431H142Q135 407 135 382Q135 353 151 332Q167 311 201 311Q245 311 272 340Q299 369 299 420Q299 462 276 483Q253 504 218 504Q207 504 199 503.5Q191 503 180 501L175 524Q201 533 226 543Q251 553 270.5 566.5Q290 580 301.5 597Q313 614 313 636Q313 659 298.5 672.5Q284 686 257 686Q225 686 197.5 670.5Q170 655 146 631L130 650Q156 691 196 717.5Q236 744 292 744Q343 744 371 721Q399 698 399 659Q399 633 387 613Q375 593 357 578.5Q339 564 317 554.5Q295 545 274 540Z" glyph-name="threesuperior" horiz-adv-x="419" unicode="&#179;" /><glyph d="M431 731Q412 694 396.5 670.5Q381 647 367 634Q353 621 338.5 616Q324 611 306 611Q283 611 265.5 622Q248 633 232.5 646.5Q217 660 203 671.5Q189 683 173 683Q150 683 136.5 667.5Q123 652 105 621L68 631Q87 668 102.5 691.5Q118 715 132 728Q146 741 160.5 746Q175 751 193 751Q215 751 233 739.5Q251 728 266.5 714.5Q282 701 296 690Q310 679 326 679Q349 679 362.5 694.5Q376 710 395 741Z" glyph-name="tilde" horiz-adv-x="500" unicode="&#732;" /></font>
</defs>
</svg>
