<?xml version="1.0" standalone="no"?>
<!-- Licensee: XOXO (#24568) - http://vllg.com -->
<!DOCTYPE svg PUBLIC "-//W3C//DTD SVG 1.1//EN" "http://www.w3.org/Graphics/SVG/1.1/DTD/svg11.dtd" ><svg version="1.1" xmlns="http://www.w3.org/2000/svg"><defs><font horiz-adv-x="0" id="font"><font-face ascent="750" bbox="-130 -300 1433 981" cap-height="700" descent="-250" font-family="Post Grotesk" font-stretch="normal" font-style="normal" font-weight="700" units-per-em="1000" x-height="476" /><missing-glyph d="M59 700H759V0H59ZM129 70H689V630H129ZM222 113 172 163 360 350 172 537 222 587 409 399 596 587 646 537 458 350 646 163 596 113 409 301Z" horiz-adv-x="818" /><glyph glyph-name=".null" horiz-adv-x="0" /><glyph d="M680 0H525L469 162H218L162 0H15L267 700H428ZM342 536Q340 527 335 512Q330 497 324 477.5Q318 458 310.5 436Q303 414 296 392Q279 341 259 281H428Q407 341 390 392Q382 414 375 436Q368 458 362 477.5Q356 497 351 512Q346 527 344 536Z" glyph-name="A" horiz-adv-x="695" unicode="A" /><glyph d="M469 0V163H256L172 0H14L392 700H938V576H613V422H915V298H613V124H943V0ZM319 281H469V566H465Z" glyph-name="AE" horiz-adv-x="983" unicode="&#198;" /><glyph d="M481 859 253 748 209 825 422 963ZM680 0H525L469 162H218L162 0H15L267 700H428ZM342 536Q340 527 335 512Q330 497 324 477.5Q318 458 310.5 436Q303 414 296 392Q279 341 259 281H428Q407 341 390 392Q382 414 375 436Q368 458 362 477.5Q356 497 351 512Q346 527 344 536Z" glyph-name="Aacute" horiz-adv-x="695" unicode="&#193;" /><glyph d="M274 911Q278 884 297 865Q316 846 345 846Q374 846 393 865Q412 884 416 911L518 883Q505 826 459 791Q413 756 345 756Q277 756 231 791Q185 826 172 883ZM680 0H525L469 162H218L162 0H15L267 700H428ZM342 536Q340 527 335 512Q330 497 324 477.5Q318 458 310.5 436Q303 414 296 392Q279 341 259 281H428Q407 341 390 392Q382 414 375 436Q368 458 362 477.5Q356 497 351 512Q346 527 344 536Z" glyph-name="Abreve" horiz-adv-x="695" unicode="&#258;" /><glyph d="M289 925H401L516 810L450 745L345 849L241 745L175 810ZM680 0H525L469 162H218L162 0H15L267 700H428ZM342 536Q340 527 335 512Q330 497 324 477.5Q318 458 310.5 436Q303 414 296 392Q279 341 259 281H428Q407 341 390 392Q382 414 375 436Q368 458 362 477.5Q356 497 351 512Q346 527 344 536Z" glyph-name="Acircumflex" horiz-adv-x="695" unicode="&#194;" /><glyph d="M377 840Q377 872 398.5 893Q420 914 454 914Q488 914 509.5 893Q531 872 531 840Q531 808 509.5 787Q488 766 454 766Q420 766 398.5 787Q377 808 377 840ZM161 840Q161 872 182.5 893Q204 914 238 914Q272 914 293.5 893Q315 872 315 840Q315 808 293.5 787Q272 766 238 766Q204 766 182.5 787Q161 808 161 840ZM680 0H525L469 162H218L162 0H15L267 700H428ZM342 536Q340 527 335 512Q330 497 324 477.5Q318 458 310.5 436Q303 414 296 392Q279 341 259 281H428Q407 341 390 392Q382 414 375 436Q368 458 362 477.5Q356 497 351 512Q346 527 344 536Z" glyph-name="Adieresis" horiz-adv-x="695" unicode="&#196;" /><glyph d="M209 859 268 963 481 825 437 748ZM680 0H525L469 162H218L162 0H15L267 700H428ZM342 536Q340 527 335 512Q330 497 324 477.5Q318 458 310.5 436Q303 414 296 392Q279 341 259 281H428Q407 341 390 392Q382 414 375 436Q368 458 362 477.5Q356 497 351 512Q346 527 344 536Z" glyph-name="Agrave" horiz-adv-x="695" unicode="&#192;" /><glyph d="M203 864H492V773H203ZM680 0H525L469 162H218L162 0H15L267 700H428ZM342 536Q340 527 335 512Q330 497 324 477.5Q318 458 310.5 436Q303 414 296 392Q279 341 259 281H428Q407 341 390 392Q382 414 375 436Q368 458 362 477.5Q356 497 351 512Q346 527 344 536Z" glyph-name="Amacron" horiz-adv-x="695" unicode="&#256;" /><glyph d="M345 527H343L164 0H15L267 700H428L680 0H523Z" glyph-name="Anocross" horiz-adv-x="695" unicode="&#59185;" /><glyph d="M565 -93Q565 -108 576 -117.5Q587 -127 610 -127Q626 -127 640 -119.5Q654 -112 671 -86L732 -139Q702 -176 669.5 -192.5Q637 -209 595 -209Q568 -209 544.5 -203Q521 -197 503.5 -184Q486 -171 475.5 -151.5Q465 -132 465 -105Q465 -71 481 -47Q497 -23 525 0L469 162H218L162 0H15L267 700H428L680 0Q630 -17 597.5 -40.5Q565 -64 565 -93ZM342 536Q340 527 335 512Q330 497 324 477.5Q318 458 310.5 436Q303 414 296 392Q279 341 259 281H428Q407 341 390 392Q382 414 375 436Q368 458 362 477.5Q356 497 351 512Q346 527 344 536Z" glyph-name="Aogonek" horiz-adv-x="695" unicode="&#260;" /><glyph d="M232 861Q232 908 263.5 938Q295 968 346 968Q397 968 428.5 938Q460 908 460 861Q460 816 428.5 784.5Q397 753 346 753Q295 753 263.5 784.5Q232 816 232 861ZM305 861Q305 844 316.5 832Q328 820 346 820Q364 820 375.5 832Q387 844 387 861Q387 878 375.5 889.5Q364 901 346 901Q328 901 316.5 889.5Q305 878 305 861ZM680 0H525L469 162H218L162 0H15L267 700H428ZM342 536Q340 527 335 512Q330 497 324 477.5Q318 458 310.5 436Q303 414 296 392Q279 341 259 281H428Q407 341 390 392Q382 414 375 436Q368 458 362 477.5Q356 497 351 512Q346 527 344 536Z" glyph-name="Aring" horiz-adv-x="695" unicode="&#197;" /><glyph d="M270 910Q298 910 318.5 901Q339 892 355.5 881.5Q372 871 386.5 862.5Q401 854 417 854Q432 854 443 862Q454 870 461 880Q469 891 474 907L543 848Q531 823 513 805Q497 789 472.5 776Q448 763 413 763Q385 763 365.5 771.5Q346 780 330 790.5Q314 801 299.5 809.5Q285 818 268 818Q251 818 240 810Q229 802 222 792Q214 781 209 767L140 827Q152 850 170 868Q186 884 210.5 897Q235 910 270 910ZM680 0H525L469 162H218L162 0H15L267 700H428ZM342 536Q340 527 335 512Q330 497 324 477.5Q318 458 310.5 436Q303 414 296 392Q279 341 259 281H428Q407 341 390 392Q382 414 375 436Q368 458 362 477.5Q356 497 351 512Q346 527 344 536Z" glyph-name="Atilde" horiz-adv-x="695" unicode="&#195;" /><glyph d="M72 700H376Q425 700 463.5 686Q502 672 528.5 647.5Q555 623 569 589.5Q583 556 583 517Q583 485 574 460Q565 435 550.5 416.5Q536 398 517 385.5Q498 373 479 366Q501 363 525 353Q549 343 569 324.5Q589 306 601.5 277.5Q614 249 614 209Q614 164 597 125.5Q580 87 550 59.5Q520 32 479 16Q438 0 389 0H72ZM218 578V416H323Q377 416 403 434Q429 452 429 499Q429 542 406.5 560Q384 578 331 578ZM218 122H338Q409 122 434.5 144.5Q460 167 460 210Q460 260 428.5 278Q397 296 336 296H218Z" glyph-name="B" horiz-adv-x="655" unicode="B" /><glyph d="M43 350Q43 436 67 503.5Q91 571 135.5 618Q180 665 243.5 689.5Q307 714 386 714Q498 714 574 665Q650 616 682 516L536 465Q518 524 482 556.5Q446 589 383 589Q336 589 301.5 571Q267 553 244 521.5Q221 490 209.5 446Q198 402 198 350Q198 298 209.5 254.5Q221 211 244 179Q267 147 302 129Q337 111 384 111Q442 111 478.5 140Q515 169 534 228L678 177Q643 88 570 37Q497 -14 382 -14Q305 -14 242 10.5Q179 35 135 81.5Q91 128 67 196Q43 264 43 350Z" glyph-name="C" horiz-adv-x="710" unicode="C" /><glyph d="M509 859 281 748 237 825 450 963ZM43 350Q43 436 67 503.5Q91 571 135.5 618Q180 665 243.5 689.5Q307 714 386 714Q498 714 574 665Q650 616 682 516L536 465Q518 524 482 556.5Q446 589 383 589Q336 589 301.5 571Q267 553 244 521.5Q221 490 209.5 446Q198 402 198 350Q198 298 209.5 254.5Q221 211 244 179Q267 147 302 129Q337 111 384 111Q442 111 478.5 140Q515 169 534 228L678 177Q643 88 570 37Q497 -14 382 -14Q305 -14 242 10.5Q179 35 135 81.5Q91 128 67 196Q43 264 43 350Z" glyph-name="Cacute" horiz-adv-x="710" unicode="&#262;" /><glyph d="M209 865 275 930 379 826 484 930 550 865 435 750H323ZM43 350Q43 436 67 503.5Q91 571 135.5 618Q180 665 243.5 689.5Q307 714 386 714Q498 714 574 665Q650 616 682 516L536 465Q518 524 482 556.5Q446 589 383 589Q336 589 301.5 571Q267 553 244 521.5Q221 490 209.5 446Q198 402 198 350Q198 298 209.5 254.5Q221 211 244 179Q267 147 302 129Q337 111 384 111Q442 111 478.5 140Q515 169 534 228L678 177Q643 88 570 37Q497 -14 382 -14Q305 -14 242 10.5Q179 35 135 81.5Q91 128 67 196Q43 264 43 350Z" glyph-name="Ccaron" horiz-adv-x="710" unicode="&#268;" /><glyph d="M307 -151Q315 -160 329.5 -166.5Q344 -173 361 -173Q381 -173 391.5 -162.5Q402 -152 402 -136Q402 -119 391 -111Q380 -103 363 -103Q349 -103 339 -107.5Q329 -112 324 -118L290 -82L324 -10Q259 -1 207 27Q155 55 118.5 100.5Q82 146 62.5 209Q43 272 43 350Q43 436 67 503.5Q91 571 135.5 618Q180 665 243.5 689.5Q307 714 386 714Q498 714 574 665Q650 616 682 516L536 465Q518 524 482 556.5Q446 589 383 589Q336 589 301.5 571Q267 553 244 521.5Q221 490 209.5 446Q198 402 198 350Q198 298 209.5 254.5Q221 211 244 179Q267 147 302 129Q337 111 384 111Q442 111 478.5 140Q515 169 534 228L678 177Q643 89 571.5 38.5Q500 -12 387 -14L371 -49Q381 -45 398 -45Q433 -45 458.5 -67Q484 -89 484 -133Q484 -159 474 -178.5Q464 -198 447.5 -211Q431 -224 409 -231Q387 -238 362 -238Q324 -238 301.5 -226Q279 -214 269 -204Z" glyph-name="Ccedilla" horiz-adv-x="710" unicode="&#199;" /><glyph d="M320 925H432L547 810L481 745L376 849L272 745L206 810ZM43 350Q43 436 67 503.5Q91 571 135.5 618Q180 665 243.5 689.5Q307 714 386 714Q498 714 574 665Q650 616 682 516L536 465Q518 524 482 556.5Q446 589 383 589Q336 589 301.5 571Q267 553 244 521.5Q221 490 209.5 446Q198 402 198 350Q198 298 209.5 254.5Q221 211 244 179Q267 147 302 129Q337 111 384 111Q442 111 478.5 140Q515 169 534 228L678 177Q643 88 570 37Q497 -14 382 -14Q305 -14 242 10.5Q179 35 135 81.5Q91 128 67 196Q43 264 43 350Z" glyph-name="Ccircumflex" horiz-adv-x="710" unicode="&#264;" /><glyph d="M295 846Q295 883 319 906.5Q343 930 382 930Q421 930 445 906.5Q469 883 469 846Q469 809 445 785.5Q421 762 382 762Q343 762 319 785.5Q295 809 295 846ZM43 350Q43 436 67 503.5Q91 571 135.5 618Q180 665 243.5 689.5Q307 714 386 714Q498 714 574 665Q650 616 682 516L536 465Q518 524 482 556.5Q446 589 383 589Q336 589 301.5 571Q267 553 244 521.5Q221 490 209.5 446Q198 402 198 350Q198 298 209.5 254.5Q221 211 244 179Q267 147 302 129Q337 111 384 111Q442 111 478.5 140Q515 169 534 228L678 177Q643 88 570 37Q497 -14 382 -14Q305 -14 242 10.5Q179 35 135 81.5Q91 128 67 196Q43 264 43 350Z" glyph-name="Cdotaccent" horiz-adv-x="710" unicode="&#266;" /><glyph d="M72 700H333Q413 700 476.5 676.5Q540 653 584.5 608.5Q629 564 652.5 499Q676 434 676 350Q676 266 652.5 201Q629 136 584.5 91.5Q540 47 476.5 23.5Q413 0 333 0H72ZM521 350Q521 401 509.5 442.5Q498 484 474.5 514Q451 544 415 560Q379 576 329 576H223V124H329Q379 124 415 140Q451 156 474.5 186Q498 216 509.5 257.5Q521 299 521 350Z" glyph-name="D" horiz-adv-x="719" unicode="D" /><glyph d="M169 865 235 930 339 826 444 930 510 865 395 750H283ZM72 700H333Q413 700 476.5 676.5Q540 653 584.5 608.5Q629 564 652.5 499Q676 434 676 350Q676 266 652.5 201Q629 136 584.5 91.5Q540 47 476.5 23.5Q413 0 333 0H72ZM521 350Q521 401 509.5 442.5Q498 484 474.5 514Q451 544 415 560Q379 576 329 576H223V124H329Q379 124 415 140Q451 156 474.5 186Q498 216 509.5 257.5Q521 299 521 350Z" glyph-name="Dcaron" horiz-adv-x="719" unicode="&#270;" /><glyph d="M92 415V700H353Q433 700 496.5 676.5Q560 653 604.5 608.5Q649 564 672.5 499Q696 434 696 350Q696 266 672.5 201Q649 136 604.5 91.5Q560 47 496.5 23.5Q433 0 353 0H92V308H18V415ZM541 350Q541 401 529.5 442.5Q518 484 494.5 514Q471 544 435 560Q399 576 349 576H243V415H383V308H243V124H349Q399 124 435 140Q471 156 494.5 186Q518 216 529.5 257.5Q541 299 541 350Z" glyph-name="Dcroat" horiz-adv-x="739" unicode="&#272;" /><glyph d="M718 0H40L294 700H467ZM224 114H531L378 559Z" glyph-name="Delta" horiz-adv-x="758" unicode="&#8710;" /><glyph d="M72 0V700H549V576H220V422H526V298H220V124H554V0Z" glyph-name="E" horiz-adv-x="594" unicode="E" /><glyph d="M458 859 230 748 186 825 399 963ZM72 0V700H549V576H220V422H526V298H220V124H554V0Z" glyph-name="Eacute" horiz-adv-x="594" unicode="&#201;" /><glyph d="M240 911Q244 884 263 865Q282 846 311 846Q340 846 359 865Q378 884 382 911L484 883Q471 826 425 791Q379 756 311 756Q243 756 197 791Q151 826 138 883ZM72 0V700H549V576H220V422H526V298H220V124H554V0Z" glyph-name="Ebreve" horiz-adv-x="594" unicode="&#276;" /><glyph d="M143 865 209 930 313 826 418 930 484 865 369 750H257ZM72 0V700H549V576H220V422H526V298H220V124H554V0Z" glyph-name="Ecaron" horiz-adv-x="594" unicode="&#282;" /><glyph d="M255 925H367L482 810L416 745L311 849L207 745L141 810ZM72 0V700H549V576H220V422H526V298H220V124H554V0Z" glyph-name="Ecircumflex" horiz-adv-x="594" unicode="&#202;" /><glyph d="M344 840Q344 872 365.5 893Q387 914 421 914Q455 914 476.5 893Q498 872 498 840Q498 808 476.5 787Q455 766 421 766Q387 766 365.5 787Q344 808 344 840ZM128 840Q128 872 149.5 893Q171 914 205 914Q239 914 260.5 893Q282 872 282 840Q282 808 260.5 787Q239 766 205 766Q171 766 149.5 787Q128 808 128 840ZM72 0V700H549V576H220V422H526V298H220V124H554V0Z" glyph-name="Edieresis" horiz-adv-x="594" unicode="&#203;" /><glyph d="M224 846Q224 883 248 906.5Q272 930 311 930Q350 930 374 906.5Q398 883 398 846Q398 809 374 785.5Q350 762 311 762Q272 762 248 785.5Q224 809 224 846ZM72 0V700H549V576H220V422H526V298H220V124H554V0Z" glyph-name="Edotaccent" horiz-adv-x="594" unicode="&#278;" /><glyph d="M163 859 222 963 435 825 391 748ZM72 0V700H549V576H220V422H526V298H220V124H554V0Z" glyph-name="Egrave" horiz-adv-x="594" unicode="&#200;" /><glyph d="M169 864H458V773H169ZM72 0V700H549V576H220V422H526V298H220V124H554V0Z" glyph-name="Emacron" horiz-adv-x="594" unicode="&#274;" /><glyph d="M72 700H228Q289 601 344 513Q367 475 391.5 436Q416 397 438.5 361Q461 325 480 294Q499 263 512 242H515V700H657V-9Q657 -114 606.5 -164Q556 -214 451 -214Q382 -214 340 -192Q298 -170 272 -138L367 -43Q384 -62 402.5 -77Q421 -92 447 -92Q505 -92 505 -9V0Q444 97 389 185Q365 222 340.5 261.5Q316 301 293 337Q270 373 250.5 404.5Q231 436 217 459H214V0H72Z" glyph-name="Eng" horiz-adv-x="729" unicode="&#330;" /><glyph d="M378 -93Q378 -108 389 -117.5Q400 -127 423 -127Q439 -127 453 -119.5Q467 -112 484 -86L545 -139Q515 -176 482.5 -192.5Q450 -209 408 -209Q381 -209 357.5 -203Q334 -197 316.5 -184Q299 -171 288.5 -151.5Q278 -132 278 -105Q278 -71 294 -47Q310 -23 340 0H72V700H549V576H220V422H526V298H220V124H554V0H481Q378 -48 378 -93Z" glyph-name="Eogonek" horiz-adv-x="594" unicode="&#280;" /><glyph d="M92 415V700H353Q433 700 496.5 676.5Q560 653 604.5 608.5Q649 564 672.5 499Q696 434 696 350Q696 266 672.5 201Q649 136 604.5 91.5Q560 47 496.5 23.5Q433 0 353 0H92V308H18V415ZM541 350Q541 401 529.5 442.5Q518 484 494.5 514Q471 544 435 560Q399 576 349 576H243V415H383V308H243V124H349Q399 124 435 140Q471 156 494.5 186Q518 216 529.5 257.5Q541 299 541 350Z" glyph-name="Eth" horiz-adv-x="739" unicode="&#208;" /><glyph d="M91 342Q91 350 91 358.5Q91 367 92 375H24V465H106Q135 574 213 636Q291 698 406 698Q482 698 539 671Q596 644 631 599L537 518Q511 551 473 567Q435 583 402 583Q358 583 317 556.5Q276 530 253 465H443V375H236Q235 367 235 359Q235 351 235 343Q235 335 235 328Q235 321 236 313H443V223H252Q260 198 272.5 175.5Q285 153 303.5 136.5Q322 120 346 110.5Q370 101 402 101Q440 101 475.5 117.5Q511 134 537 164L631 84Q589 38 533 12Q477 -14 402 -14Q339 -14 289.5 4Q240 22 203 54Q166 86 141.5 129Q117 172 105 223H24V313H91V342Z" glyph-name="Euro" horiz-adv-x="655" unicode="&#8364;" /><glyph d="M72 0V700H551V576H220V422H525V298H220V0Z" glyph-name="F" horiz-adv-x="583" unicode="F" /><glyph d="M358 388H680V0H544V72Q521 36 476 11Q431 -14 359 -14Q281 -14 221.5 14.5Q162 43 122.5 92Q83 141 63 207Q43 273 43 348Q43 429 66.5 496Q90 563 135 611.5Q180 660 244.5 687Q309 714 391 714Q497 714 572 667.5Q647 621 685 530L546 473Q526 529 485 559.5Q444 590 385 590Q301 590 249.5 527Q198 464 198 343Q198 109 383 109Q410 109 437 116.5Q464 124 486.5 139.5Q509 155 523 179Q537 203 537 237V269H358Z" glyph-name="G" horiz-adv-x="749" unicode="G" /><glyph d="M314 911Q318 884 337 865Q356 846 385 846Q414 846 433 865Q452 884 456 911L558 883Q545 826 499 791Q453 756 385 756Q317 756 271 791Q225 826 212 883ZM358 388H680V0H544V72Q521 36 476 11Q431 -14 359 -14Q281 -14 221.5 14.5Q162 43 122.5 92Q83 141 63 207Q43 273 43 348Q43 429 66.5 496Q90 563 135 611.5Q180 660 244.5 687Q309 714 391 714Q497 714 572 667.5Q647 621 685 530L546 473Q526 529 485 559.5Q444 590 385 590Q301 590 249.5 527Q198 464 198 343Q198 109 383 109Q410 109 437 116.5Q464 124 486.5 139.5Q509 155 523 179Q537 203 537 237V269H358Z" glyph-name="Gbreve" horiz-adv-x="749" unicode="&#286;" /><glyph d="M328 925H440L555 810L489 745L384 849L280 745L214 810ZM358 388H680V0H544V72Q521 36 476 11Q431 -14 359 -14Q281 -14 221.5 14.5Q162 43 122.5 92Q83 141 63 207Q43 273 43 348Q43 429 66.5 496Q90 563 135 611.5Q180 660 244.5 687Q309 714 391 714Q497 714 572 667.5Q647 621 685 530L546 473Q526 529 485 559.5Q444 590 385 590Q301 590 249.5 527Q198 464 198 343Q198 109 383 109Q410 109 437 116.5Q464 124 486.5 139.5Q509 155 523 179Q537 203 537 237V269H358Z" glyph-name="Gcircumflex" horiz-adv-x="749" unicode="&#284;" /><glyph d="M358 388H680V0H544V72Q521 36 476 11Q431 -14 359 -14Q281 -14 221.5 14.5Q162 43 122.5 92Q83 141 63 207Q43 273 43 348Q43 429 66.5 496Q90 563 135 611.5Q180 660 244.5 687Q309 714 391 714Q497 714 572 667.5Q647 621 685 530L546 473Q526 529 485 559.5Q444 590 385 590Q301 590 249.5 527Q198 464 198 343Q198 109 383 109Q410 109 437 116.5Q464 124 486.5 139.5Q509 155 523 179Q537 203 537 237V269H358ZM445 -158Q445 -176 440 -198.5Q435 -221 420.5 -242Q406 -263 380.5 -279Q355 -295 315 -300L296 -247Q306 -247 318.5 -243.5Q331 -240 342 -234Q353 -228 360.5 -219.5Q368 -211 368 -200V-196Q363 -198 359.5 -198Q356 -198 352 -198Q325 -198 304 -177.5Q283 -157 283 -126Q283 -113 287.5 -100Q292 -87 301 -76.5Q310 -66 324 -59.5Q338 -53 358 -53Q381 -53 397.5 -62Q414 -71 424.5 -86Q435 -101 440 -120Q445 -139 445 -158Z" glyph-name="Gcommaaccent" horiz-adv-x="749" unicode="&#290;" /><glyph d="M300 846Q300 883 324 906.5Q348 930 387 930Q426 930 450 906.5Q474 883 474 846Q474 809 450 785.5Q426 762 387 762Q348 762 324 785.5Q300 809 300 846ZM358 388H680V0H544V72Q521 36 476 11Q431 -14 359 -14Q281 -14 221.5 14.5Q162 43 122.5 92Q83 141 63 207Q43 273 43 348Q43 429 66.5 496Q90 563 135 611.5Q180 660 244.5 687Q309 714 391 714Q497 714 572 667.5Q647 621 685 530L546 473Q526 529 485 559.5Q444 590 385 590Q301 590 249.5 527Q198 464 198 343Q198 109 383 109Q410 109 437 116.5Q464 124 486.5 139.5Q509 155 523 179Q537 203 537 237V269H358Z" glyph-name="Gdotaccent" horiz-adv-x="749" unicode="&#288;" /><glyph d="M72 700H222V423H487V700H637V0H487V297H222V0H72Z" glyph-name="H" horiz-adv-x="709" unicode="H" /><glyph d="M72 607V700H222V607H487V700H637V607H703V496H637V0H487V297H222V0H72V496H6V607ZM487 423V496H222V423Z" glyph-name="Hbar" horiz-adv-x="709" unicode="&#294;" /><glyph d="M298 925H410L525 810L459 745L354 849L250 745L184 810ZM72 700H222V423H487V700H637V0H487V297H222V0H72Z" glyph-name="Hcircumflex" horiz-adv-x="709" unicode="&#292;" /><glyph d="M72 700H222V0H72Z" glyph-name="I" horiz-adv-x="294" unicode="I" /><glyph d="M473 110Q516 110 531 140.5Q546 171 546 231V700H696V231Q696 174 686 128.5Q676 83 651.5 51.5Q627 20 584.5 3Q542 -14 476 -14Q435 -14 403.5 -7.5Q372 -1 348 10.5Q324 22 306 37.5Q288 53 273 71L374 168Q397 141 419.5 125.5Q442 110 473 110ZM72 700H222V0H72Z" glyph-name="IJ" horiz-adv-x="764" unicode="&#306;" /><glyph d="M277 859 49 748 5 825 218 963ZM73 700H223V0H73Z" glyph-name="Iacute" horiz-adv-x="295" unicode="&#205;" /><glyph d="M77 911Q81 884 100 865Q119 846 148 846Q177 846 196 865Q215 884 219 911L321 883Q308 826 262 791Q216 756 148 756Q80 756 34 791Q-12 826 -25 883ZM73 700H223V0H73Z" glyph-name="Ibreve" horiz-adv-x="295" unicode="&#300;" /><glyph d="M92 925H204L319 810L253 745L148 849L44 745L-22 810ZM73 700H223V0H73Z" glyph-name="Icircumflex" horiz-adv-x="295" unicode="&#206;" /><glyph d="M179 840Q179 872 200.5 893Q222 914 256 914Q290 914 311.5 893Q333 872 333 840Q333 808 311.5 787Q290 766 256 766Q222 766 200.5 787Q179 808 179 840ZM-37 840Q-37 872 -15.5 893Q6 914 40 914Q74 914 95.5 893Q117 872 117 840Q117 808 95.5 787Q74 766 40 766Q6 766 -15.5 787Q-37 808 -37 840ZM73 700H223V0H73Z" glyph-name="Idieresis" horiz-adv-x="295" unicode="&#207;" /><glyph d="M61 846Q61 883 85 906.5Q109 930 148 930Q187 930 211 906.5Q235 883 235 846Q235 809 211 785.5Q187 762 148 762Q109 762 85 785.5Q61 809 61 846ZM73 700H223V0H73Z" glyph-name="Idotaccent" horiz-adv-x="295" unicode="&#304;" /><glyph d="M17 859 76 963 289 825 245 748ZM73 700H223V0H73Z" glyph-name="Igrave" horiz-adv-x="295" unicode="&#204;" /><glyph d="M4 864H293V773H4ZM73 700H223V0H73Z" glyph-name="Imacron" horiz-adv-x="295" unicode="&#298;" /><glyph d="M116 -93Q116 -108 127 -117.5Q138 -127 161 -127Q177 -127 191 -119.5Q205 -112 222 -86L283 -139Q253 -176 220.5 -192.5Q188 -209 146 -209Q119 -209 95.5 -203Q72 -197 54.5 -184Q37 -171 26.5 -151.5Q16 -132 16 -105Q16 -71 31.5 -47Q47 -23 73 0V700H223V0Q172 -18 144 -44Q116 -70 116 -93Z" glyph-name="Iogonek" horiz-adv-x="295" unicode="&#302;" /><glyph d="M73 910Q101 910 121.5 901Q142 892 158.5 881.5Q175 871 189.5 862.5Q204 854 220 854Q235 854 246 862Q257 870 264 880Q272 891 277 907L346 848Q334 823 316 805Q300 789 275.5 776Q251 763 216 763Q188 763 168.5 771.5Q149 780 133 790.5Q117 801 102.5 809.5Q88 818 71 818Q54 818 43 810Q32 802 25 792Q17 781 12 767L-57 827Q-45 850 -27 868Q-11 884 13.5 897Q38 910 73 910ZM73 700H223V0H73Z" glyph-name="Itilde" horiz-adv-x="295" unicode="&#296;" /><glyph d="M204 110Q247 110 262 140.5Q277 171 277 231V700H427V231Q427 174 417 128.5Q407 83 382.5 51.5Q358 20 315.5 3Q273 -14 207 -14Q166 -14 134.5 -7.5Q103 -1 79 10.5Q55 22 37 37.5Q19 53 4 71L105 168Q128 141 150.5 125.5Q173 110 204 110Z" glyph-name="J" horiz-adv-x="495" unicode="J" /><glyph d="M294 925H406L521 810L455 745L350 849L246 745L180 810ZM204 110Q247 110 262 140.5Q277 171 277 231V700H427V231Q427 174 417 128.5Q407 83 382.5 51.5Q358 20 315.5 3Q273 -14 207 -14Q166 -14 134.5 -7.5Q103 -1 79 10.5Q55 22 37 37.5Q19 53 4 71L105 168Q128 141 150.5 125.5Q173 110 204 110Z" glyph-name="Jcircumflex" horiz-adv-x="495" unicode="&#308;" /><glyph d="M281 309 222 242V0H72V700H222V428L459 700H632L384 417L659 0H480Z" glyph-name="K" horiz-adv-x="670" unicode="K" /><glyph d="M281 309 222 242V0H72V700H222V428L459 700H632L384 417L659 0H480ZM422 -158Q422 -176 417 -198.5Q412 -221 397.5 -242Q383 -263 357.5 -279Q332 -295 292 -300L273 -247Q283 -247 295.5 -243.5Q308 -240 319 -234Q330 -228 337.5 -219.5Q345 -211 345 -200V-196Q340 -198 336.5 -198Q333 -198 329 -198Q302 -198 281 -177.5Q260 -157 260 -126Q260 -113 264.5 -100Q269 -87 278 -76.5Q287 -66 301 -59.5Q315 -53 335 -53Q358 -53 374.5 -62Q391 -71 401.5 -86Q412 -101 417 -120Q422 -139 422 -158Z" glyph-name="Kcommaaccent" horiz-adv-x="670" unicode="&#310;" /><glyph d="M72 700H222V125H528V0H72Z" glyph-name="L" horiz-adv-x="546" unicode="L" /><glyph d="M327 859 99 748 55 825 268 963ZM72 700H222V125H528V0H72Z" glyph-name="Lacute" horiz-adv-x="546" unicode="&#313;" /><glyph d="M442 727 375 531 292 553 335 755ZM72 700H222V125H528V0H72Z" glyph-name="Lcaron" horiz-adv-x="546" unicode="&#317;" /><glyph d="M72 700H222V125H528V0H72ZM361 -158Q361 -176 356 -198.5Q351 -221 336.5 -242Q322 -263 296.5 -279Q271 -295 231 -300L212 -247Q222 -247 234.5 -243.5Q247 -240 258 -234Q269 -228 276.5 -219.5Q284 -211 284 -200V-196Q279 -198 275.5 -198Q272 -198 268 -198Q241 -198 220 -177.5Q199 -157 199 -126Q199 -113 203.5 -100Q208 -87 217 -76.5Q226 -66 240 -59.5Q254 -53 274 -53Q297 -53 313.5 -62Q330 -71 340.5 -86Q351 -101 356 -120Q361 -139 361 -158Z" glyph-name="Lcommaaccent" horiz-adv-x="546" unicode="&#315;" /><glyph d="M72 700H222V125H528V0H72ZM314 369Q314 407 338 430.5Q362 454 400 454Q438 454 462 430.5Q486 407 486 369Q486 334 463.5 310Q441 286 400 286Q359 286 336.5 310Q314 334 314 369Z" glyph-name="Ldot" horiz-adv-x="546" unicode="&#319;" /><glyph d="M98 355V700H248V439L365 505L418 407L248 311V125H554V0H98V226L40 194L-14 292Z" glyph-name="Lslash" horiz-adv-x="572" unicode="&#321;" /><glyph d="M380 0Q370 27 356.5 66.5Q343 106 327.5 151.5Q312 197 296 246Q280 295 264.5 341.5Q249 388 235.5 430Q222 472 213 503H210V0H72V700H282Q325 572 360 465Q375 419 390 373.5Q405 328 418 289Q431 250 440.5 221Q450 192 454 179Q458 192 467 221Q476 250 488 289Q500 328 514.5 373.5Q529 419 544 465Q578 572 620 700H829V0H691V503H688Q678 472 663.5 428.5Q649 385 633 336Q617 287 600 236.5Q583 186 568 140.5Q553 95 540 58Q527 21 520 0Z" glyph-name="M" horiz-adv-x="901" unicode="M" /><glyph d="M72 700H228Q289 601 344 512Q367 474 391.5 434.5Q416 395 438.5 359Q461 323 480 292Q499 261 512 240H515V700H657V0H501Q442 97 387 185Q364 222 339.5 261.5Q315 301 292.5 337.5Q270 374 250.5 405.5Q231 437 217 460H214V0H72Z" glyph-name="N" horiz-adv-x="729" unicode="N" /><glyph d="M517 859 289 748 245 825 458 963ZM72 700H228Q289 601 344 512Q367 474 391.5 434.5Q416 395 438.5 359Q461 323 480 292Q499 261 512 240H515V700H657V0H501Q442 97 387 185Q364 222 339.5 261.5Q315 301 292.5 337.5Q270 374 250.5 405.5Q231 437 217 460H214V0H72Z" glyph-name="Nacute" horiz-adv-x="729" unicode="&#323;" /><glyph d="M189 865 255 930 359 826 464 930 530 865 415 750H303ZM72 700H228Q289 601 344 512Q367 474 391.5 434.5Q416 395 438.5 359Q461 323 480 292Q499 261 512 240H515V700H657V0H501Q442 97 387 185Q364 222 339.5 261.5Q315 301 292.5 337.5Q270 374 250.5 405.5Q231 437 217 460H214V0H72Z" glyph-name="Ncaron" horiz-adv-x="729" unicode="&#327;" /><glyph d="M72 700H228Q289 601 344 512Q367 474 391.5 434.5Q416 395 438.5 359Q461 323 480 292Q499 261 512 240H515V700H657V0H501Q442 97 387 185Q364 222 339.5 261.5Q315 301 292.5 337.5Q270 374 250.5 405.5Q231 437 217 460H214V0H72ZM451 -158Q451 -176 446 -198.5Q441 -221 426.5 -242Q412 -263 386.5 -279Q361 -295 321 -300L302 -247Q312 -247 324.5 -243.5Q337 -240 348 -234Q359 -228 366.5 -219.5Q374 -211 374 -200V-196Q369 -198 365.5 -198Q362 -198 358 -198Q331 -198 310 -177.5Q289 -157 289 -126Q289 -113 293.5 -100Q298 -87 307 -76.5Q316 -66 330 -59.5Q344 -53 364 -53Q387 -53 403.5 -62Q420 -71 430.5 -86Q441 -101 446 -120Q451 -139 451 -158Z" glyph-name="Ncommaaccent" horiz-adv-x="729" unicode="&#325;" /><glyph d="M284 910Q312 910 332.5 901Q353 892 369.5 881.5Q386 871 400.5 862.5Q415 854 431 854Q446 854 457 862Q468 870 475 880Q483 891 488 907L557 848Q545 823 527 805Q511 789 486.5 776Q462 763 427 763Q399 763 379.5 771.5Q360 780 344 790.5Q328 801 313.5 809.5Q299 818 282 818Q265 818 254 810Q243 802 236 792Q228 781 223 767L154 827Q166 850 184 868Q200 884 224.5 897Q249 910 284 910ZM72 700H228Q289 601 344 512Q367 474 391.5 434.5Q416 395 438.5 359Q461 323 480 292Q499 261 512 240H515V700H657V0H501Q442 97 387 185Q364 222 339.5 261.5Q315 301 292.5 337.5Q270 374 250.5 405.5Q231 437 217 460H214V0H72Z" glyph-name="Ntilde" horiz-adv-x="729" unicode="&#209;" /><glyph d="M43 350Q43 435 67.5 502.5Q92 570 136.5 617Q181 664 244 689Q307 714 384 714Q461 714 524 689Q587 664 631.5 617Q676 570 700.5 502.5Q725 435 725 350Q725 265 700.5 197.5Q676 130 631.5 83Q587 36 524 11Q461 -14 384 -14Q307 -14 244 11Q181 36 136.5 83Q92 130 67.5 197.5Q43 265 43 350ZM198 350Q198 297 209.5 252.5Q221 208 244 176.5Q267 145 302 127.5Q337 110 384 110Q431 110 466 127.5Q501 145 524 176.5Q547 208 558.5 252.5Q570 297 570 350Q570 403 558.5 447.5Q547 492 524 523.5Q501 555 466 572.5Q431 590 384 590Q337 590 302 572.5Q267 555 244 523.5Q221 492 209.5 447.5Q198 403 198 350Z" glyph-name="O" horiz-adv-x="768" unicode="O" /><glyph d="M43 349Q43 434 69 502Q95 570 139.5 617Q184 664 243.5 689Q303 714 371 714Q443 714 488.5 690.5Q534 667 559 632V700H1032V576H707V422H1009V298H707V124H1037V0H559V67Q533 30 487 8Q441 -14 378 -14Q306 -14 244.5 11Q183 36 138 83.5Q93 131 68 198Q43 265 43 349ZM198 349Q198 296 210 252.5Q222 209 245.5 177Q269 145 303.5 127.5Q338 110 384 110Q429 110 461.5 127Q494 144 515.5 175Q537 206 547.5 247.5Q558 289 558 339V355Q558 413 544.5 457Q531 501 507 530.5Q483 560 450.5 575Q418 590 380 590Q337 590 303 572.5Q269 555 246 523Q223 491 210.5 447Q198 403 198 349Z" glyph-name="OE" horiz-adv-x="1077" unicode="&#338;" /><glyph d="M520 859 292 748 248 825 461 963ZM43 350Q43 435 67.5 502.5Q92 570 136.5 617Q181 664 244 689Q307 714 384 714Q461 714 524 689Q587 664 631.5 617Q676 570 700.5 502.5Q725 435 725 350Q725 265 700.5 197.5Q676 130 631.5 83Q587 36 524 11Q461 -14 384 -14Q307 -14 244 11Q181 36 136.5 83Q92 130 67.5 197.5Q43 265 43 350ZM198 350Q198 297 209.5 252.5Q221 208 244 176.5Q267 145 302 127.5Q337 110 384 110Q431 110 466 127.5Q501 145 524 176.5Q547 208 558.5 252.5Q570 297 570 350Q570 403 558.5 447.5Q547 492 524 523.5Q501 555 466 572.5Q431 590 384 590Q337 590 302 572.5Q267 555 244 523.5Q221 492 209.5 447.5Q198 403 198 350Z" glyph-name="Oacute" horiz-adv-x="768" unicode="&#211;" /><glyph d="M313 911Q317 884 336 865Q355 846 384 846Q413 846 432 865Q451 884 455 911L557 883Q544 826 498 791Q452 756 384 756Q316 756 270 791Q224 826 211 883ZM43 350Q43 435 67.5 502.5Q92 570 136.5 617Q181 664 244 689Q307 714 384 714Q461 714 524 689Q587 664 631.5 617Q676 570 700.5 502.5Q725 435 725 350Q725 265 700.5 197.5Q676 130 631.5 83Q587 36 524 11Q461 -14 384 -14Q307 -14 244 11Q181 36 136.5 83Q92 130 67.5 197.5Q43 265 43 350ZM198 350Q198 297 209.5 252.5Q221 208 244 176.5Q267 145 302 127.5Q337 110 384 110Q431 110 466 127.5Q501 145 524 176.5Q547 208 558.5 252.5Q570 297 570 350Q570 403 558.5 447.5Q547 492 524 523.5Q501 555 466 572.5Q431 590 384 590Q337 590 302 572.5Q267 555 244 523.5Q221 492 209.5 447.5Q198 403 198 350Z" glyph-name="Obreve" horiz-adv-x="768" unicode="&#334;" /><glyph d="M328 925H440L555 810L489 745L384 849L280 745L214 810ZM43 350Q43 435 67.5 502.5Q92 570 136.5 617Q181 664 244 689Q307 714 384 714Q461 714 524 689Q587 664 631.5 617Q676 570 700.5 502.5Q725 435 725 350Q725 265 700.5 197.5Q676 130 631.5 83Q587 36 524 11Q461 -14 384 -14Q307 -14 244 11Q181 36 136.5 83Q92 130 67.5 197.5Q43 265 43 350ZM198 350Q198 297 209.5 252.5Q221 208 244 176.5Q267 145 302 127.5Q337 110 384 110Q431 110 466 127.5Q501 145 524 176.5Q547 208 558.5 252.5Q570 297 570 350Q570 403 558.5 447.5Q547 492 524 523.5Q501 555 466 572.5Q431 590 384 590Q337 590 302 572.5Q267 555 244 523.5Q221 492 209.5 447.5Q198 403 198 350Z" glyph-name="Ocircumflex" horiz-adv-x="768" unicode="&#212;" /><glyph d="M410 840Q410 872 431.5 893Q453 914 487 914Q521 914 542.5 893Q564 872 564 840Q564 808 542.5 787Q521 766 487 766Q453 766 431.5 787Q410 808 410 840ZM194 840Q194 872 215.5 893Q237 914 271 914Q305 914 326.5 893Q348 872 348 840Q348 808 326.5 787Q305 766 271 766Q237 766 215.5 787Q194 808 194 840ZM43 350Q43 435 67.5 502.5Q92 570 136.5 617Q181 664 244 689Q307 714 384 714Q461 714 524 689Q587 664 631.5 617Q676 570 700.5 502.5Q725 435 725 350Q725 265 700.5 197.5Q676 130 631.5 83Q587 36 524 11Q461 -14 384 -14Q307 -14 244 11Q181 36 136.5 83Q92 130 67.5 197.5Q43 265 43 350ZM198 350Q198 297 209.5 252.5Q221 208 244 176.5Q267 145 302 127.5Q337 110 384 110Q431 110 466 127.5Q501 145 524 176.5Q547 208 558.5 252.5Q570 297 570 350Q570 403 558.5 447.5Q547 492 524 523.5Q501 555 466 572.5Q431 590 384 590Q337 590 302 572.5Q267 555 244 523.5Q221 492 209.5 447.5Q198 403 198 350Z" glyph-name="Odieresis" horiz-adv-x="768" unicode="&#214;" /><glyph d="M248 859 307 963 520 825 476 748ZM43 350Q43 435 67.5 502.5Q92 570 136.5 617Q181 664 244 689Q307 714 384 714Q461 714 524 689Q587 664 631.5 617Q676 570 700.5 502.5Q725 435 725 350Q725 265 700.5 197.5Q676 130 631.5 83Q587 36 524 11Q461 -14 384 -14Q307 -14 244 11Q181 36 136.5 83Q92 130 67.5 197.5Q43 265 43 350ZM198 350Q198 297 209.5 252.5Q221 208 244 176.5Q267 145 302 127.5Q337 110 384 110Q431 110 466 127.5Q501 145 524 176.5Q547 208 558.5 252.5Q570 297 570 350Q570 403 558.5 447.5Q547 492 524 523.5Q501 555 466 572.5Q431 590 384 590Q337 590 302 572.5Q267 555 244 523.5Q221 492 209.5 447.5Q198 403 198 350Z" glyph-name="Ograve" horiz-adv-x="768" unicode="&#210;" /><glyph d="M708 885 493 748 441 819 638 981ZM438 885 223 748 171 819 368 981ZM43 350Q43 435 67.5 502.5Q92 570 136.5 617Q181 664 244 689Q307 714 384 714Q461 714 524 689Q587 664 631.5 617Q676 570 700.5 502.5Q725 435 725 350Q725 265 700.5 197.5Q676 130 631.5 83Q587 36 524 11Q461 -14 384 -14Q307 -14 244 11Q181 36 136.5 83Q92 130 67.5 197.5Q43 265 43 350ZM198 350Q198 297 209.5 252.5Q221 208 244 176.5Q267 145 302 127.5Q337 110 384 110Q431 110 466 127.5Q501 145 524 176.5Q547 208 558.5 252.5Q570 297 570 350Q570 403 558.5 447.5Q547 492 524 523.5Q501 555 466 572.5Q431 590 384 590Q337 590 302 572.5Q267 555 244 523.5Q221 492 209.5 447.5Q198 403 198 350Z" glyph-name="Ohungarumlaut" horiz-adv-x="768" unicode="&#336;" /><glyph d="M240 864H529V773H240ZM43 350Q43 435 67.5 502.5Q92 570 136.5 617Q181 664 244 689Q307 714 384 714Q461 714 524 689Q587 664 631.5 617Q676 570 700.5 502.5Q725 435 725 350Q725 265 700.5 197.5Q676 130 631.5 83Q587 36 524 11Q461 -14 384 -14Q307 -14 244 11Q181 36 136.5 83Q92 130 67.5 197.5Q43 265 43 350ZM198 350Q198 297 209.5 252.5Q221 208 244 176.5Q267 145 302 127.5Q337 110 384 110Q431 110 466 127.5Q501 145 524 176.5Q547 208 558.5 252.5Q570 297 570 350Q570 403 558.5 447.5Q547 492 524 523.5Q501 555 466 572.5Q431 590 384 590Q337 590 302 572.5Q267 555 244 523.5Q221 492 209.5 447.5Q198 403 198 350Z" glyph-name="Omacron" horiz-adv-x="768" unicode="&#332;" /><glyph d="M43 350Q43 435 67.5 502.5Q92 570 136.5 617Q181 664 244 689Q307 714 384 714Q429 714 468 705.5Q507 697 542 681L597 767L675 721L617 630Q668 583 696.5 512.5Q725 442 725 350Q725 265 700.5 197.5Q676 130 631.5 83Q587 36 524 11Q461 -14 384 -14Q297 -14 227 18L173 -67L95 -21L152 68Q100 116 71.5 186.5Q43 257 43 350ZM198 350Q198 255 232 194L471 570Q434 590 384 590Q337 590 302 572.5Q267 555 244 523.5Q221 492 209.5 447.5Q198 403 198 350ZM570 350Q570 395 561.5 434Q553 473 536 503L298 129Q336 110 384 110Q431 110 466 127.5Q501 145 524 176.5Q547 208 558.5 252.5Q570 297 570 350Z" glyph-name="Oslash" horiz-adv-x="768" unicode="&#216;" /><glyph d="M313 910Q341 910 361.5 901Q382 892 398.5 881.5Q415 871 429.5 862.5Q444 854 460 854Q475 854 486 862Q497 870 504 880Q512 891 517 907L586 848Q574 823 556 805Q540 789 515.5 776Q491 763 456 763Q428 763 408.5 771.5Q389 780 373 790.5Q357 801 342.5 809.5Q328 818 311 818Q294 818 283 810Q272 802 265 792Q257 781 252 767L183 827Q195 850 213 868Q229 884 253.5 897Q278 910 313 910ZM43 350Q43 435 67.5 502.5Q92 570 136.5 617Q181 664 244 689Q307 714 384 714Q461 714 524 689Q587 664 631.5 617Q676 570 700.5 502.5Q725 435 725 350Q725 265 700.5 197.5Q676 130 631.5 83Q587 36 524 11Q461 -14 384 -14Q307 -14 244 11Q181 36 136.5 83Q92 130 67.5 197.5Q43 265 43 350ZM198 350Q198 297 209.5 252.5Q221 208 244 176.5Q267 145 302 127.5Q337 110 384 110Q431 110 466 127.5Q501 145 524 176.5Q547 208 558.5 252.5Q570 297 570 350Q570 403 558.5 447.5Q547 492 524 523.5Q501 555 466 572.5Q431 590 384 590Q337 590 302 572.5Q267 555 244 523.5Q221 492 209.5 447.5Q198 403 198 350Z" glyph-name="Otilde" horiz-adv-x="768" unicode="&#213;" /><glyph d="M221 246V0H72V700H338Q401 700 452 687Q503 674 539 647Q575 620 595 577.5Q615 535 615 477Q615 417 594.5 373.5Q574 330 537 301.5Q500 273 449.5 259.5Q399 246 338 246ZM462 477Q462 534 427.5 555Q393 576 323 576H221V370H323Q393 370 427.5 395Q462 420 462 477Z" glyph-name="P" horiz-adv-x="643" unicode="P" /><glyph d="M523 11Q459 -14 384 -14Q307 -14 244 11Q181 36 136.5 83Q92 130 67.5 197.5Q43 265 43 350Q43 435 67.5 502.5Q92 570 136.5 617Q181 664 244 689Q307 714 384 714Q461 714 524 689Q587 664 631.5 617Q676 570 700.5 502.5Q725 435 725 350Q725 259 697.5 188.5Q670 118 619 71L683 1L599 -73ZM198 350Q198 297 209.5 252.5Q221 208 244 176.5Q267 145 302 127.5Q337 110 384 110Q406 110 429 115L364 187L446 261L523 176Q547 208 558.5 252Q570 296 570 350Q570 403 558.5 447.5Q547 492 524 523.5Q501 555 466 572.5Q431 590 384 590Q337 590 302 572.5Q267 555 244 523.5Q221 492 209.5 447.5Q198 403 198 350Z" glyph-name="Q" horiz-adv-x="768" unicode="Q" /><glyph d="M596 487Q596 409 560.5 360Q525 311 463 287L624 0H459L314 265H221V0H72V700H328Q389 700 438.5 687.5Q488 675 523 649Q558 623 577 583Q596 543 596 487ZM442 486Q442 537 409.5 556.5Q377 576 311 576H221V387H311Q377 387 409.5 409.5Q442 432 442 486Z" glyph-name="R" horiz-adv-x="656" unicode="R" /><glyph d="M468 859 240 748 196 825 409 963ZM596 487Q596 409 560.5 360Q525 311 463 287L624 0H459L314 265H221V0H72V700H328Q389 700 438.5 687.5Q488 675 523 649Q558 623 577 583Q596 543 596 487ZM442 486Q442 537 409.5 556.5Q377 576 311 576H221V387H311Q377 387 409.5 409.5Q442 432 442 486Z" glyph-name="Racute" horiz-adv-x="656" unicode="&#340;" /><glyph d="M145 865 211 930 315 826 420 930 486 865 371 750H259ZM596 487Q596 409 560.5 360Q525 311 463 287L624 0H459L314 265H221V0H72V700H328Q389 700 438.5 687.5Q488 675 523 649Q558 623 577 583Q596 543 596 487ZM442 486Q442 537 409.5 556.5Q377 576 311 576H221V387H311Q377 387 409.5 409.5Q442 432 442 486Z" glyph-name="Rcaron" horiz-adv-x="656" unicode="&#344;" /><glyph d="M596 487Q596 409 560.5 360Q525 311 463 287L624 0H459L314 265H221V0H72V700H328Q389 700 438.5 687.5Q488 675 523 649Q558 623 577 583Q596 543 596 487ZM442 486Q442 537 409.5 556.5Q377 576 311 576H221V387H311Q377 387 409.5 409.5Q442 432 442 486ZM406 -158Q406 -176 401 -198.5Q396 -221 381.5 -242Q367 -263 341.5 -279Q316 -295 276 -300L257 -247Q267 -247 279.5 -243.5Q292 -240 303 -234Q314 -228 321.5 -219.5Q329 -211 329 -200V-196Q324 -198 320.5 -198Q317 -198 313 -198Q286 -198 265 -177.5Q244 -157 244 -126Q244 -113 248.5 -100Q253 -87 262 -76.5Q271 -66 285 -59.5Q299 -53 319 -53Q342 -53 358.5 -62Q375 -71 385.5 -86Q396 -101 401 -120Q406 -139 406 -158Z" glyph-name="Rcommaaccent" horiz-adv-x="656" unicode="&#342;" /><glyph d="M208 516Q208 471 246.5 451.5Q285 432 371 418Q495 397 554 348.5Q613 300 613 206Q613 155 592 114.5Q571 74 533.5 45.5Q496 17 444 1.5Q392 -14 331 -14Q265 -14 212 3.5Q159 21 122 50Q85 79 64 118Q43 157 41 199L191 223Q196 172 230.5 139.5Q265 107 331 107Q358 107 381.5 112Q405 117 422.5 128.5Q440 140 450 157Q460 174 460 198Q460 217 452.5 232Q445 247 427.5 258Q410 269 382 277.5Q354 286 313 292Q258 301 211 315Q164 329 129.5 353.5Q95 378 75.5 414.5Q56 451 56 504Q56 556 76 595.5Q96 635 132 661.5Q168 688 217 701Q266 714 324 714Q378 714 425 701.5Q472 689 508.5 664.5Q545 640 569 604Q593 568 602 522L450 489Q442 537 409 565Q376 593 320 593Q263 593 235.5 572Q208 551 208 516Z" glyph-name="S" horiz-adv-x="654" unicode="S" /><glyph d="M474 859 246 748 202 825 415 963ZM208 516Q208 471 246.5 451.5Q285 432 371 418Q495 397 554 348.5Q613 300 613 206Q613 155 592 114.5Q571 74 533.5 45.5Q496 17 444 1.5Q392 -14 331 -14Q265 -14 212 3.5Q159 21 122 50Q85 79 64 118Q43 157 41 199L191 223Q196 172 230.5 139.5Q265 107 331 107Q358 107 381.5 112Q405 117 422.5 128.5Q440 140 450 157Q460 174 460 198Q460 217 452.5 232Q445 247 427.5 258Q410 269 382 277.5Q354 286 313 292Q258 301 211 315Q164 329 129.5 353.5Q95 378 75.5 414.5Q56 451 56 504Q56 556 76 595.5Q96 635 132 661.5Q168 688 217 701Q266 714 324 714Q378 714 425 701.5Q472 689 508.5 664.5Q545 640 569 604Q593 568 602 522L450 489Q442 537 409 565Q376 593 320 593Q263 593 235.5 572Q208 551 208 516Z" glyph-name="Sacute" horiz-adv-x="654" unicode="&#346;" /><glyph d="M154 865 220 930 324 826 429 930 495 865 380 750H268ZM208 516Q208 471 246.5 451.5Q285 432 371 418Q495 397 554 348.5Q613 300 613 206Q613 155 592 114.5Q571 74 533.5 45.5Q496 17 444 1.5Q392 -14 331 -14Q265 -14 212 3.5Q159 21 122 50Q85 79 64 118Q43 157 41 199L191 223Q196 172 230.5 139.5Q265 107 331 107Q358 107 381.5 112Q405 117 422.5 128.5Q440 140 450 157Q460 174 460 198Q460 217 452.5 232Q445 247 427.5 258Q410 269 382 277.5Q354 286 313 292Q258 301 211 315Q164 329 129.5 353.5Q95 378 75.5 414.5Q56 451 56 504Q56 556 76 595.5Q96 635 132 661.5Q168 688 217 701Q266 714 324 714Q378 714 425 701.5Q472 689 508.5 664.5Q545 640 569 604Q593 568 602 522L450 489Q442 537 409 565Q376 593 320 593Q263 593 235.5 572Q208 551 208 516Z" glyph-name="Scaron" horiz-adv-x="654" unicode="&#352;" /><glyph d="M261 -151Q269 -160 283.5 -166.5Q298 -173 315 -173Q335 -173 345.5 -162.5Q356 -152 356 -136Q356 -119 345 -111Q334 -103 317 -103Q303 -103 293 -107.5Q283 -112 278 -118L244 -82L278 -10Q224 -4 180.5 15.5Q137 35 107 63Q77 91 60 126Q43 161 41 199L191 223Q196 172 230.5 139.5Q265 107 331 107Q358 107 381.5 112Q405 117 422.5 128.5Q440 140 450 157Q460 174 460 198Q460 217 452.5 232Q445 247 427.5 258Q410 269 382 277.5Q354 286 313 292Q258 301 211 315Q164 329 129.5 353.5Q95 378 75.5 414.5Q56 451 56 504Q56 556 76 595.5Q96 635 132 661.5Q168 688 217 701Q266 714 324 714Q378 714 425 701.5Q472 689 508.5 664.5Q545 640 569 604Q593 568 602 522L450 489Q442 537 409 565Q376 593 320 593Q263 593 235.5 572Q208 551 208 516Q208 471 246.5 451.5Q285 432 371 418Q495 397 554 348.5Q613 300 613 206Q613 156 592.5 116Q572 76 536 47.5Q500 19 450 3Q400 -13 341 -14L325 -49Q335 -45 352 -45Q387 -45 412.5 -67Q438 -89 438 -133Q438 -159 428 -178.5Q418 -198 401.5 -211Q385 -224 363 -231Q341 -238 316 -238Q278 -238 255.5 -226Q233 -214 223 -204Z" glyph-name="Scedilla" horiz-adv-x="654" unicode="&#350;" /><glyph d="M268 925H380L495 810L429 745L324 849L220 745L154 810ZM208 516Q208 471 246.5 451.5Q285 432 371 418Q495 397 554 348.5Q613 300 613 206Q613 155 592 114.5Q571 74 533.5 45.5Q496 17 444 1.5Q392 -14 331 -14Q265 -14 212 3.5Q159 21 122 50Q85 79 64 118Q43 157 41 199L191 223Q196 172 230.5 139.5Q265 107 331 107Q358 107 381.5 112Q405 117 422.5 128.5Q440 140 450 157Q460 174 460 198Q460 217 452.5 232Q445 247 427.5 258Q410 269 382 277.5Q354 286 313 292Q258 301 211 315Q164 329 129.5 353.5Q95 378 75.5 414.5Q56 451 56 504Q56 556 76 595.5Q96 635 132 661.5Q168 688 217 701Q266 714 324 714Q378 714 425 701.5Q472 689 508.5 664.5Q545 640 569 604Q593 568 602 522L450 489Q442 537 409 565Q376 593 320 593Q263 593 235.5 572Q208 551 208 516Z" glyph-name="Scircumflex" horiz-adv-x="654" unicode="&#348;" /><glyph d="M208 516Q208 471 246.5 451.5Q285 432 371 418Q495 397 554 348.5Q613 300 613 206Q613 155 592 114.5Q571 74 533.5 45.5Q496 17 444 1.5Q392 -14 331 -14Q265 -14 212 3.5Q159 21 122 50Q85 79 64 118Q43 157 41 199L191 223Q196 172 230.5 139.5Q265 107 331 107Q358 107 381.5 112Q405 117 422.5 128.5Q440 140 450 157Q460 174 460 198Q460 217 452.5 232Q445 247 427.5 258Q410 269 382 277.5Q354 286 313 292Q258 301 211 315Q164 329 129.5 353.5Q95 378 75.5 414.5Q56 451 56 504Q56 556 76 595.5Q96 635 132 661.5Q168 688 217 701Q266 714 324 714Q378 714 425 701.5Q472 689 508.5 664.5Q545 640 569 604Q593 568 602 522L450 489Q442 537 409 565Q376 593 320 593Q263 593 235.5 572Q208 551 208 516ZM422 -158Q422 -176 417 -198.5Q412 -221 397.5 -242Q383 -263 357.5 -279Q332 -295 292 -300L273 -247Q283 -247 295.5 -243.5Q308 -240 319 -234Q330 -228 337.5 -219.5Q345 -211 345 -200V-196Q340 -198 336.5 -198Q333 -198 329 -198Q302 -198 281 -177.5Q260 -157 260 -126Q260 -113 264.5 -100Q269 -87 278 -76.5Q287 -66 301 -59.5Q315 -53 335 -53Q358 -53 374.5 -62Q391 -71 401.5 -86Q412 -101 417 -120Q422 -139 422 -158Z" glyph-name="Scommaaccent" horiz-adv-x="654" unicode="&#536;" /><glyph d="M19 700H574V575H372V0H221V575H19Z" glyph-name="T" horiz-adv-x="593" unicode="T" /><glyph d="M372 318V0H221V318H96V429H221V575H19V700H574V575H372V429H497V318Z" glyph-name="Tbar" horiz-adv-x="593" unicode="&#358;" /><glyph d="M126 865 192 930 296 826 401 930 467 865 352 750H240ZM19 700H574V575H372V0H221V575H19Z" glyph-name="Tcaron" horiz-adv-x="593" unicode="&#356;" /><glyph d="M19 700H574V575H372V0H221V575H19ZM381 -158Q381 -176 376 -198.5Q371 -221 356.5 -242Q342 -263 316.5 -279Q291 -295 251 -300L232 -247Q242 -247 254.5 -243.5Q267 -240 278 -234Q289 -228 296.5 -219.5Q304 -211 304 -200V-196Q299 -198 295.5 -198Q292 -198 288 -198Q261 -198 240 -177.5Q219 -157 219 -126Q219 -113 223.5 -100Q228 -87 237 -76.5Q246 -66 260 -59.5Q274 -53 294 -53Q317 -53 333.5 -62Q350 -71 360.5 -86Q371 -101 376 -120Q381 -139 381 -158Z" glyph-name="Tcommaaccent" horiz-adv-x="593" unicode="&#354;" /><glyph d="M72 0V700H221V589H338Q401 589 452 576Q503 563 539 536Q575 509 595 466.5Q615 424 615 366Q615 306 594.5 262.5Q574 219 537 190.5Q500 162 449.5 148.5Q399 135 338 135H221V0ZM462 366Q462 423 427.5 444Q393 465 323 465H221V259H323Q393 259 427.5 284Q462 309 462 366Z" glyph-name="Thorn" horiz-adv-x="643" unicode="&#222;" /><glyph d="M348 -14Q275 -14 222 4.5Q169 23 135 58Q101 93 84.5 143.5Q68 194 68 258V700H218V257Q218 193 250 151.5Q282 110 348 110Q414 110 446 151.5Q478 193 478 257V700H628V258Q628 194 611.5 143.5Q595 93 561 58Q527 23 474 4.5Q421 -14 348 -14Z" glyph-name="U" horiz-adv-x="696" unicode="U" /><glyph d="M485 859 257 748 213 825 426 963ZM348 -14Q275 -14 222 4.5Q169 23 135 58Q101 93 84.5 143.5Q68 194 68 258V700H218V257Q218 193 250 151.5Q282 110 348 110Q414 110 446 151.5Q478 193 478 257V700H628V258Q628 194 611.5 143.5Q595 93 561 58Q527 23 474 4.5Q421 -14 348 -14Z" glyph-name="Uacute" horiz-adv-x="696" unicode="&#218;" /><glyph d="M277 911Q281 884 300 865Q319 846 348 846Q377 846 396 865Q415 884 419 911L521 883Q508 826 462 791Q416 756 348 756Q280 756 234 791Q188 826 175 883ZM348 -14Q275 -14 222 4.5Q169 23 135 58Q101 93 84.5 143.5Q68 194 68 258V700H218V257Q218 193 250 151.5Q282 110 348 110Q414 110 446 151.5Q478 193 478 257V700H628V258Q628 194 611.5 143.5Q595 93 561 58Q527 23 474 4.5Q421 -14 348 -14Z" glyph-name="Ubreve" horiz-adv-x="696" unicode="&#364;" /><glyph d="M292 925H404L519 810L453 745L348 849L244 745L178 810ZM348 -14Q275 -14 222 4.5Q169 23 135 58Q101 93 84.5 143.5Q68 194 68 258V700H218V257Q218 193 250 151.5Q282 110 348 110Q414 110 446 151.5Q478 193 478 257V700H628V258Q628 194 611.5 143.5Q595 93 561 58Q527 23 474 4.5Q421 -14 348 -14Z" glyph-name="Ucircumflex" horiz-adv-x="696" unicode="&#219;" /><glyph d="M379 840Q379 872 400.5 893Q422 914 456 914Q490 914 511.5 893Q533 872 533 840Q533 808 511.5 787Q490 766 456 766Q422 766 400.5 787Q379 808 379 840ZM163 840Q163 872 184.5 893Q206 914 240 914Q274 914 295.5 893Q317 872 317 840Q317 808 295.5 787Q274 766 240 766Q206 766 184.5 787Q163 808 163 840ZM348 -14Q275 -14 222 4.5Q169 23 135 58Q101 93 84.5 143.5Q68 194 68 258V700H218V257Q218 193 250 151.5Q282 110 348 110Q414 110 446 151.5Q478 193 478 257V700H628V258Q628 194 611.5 143.5Q595 93 561 58Q527 23 474 4.5Q421 -14 348 -14Z" glyph-name="Udieresis" horiz-adv-x="696" unicode="&#220;" /><glyph d="M209 859 268 963 481 825 437 748ZM348 -14Q275 -14 222 4.5Q169 23 135 58Q101 93 84.5 143.5Q68 194 68 258V700H218V257Q218 193 250 151.5Q282 110 348 110Q414 110 446 151.5Q478 193 478 257V700H628V258Q628 194 611.5 143.5Q595 93 561 58Q527 23 474 4.5Q421 -14 348 -14Z" glyph-name="Ugrave" horiz-adv-x="696" unicode="&#217;" /><glyph d="M653 885 438 748 386 819 583 981ZM383 885 168 748 116 819 313 981ZM348 -14Q275 -14 222 4.5Q169 23 135 58Q101 93 84.5 143.5Q68 194 68 258V700H218V257Q218 193 250 151.5Q282 110 348 110Q414 110 446 151.5Q478 193 478 257V700H628V258Q628 194 611.5 143.5Q595 93 561 58Q527 23 474 4.5Q421 -14 348 -14Z" glyph-name="Uhungarumlaut" horiz-adv-x="696" unicode="&#368;" /><glyph d="M204 864H493V773H204ZM348 -14Q275 -14 222 4.5Q169 23 135 58Q101 93 84.5 143.5Q68 194 68 258V700H218V257Q218 193 250 151.5Q282 110 348 110Q414 110 446 151.5Q478 193 478 257V700H628V258Q628 194 611.5 143.5Q595 93 561 58Q527 23 474 4.5Q421 -14 348 -14Z" glyph-name="Umacron" horiz-adv-x="696" unicode="&#362;" /><glyph d="M390 -93Q390 -108 401 -117.5Q412 -127 435 -127Q451 -127 465 -119.5Q479 -112 496 -86L557 -139Q527 -176 494.5 -192.5Q462 -209 420 -209Q393 -209 369.5 -203Q346 -197 328.5 -184Q311 -171 300.5 -151.5Q290 -132 290 -105Q290 -76 301.5 -54Q313 -32 334 -14Q195 -10 131.5 61.5Q68 133 68 258V700H218V257Q218 193 250 151.5Q282 110 348 110Q414 110 446 151.5Q478 193 478 257V700H628V258Q628 167 595.5 104.5Q563 42 494 10Q443 -14 416.5 -40.5Q390 -67 390 -93Z" glyph-name="Uogonek" horiz-adv-x="696" unicode="&#370;" /><glyph d="M234 861Q234 908 265.5 938Q297 968 348 968Q399 968 430.5 938Q462 908 462 861Q462 816 430.5 784.5Q399 753 348 753Q297 753 265.5 784.5Q234 816 234 861ZM307 861Q307 844 318.5 832Q330 820 348 820Q366 820 377.5 832Q389 844 389 861Q389 878 377.5 889.5Q366 901 348 901Q330 901 318.5 889.5Q307 878 307 861ZM348 -14Q275 -14 222 4.5Q169 23 135 58Q101 93 84.5 143.5Q68 194 68 258V700H218V257Q218 193 250 151.5Q282 110 348 110Q414 110 446 151.5Q478 193 478 257V700H628V258Q628 194 611.5 143.5Q595 93 561 58Q527 23 474 4.5Q421 -14 348 -14Z" glyph-name="Uring" horiz-adv-x="696" unicode="&#366;" /><glyph d="M270 910Q298 910 318.5 901Q339 892 355.5 881.5Q372 871 386.5 862.5Q401 854 417 854Q432 854 443 862Q454 870 461 880Q469 891 474 907L543 848Q531 823 513 805Q497 789 472.5 776Q448 763 413 763Q385 763 365.5 771.5Q346 780 330 790.5Q314 801 299.5 809.5Q285 818 268 818Q251 818 240 810Q229 802 222 792Q214 781 209 767L140 827Q152 850 170 868Q186 884 210.5 897Q235 910 270 910ZM348 -14Q275 -14 222 4.5Q169 23 135 58Q101 93 84.5 143.5Q68 194 68 258V700H218V257Q218 193 250 151.5Q282 110 348 110Q414 110 446 151.5Q478 193 478 257V700H628V258Q628 194 611.5 143.5Q595 93 561 58Q527 23 474 4.5Q421 -14 348 -14Z" glyph-name="Utilde" horiz-adv-x="696" unicode="&#360;" /><glyph d="M175 700Q212 595 245 497Q259 455 274 411Q289 367 303 325Q317 283 329 245.5Q341 208 350 180H352Q361 208 373 245.5Q385 283 398.5 325Q412 367 427 411Q442 455 456 497Q489 595 526 700H680L422 0H269L14 700Z" glyph-name="V" horiz-adv-x="694" unicode="V" /><glyph d="M930 700 755 0H581Q559 97 539 185Q530 222 521 261.5Q512 301 504 338Q496 375 488.5 407.5Q481 440 476 464H473Q468 440 461 407.5Q454 375 445.5 338Q437 301 427.5 261.5Q418 222 409 185Q388 97 364 0H190L14 700H166Q192 588 215 487Q225 444 234.5 399Q244 354 253 313Q262 272 269 236.5Q276 201 281 177H284Q288 201 296 236.5Q304 272 313.5 313Q323 354 333.5 399Q344 444 354 487Q378 588 405 700H546Q573 588 597 487Q607 444 617.5 399Q628 354 637.5 313Q647 272 655 236.5Q663 201 668 177H671Q675 201 683 236.5Q691 272 700 313Q709 354 719 399Q729 444 739 487Q762 588 789 700Z" glyph-name="W" horiz-adv-x="944" unicode="W" /><glyph d="M605 859 377 748 333 825 546 963ZM930 700 755 0H581Q559 97 539 185Q530 222 521 261.5Q512 301 504 338Q496 375 488.5 407.5Q481 440 476 464H473Q468 440 461 407.5Q454 375 445.5 338Q437 301 427.5 261.5Q418 222 409 185Q388 97 364 0H190L14 700H166Q192 588 215 487Q225 444 234.5 399Q244 354 253 313Q262 272 269 236.5Q276 201 281 177H284Q288 201 296 236.5Q304 272 313.5 313Q323 354 333.5 399Q344 444 354 487Q378 588 405 700H546Q573 588 597 487Q607 444 617.5 399Q628 354 637.5 313Q647 272 655 236.5Q663 201 668 177H671Q675 201 683 236.5Q691 272 700 313Q709 354 719 399Q729 444 739 487Q762 588 789 700Z" glyph-name="Wacute" horiz-adv-x="944" unicode="&#7810;" /><glyph d="M416 925H528L643 810L577 745L472 849L368 745L302 810ZM930 700 755 0H581Q559 97 539 185Q530 222 521 261.5Q512 301 504 338Q496 375 488.5 407.5Q481 440 476 464H473Q468 440 461 407.5Q454 375 445.5 338Q437 301 427.5 261.5Q418 222 409 185Q388 97 364 0H190L14 700H166Q192 588 215 487Q225 444 234.5 399Q244 354 253 313Q262 272 269 236.5Q276 201 281 177H284Q288 201 296 236.5Q304 272 313.5 313Q323 354 333.5 399Q344 444 354 487Q378 588 405 700H546Q573 588 597 487Q607 444 617.5 399Q628 354 637.5 313Q647 272 655 236.5Q663 201 668 177H671Q675 201 683 236.5Q691 272 700 313Q709 354 719 399Q729 444 739 487Q762 588 789 700Z" glyph-name="Wcircumflex" horiz-adv-x="944" unicode="&#372;" /><glyph d="M503 840Q503 872 524.5 893Q546 914 580 914Q614 914 635.5 893Q657 872 657 840Q657 808 635.5 787Q614 766 580 766Q546 766 524.5 787Q503 808 503 840ZM287 840Q287 872 308.5 893Q330 914 364 914Q398 914 419.5 893Q441 872 441 840Q441 808 419.5 787Q398 766 364 766Q330 766 308.5 787Q287 808 287 840ZM930 700 755 0H581Q559 97 539 185Q530 222 521 261.5Q512 301 504 338Q496 375 488.5 407.5Q481 440 476 464H473Q468 440 461 407.5Q454 375 445.5 338Q437 301 427.5 261.5Q418 222 409 185Q388 97 364 0H190L14 700H166Q192 588 215 487Q225 444 234.5 399Q244 354 253 313Q262 272 269 236.5Q276 201 281 177H284Q288 201 296 236.5Q304 272 313.5 313Q323 354 333.5 399Q344 444 354 487Q378 588 405 700H546Q573 588 597 487Q607 444 617.5 399Q628 354 637.5 313Q647 272 655 236.5Q663 201 668 177H671Q675 201 683 236.5Q691 272 700 313Q709 354 719 399Q729 444 739 487Q762 588 789 700Z" glyph-name="Wdieresis" horiz-adv-x="944" unicode="&#7812;" /><glyph d="M336 859 395 963 608 825 564 748ZM930 700 755 0H581Q559 97 539 185Q530 222 521 261.5Q512 301 504 338Q496 375 488.5 407.5Q481 440 476 464H473Q468 440 461 407.5Q454 375 445.5 338Q437 301 427.5 261.5Q418 222 409 185Q388 97 364 0H190L14 700H166Q192 588 215 487Q225 444 234.5 399Q244 354 253 313Q262 272 269 236.5Q276 201 281 177H284Q288 201 296 236.5Q304 272 313.5 313Q323 354 333.5 399Q344 444 354 487Q378 588 405 700H546Q573 588 597 487Q607 444 617.5 399Q628 354 637.5 313Q647 272 655 236.5Q663 201 668 177H671Q675 201 683 236.5Q691 272 700 313Q709 354 719 399Q729 444 739 487Q762 588 789 700Z" glyph-name="Wgrave" horiz-adv-x="944" unicode="&#7808;" /><glyph d="M444 367 703 0H523L354 243L182 0H14L271 360L34 700H215L362 484L514 700H683Z" glyph-name="X" horiz-adv-x="717" unicode="X" /><glyph d="M274 293 9 700H181L352 432L522 700H689L424 293V0H274Z" glyph-name="Y" horiz-adv-x="698" unicode="Y" /><glyph d="M513 859 285 748 241 825 454 963ZM274 293 9 700H181L352 432L522 700H689L424 293V0H274Z" glyph-name="Yacute" horiz-adv-x="698" unicode="&#221;" /><glyph d="M293 925H405L520 810L454 745L349 849L245 745L179 810ZM274 293 9 700H181L352 432L522 700H689L424 293V0H274Z" glyph-name="Ycircumflex" horiz-adv-x="698" unicode="&#374;" /><glyph d="M380 840Q380 872 401.5 893Q423 914 457 914Q491 914 512.5 893Q534 872 534 840Q534 808 512.5 787Q491 766 457 766Q423 766 401.5 787Q380 808 380 840ZM164 840Q164 872 185.5 893Q207 914 241 914Q275 914 296.5 893Q318 872 318 840Q318 808 296.5 787Q275 766 241 766Q207 766 185.5 787Q164 808 164 840ZM274 293 9 700H181L352 432L522 700H689L424 293V0H274Z" glyph-name="Ydieresis" horiz-adv-x="698" unicode="&#376;" /><glyph d="M48 700H592V585L225 125H589V0H36V114L405 575H48Z" glyph-name="Z" horiz-adv-x="628" unicode="Z" /><glyph d="M469 859 241 748 197 825 410 963ZM48 700H592V585L225 125H589V0H36V114L405 575H48Z" glyph-name="Zacute" horiz-adv-x="628" unicode="&#377;" /><glyph d="M149 865 215 930 319 826 424 930 490 865 375 750H263ZM48 700H592V585L225 125H589V0H36V114L405 575H48Z" glyph-name="Zcaron" horiz-adv-x="628" unicode="&#142;" /><glyph d="M236 846Q236 883 260 906.5Q284 930 323 930Q362 930 386 906.5Q410 883 410 846Q410 809 386 785.5Q362 762 323 762Q284 762 260 785.5Q236 809 236 846ZM48 700H592V585L225 125H589V0H36V114L405 575H48Z" glyph-name="Zdotaccent" horiz-adv-x="628" unicode="&#379;" /><glyph d="M346 0Q342 5 339.5 22.5Q337 40 337 60Q316 26 283 6Q250 -14 196 -14Q119 -14 75.5 22.5Q32 59 32 124Q32 172 57 204Q82 236 123.5 255.5Q165 275 219.5 283Q274 291 333 291V322Q333 349 316.5 366.5Q300 384 265 384Q227 384 209 366Q191 348 191 326L54 347Q58 381 76 408Q94 435 123 453Q152 471 189.5 480.5Q227 490 269 490Q312 490 349.5 480Q387 470 415 448Q443 426 458.5 392Q474 358 474 310V67Q474 46 477 29Q480 12 485 0ZM234 89Q253 89 270.5 94.5Q288 100 302 110Q316 120 324.5 134.5Q333 149 333 168V204Q297 204 267 201Q237 198 216 189.5Q195 181 183.5 167Q172 153 172 132Q172 110 190 99.5Q208 89 234 89Z" glyph-name="a" horiz-adv-x="530" unicode="a" /><glyph d="M529 0H390V69Q372 37 335 11.5Q298 -14 238 -14Q195 -14 158 3.5Q121 21 93.5 53.5Q66 86 50 132.5Q34 179 34 238Q34 296 50.5 342.5Q67 389 95.5 422Q124 455 162.5 472.5Q201 490 245 490Q294 490 333 469.5Q372 449 390 411V476H529ZM386 250Q386 283 377 307Q368 331 353.5 347Q339 363 320.5 371Q302 379 283 379Q260 379 241 368Q222 357 208.5 338.5Q195 320 188 294Q181 268 181 238Q181 177 207 137Q233 97 278 97Q298 97 317.5 105Q337 113 352 128.5Q367 144 376.5 168.5Q386 193 386 226Z" glyph-name="a.school" horiz-adv-x="593" unicode="&#57681;" /><glyph d="M569 0H426L384 124H196L154 0H15L214 564H370ZM288 436Q288 431 285 420Q282 409 278.5 394Q275 379 270 361.5Q265 344 260 326Q249 285 234 235H347Q332 285 320 326Q315 344 310 361.5Q305 379 301 394Q297 409 294 420Q291 431 291 436Z" glyph-name="a.smcp" horiz-adv-x="584" unicode="&#57857;" /><glyph d="M233 288Q231 291 229.5 302Q228 313 228 326Q215 304 194.5 291.5Q174 279 141 279Q90 279 62.5 302Q35 325 35 367Q35 397 50.5 417.5Q66 438 92.5 450.5Q119 463 153 468.5Q187 474 225 474V494Q225 508 215.5 517.5Q206 527 187 527Q165 527 154.5 516.5Q144 506 144 495L50 509Q55 553 94 576.5Q133 600 189 600Q217 600 241.5 594Q266 588 284 574Q302 560 312.5 537.5Q323 515 323 483V331Q323 305 330 288ZM167 350Q189 350 207 361Q225 372 225 393V415Q182 415 157 407Q132 399 132 373Q132 361 142.5 355.5Q153 350 167 350Z" glyph-name="a.superior" horiz-adv-x="377" unicode="&#58209;" /><glyph d="M263 288V332Q252 311 228 295Q204 279 166 279Q139 279 115.5 290Q92 301 74.5 322Q57 343 47 372.5Q37 402 37 439Q37 476 47.5 506Q58 536 76 557Q94 578 118.5 589Q143 600 171 600Q201 600 226.5 587.5Q252 575 263 550V591H360V288ZM196 355Q207 355 218.5 359Q230 363 239.5 372Q249 381 255 395.5Q261 410 261 431V447Q261 489 240.5 506.5Q220 524 199 524Q172 524 155.5 499.5Q139 475 139 439Q139 403 154.5 379Q170 355 196 355Z" glyph-name="a.superiorschool" horiz-adv-x="419" /><glyph d="M400 643 172 532 128 609 341 747ZM346 0Q342 5 339.5 22.5Q337 40 337 60Q316 26 283 6Q250 -14 196 -14Q119 -14 75.5 22.5Q32 59 32 124Q32 172 57 204Q82 236 123.5 255.5Q165 275 219.5 283Q274 291 333 291V322Q333 349 316.5 366.5Q300 384 265 384Q227 384 209 366Q191 348 191 326L54 347Q58 381 76 408Q94 435 123 453Q152 471 189.5 480.5Q227 490 269 490Q312 490 349.5 480Q387 470 415 448Q443 426 458.5 392Q474 358 474 310V67Q474 46 477 29Q480 12 485 0ZM234 89Q253 89 270.5 94.5Q288 100 302 110Q316 120 324.5 134.5Q333 149 333 168V204Q297 204 267 201Q237 198 216 189.5Q195 181 183.5 167Q172 153 172 132Q172 110 190 99.5Q208 89 234 89Z" glyph-name="aacute" horiz-adv-x="530" unicode="&#225;" /><glyph d="M411 643 183 532 139 609 352 747ZM529 0H390V69Q372 37 335 11.5Q298 -14 238 -14Q195 -14 158 3.5Q121 21 93.5 53.5Q66 86 50 132.5Q34 179 34 238Q34 296 50.5 342.5Q67 389 95.5 422Q124 455 162.5 472.5Q201 490 245 490Q294 490 333 469.5Q372 449 390 411V476H529ZM386 250Q386 283 377 307Q368 331 353.5 347Q339 363 320.5 371Q302 379 283 379Q260 379 241 368Q222 357 208.5 338.5Q195 320 188 294Q181 268 181 238Q181 177 207 137Q233 97 278 97Q298 97 317.5 105Q337 113 352 128.5Q367 144 376.5 168.5Q386 193 386 226Z" glyph-name="aacute.school" horiz-adv-x="593" unicode="&#57683;" /><glyph d="M435 721 207 610 163 687 376 825ZM569 0H426L384 124H196L154 0H15L214 564H370ZM288 436Q288 431 285 420Q282 409 278.5 394Q275 379 270 361.5Q265 344 260 326Q249 285 234 235H347Q332 285 320 326Q315 344 310 361.5Q305 379 301 394Q297 409 294 420Q291 431 291 436Z" glyph-name="aacute.smcp" horiz-adv-x="584" unicode="&#57889;" /><glyph d="M193 704Q197 677 216 658Q235 639 264 639Q293 639 312 658Q331 677 335 704L437 676Q424 619 378 584Q332 549 264 549Q196 549 150 584Q104 619 91 676ZM346 0Q342 5 339.5 22.5Q337 40 337 60Q316 26 283 6Q250 -14 196 -14Q119 -14 75.5 22.5Q32 59 32 124Q32 172 57 204Q82 236 123.5 255.5Q165 275 219.5 283Q274 291 333 291V322Q333 349 316.5 366.5Q300 384 265 384Q227 384 209 366Q191 348 191 326L54 347Q58 381 76 408Q94 435 123 453Q152 471 189.5 480.5Q227 490 269 490Q312 490 349.5 480Q387 470 415 448Q443 426 458.5 392Q474 358 474 310V67Q474 46 477 29Q480 12 485 0ZM234 89Q253 89 270.5 94.5Q288 100 302 110Q316 120 324.5 134.5Q333 149 333 168V204Q297 204 267 201Q237 198 216 189.5Q195 181 183.5 167Q172 153 172 132Q172 110 190 99.5Q208 89 234 89Z" glyph-name="abreve" horiz-adv-x="530" unicode="&#259;" /><glyph d="M197 704Q201 677 220 658Q239 639 268 639Q297 639 316 658Q335 677 339 704L441 676Q428 619 382 584Q336 549 268 549Q200 549 154 584Q108 619 95 676ZM529 0H390V69Q372 37 335 11.5Q298 -14 238 -14Q195 -14 158 3.5Q121 21 93.5 53.5Q66 86 50 132.5Q34 179 34 238Q34 296 50.5 342.5Q67 389 95.5 422Q124 455 162.5 472.5Q201 490 245 490Q294 490 333 469.5Q372 449 390 411V476H529ZM386 250Q386 283 377 307Q368 331 353.5 347Q339 363 320.5 371Q302 379 283 379Q260 379 241 368Q222 357 208.5 338.5Q195 320 188 294Q181 268 181 238Q181 177 207 137Q233 97 278 97Q298 97 317.5 105Q337 113 352 128.5Q367 144 376.5 168.5Q386 193 386 226Z" glyph-name="abreve.school" horiz-adv-x="593" unicode="&#57690;" /><glyph d="M220 771Q224 744 243 725Q262 706 291 706Q320 706 339 725Q358 744 362 771L464 743Q451 686 405 651Q359 616 291 616Q223 616 177 651Q131 686 118 743ZM569 0H426L384 124H196L154 0H15L214 564H370ZM288 436Q288 431 285 420Q282 409 278.5 394Q275 379 270 361.5Q265 344 260 326Q249 285 234 235H347Q332 285 320 326Q315 344 310 361.5Q305 379 301 394Q297 409 294 420Q291 431 291 436Z" glyph-name="abreve.smcp" horiz-adv-x="584" unicode="&#57897;" /><glyph d="M217 718H310L429 591L360 528L262 632L166 528L99 591ZM346 0Q342 5 339.5 22.5Q337 40 337 60Q316 26 283 6Q250 -14 196 -14Q119 -14 75.5 22.5Q32 59 32 124Q32 172 57 204Q82 236 123.5 255.5Q165 275 219.5 283Q274 291 333 291V322Q333 349 316.5 366.5Q300 384 265 384Q227 384 209 366Q191 348 191 326L54 347Q58 381 76 408Q94 435 123 453Q152 471 189.5 480.5Q227 490 269 490Q312 490 349.5 480Q387 470 415 448Q443 426 458.5 392Q474 358 474 310V67Q474 46 477 29Q480 12 485 0ZM234 89Q253 89 270.5 94.5Q288 100 302 110Q316 120 324.5 134.5Q333 149 333 168V204Q297 204 267 201Q237 198 216 189.5Q195 181 183.5 167Q172 153 172 132Q172 110 190 99.5Q208 89 234 89Z" glyph-name="acircumflex" horiz-adv-x="530" unicode="&#226;" /><glyph d="M231 718H324L443 591L374 528L276 632L180 528L113 591ZM529 0H390V69Q372 37 335 11.5Q298 -14 238 -14Q195 -14 158 3.5Q121 21 93.5 53.5Q66 86 50 132.5Q34 179 34 238Q34 296 50.5 342.5Q67 389 95.5 422Q124 455 162.5 472.5Q201 490 245 490Q294 490 333 469.5Q372 449 390 411V476H529ZM386 250Q386 283 377 307Q368 331 353.5 347Q339 363 320.5 371Q302 379 283 379Q260 379 241 368Q222 357 208.5 338.5Q195 320 188 294Q181 268 181 238Q181 177 207 137Q233 97 278 97Q298 97 317.5 105Q337 113 352 128.5Q367 144 376.5 168.5Q386 193 386 226Z" glyph-name="acircumflex.school" horiz-adv-x="593" unicode="&#57684;" /><glyph d="M244 798H337L456 671L387 608L289 712L193 608L126 671ZM569 0H426L384 124H196L154 0H15L214 564H370ZM288 436Q288 431 285 420Q282 409 278.5 394Q275 379 270 361.5Q265 344 260 326Q249 285 234 235H347Q332 285 320 326Q315 344 310 361.5Q305 379 301 394Q297 409 294 420Q291 431 291 436Z" glyph-name="acircumflex.smcp" horiz-adv-x="584" unicode="&#57891;" /><glyph d="M434 643 206 532 162 609 375 747Z" glyph-name="acute" horiz-adv-x="600" unicode="&#180;" /><glyph d="M434 859 206 748 162 825 375 963Z" glyph-name="acute.cap" horiz-adv-x="600" unicode="&#58402;" /><glyph d="M296 613Q296 645 317.5 666Q339 687 373 687Q407 687 428.5 666Q450 645 450 613Q450 581 428.5 560Q407 539 373 539Q339 539 317.5 560Q296 581 296 613ZM80 613Q80 645 101.5 666Q123 687 157 687Q191 687 212.5 666Q234 645 234 613Q234 581 212.5 560Q191 539 157 539Q123 539 101.5 560Q80 581 80 613ZM346 0Q342 5 339.5 22.5Q337 40 337 60Q316 26 283 6Q250 -14 196 -14Q119 -14 75.5 22.5Q32 59 32 124Q32 172 57 204Q82 236 123.5 255.5Q165 275 219.5 283Q274 291 333 291V322Q333 349 316.5 366.5Q300 384 265 384Q227 384 209 366Q191 348 191 326L54 347Q58 381 76 408Q94 435 123 453Q152 471 189.5 480.5Q227 490 269 490Q312 490 349.5 480Q387 470 415 448Q443 426 458.5 392Q474 358 474 310V67Q474 46 477 29Q480 12 485 0ZM234 89Q253 89 270.5 94.5Q288 100 302 110Q316 120 324.5 134.5Q333 149 333 168V204Q297 204 267 201Q237 198 216 189.5Q195 181 183.5 167Q172 153 172 132Q172 110 190 99.5Q208 89 234 89Z" glyph-name="adieresis" horiz-adv-x="530" unicode="&#228;" /><glyph d="M309 613Q309 645 330.5 666Q352 687 386 687Q420 687 441.5 666Q463 645 463 613Q463 581 441.5 560Q420 539 386 539Q352 539 330.5 560Q309 581 309 613ZM93 613Q93 645 114.5 666Q136 687 170 687Q204 687 225.5 666Q247 645 247 613Q247 581 225.5 560Q204 539 170 539Q136 539 114.5 560Q93 581 93 613ZM529 0H390V69Q372 37 335 11.5Q298 -14 238 -14Q195 -14 158 3.5Q121 21 93.5 53.5Q66 86 50 132.5Q34 179 34 238Q34 296 50.5 342.5Q67 389 95.5 422Q124 455 162.5 472.5Q201 490 245 490Q294 490 333 469.5Q372 449 390 411V476H529ZM386 250Q386 283 377 307Q368 331 353.5 347Q339 363 320.5 371Q302 379 283 379Q260 379 241 368Q222 357 208.5 338.5Q195 320 188 294Q181 268 181 238Q181 177 207 137Q233 97 278 97Q298 97 317.5 105Q337 113 352 128.5Q367 144 376.5 168.5Q386 193 386 226Z" glyph-name="adieresis.school" horiz-adv-x="593" unicode="&#57685;" /><glyph d="M323 696Q323 728 344.5 749Q366 770 400 770Q434 770 455.5 749Q477 728 477 696Q477 664 455.5 643Q434 622 400 622Q366 622 344.5 643Q323 664 323 696ZM107 696Q107 728 128.5 749Q150 770 184 770Q218 770 239.5 749Q261 728 261 696Q261 664 239.5 643Q218 622 184 622Q150 622 128.5 643Q107 664 107 696ZM569 0H426L384 124H196L154 0H15L214 564H370ZM288 436Q288 431 285 420Q282 409 278.5 394Q275 379 270 361.5Q265 344 260 326Q249 285 234 235H347Q332 285 320 326Q315 344 310 361.5Q305 379 301 394Q297 409 294 420Q291 431 291 436Z" glyph-name="adieresis.smcp" horiz-adv-x="584" unicode="&#57892;" /><glyph d="M779 99Q750 46 697.5 16Q645 -14 568 -14Q510 -14 464.5 6Q419 26 388 64Q359 28 315 7Q271 -14 206 -14Q125 -14 78.5 22.5Q32 59 32 124Q32 171 57 203Q82 235 123.5 254.5Q165 274 219.5 282Q274 290 333 290V322Q333 349 316.5 366.5Q300 384 265 384Q227 384 209 366Q191 348 191 326L54 347Q58 381 76 408Q94 435 122.5 453Q151 471 188.5 480.5Q226 490 268 490Q313 490 350 477.5Q387 465 413 437Q475 490 563 490Q622 490 666 469.5Q710 449 739 414.5Q768 380 782.5 334Q797 288 797 236V203H465Q466 182 471.5 162Q477 142 488.5 126.5Q500 111 519 101.5Q538 92 566 92Q602 92 623 109.5Q644 127 655 149ZM563 388Q518 388 493.5 361Q469 334 466 289H653Q651 338 626 363Q601 388 563 388ZM234 89Q253 89 270.5 94Q288 99 302 108.5Q316 118 324.5 132.5Q333 147 333 166V203Q260 203 216 188.5Q172 174 172 132Q172 110 190 99.5Q208 89 234 89Z" glyph-name="ae" horiz-adv-x="824" unicode="&#230;" /><glyph d="M386 0V124H226L163 0H10L307 564H786V445H521V348H767V231H521V118H790V0ZM284 235H386V436H383Z" glyph-name="ae.smcp" horiz-adv-x="830" unicode="&#57905;" /><glyph d="M134 643 193 747 406 609 362 532ZM346 0Q342 5 339.5 22.5Q337 40 337 60Q316 26 283 6Q250 -14 196 -14Q119 -14 75.5 22.5Q32 59 32 124Q32 172 57 204Q82 236 123.5 255.5Q165 275 219.5 283Q274 291 333 291V322Q333 349 316.5 366.5Q300 384 265 384Q227 384 209 366Q191 348 191 326L54 347Q58 381 76 408Q94 435 123 453Q152 471 189.5 480.5Q227 490 269 490Q312 490 349.5 480Q387 470 415 448Q443 426 458.5 392Q474 358 474 310V67Q474 46 477 29Q480 12 485 0ZM234 89Q253 89 270.5 94.5Q288 100 302 110Q316 120 324.5 134.5Q333 149 333 168V204Q297 204 267 201Q237 198 216 189.5Q195 181 183.5 167Q172 153 172 132Q172 110 190 99.5Q208 89 234 89Z" glyph-name="agrave" horiz-adv-x="530" unicode="&#224;" /><glyph d="M137 643 196 747 409 609 365 532ZM529 0H390V69Q372 37 335 11.5Q298 -14 238 -14Q195 -14 158 3.5Q121 21 93.5 53.5Q66 86 50 132.5Q34 179 34 238Q34 296 50.5 342.5Q67 389 95.5 422Q124 455 162.5 472.5Q201 490 245 490Q294 490 333 469.5Q372 449 390 411V476H529ZM386 250Q386 283 377 307Q368 331 353.5 347Q339 363 320.5 371Q302 379 283 379Q260 379 241 368Q222 357 208.5 338.5Q195 320 188 294Q181 268 181 238Q181 177 207 137Q233 97 278 97Q298 97 317.5 105Q337 113 352 128.5Q367 144 376.5 168.5Q386 193 386 226Z" glyph-name="agrave.school" horiz-adv-x="593" unicode="&#57682;" /><glyph d="M148 721 207 825 420 687 376 610ZM569 0H426L384 124H196L154 0H15L214 564H370ZM288 436Q288 431 285 420Q282 409 278.5 394Q275 379 270 361.5Q265 344 260 326Q249 285 234 235H347Q332 285 320 326Q315 344 310 361.5Q305 379 301 394Q297 409 294 420Q291 431 291 436Z" glyph-name="agrave.smcp" horiz-adv-x="584" unicode="&#57890;" /><glyph d="M122 641H411V550H122ZM346 0Q342 5 339.5 22.5Q337 40 337 60Q316 26 283 6Q250 -14 196 -14Q119 -14 75.5 22.5Q32 59 32 124Q32 172 57 204Q82 236 123.5 255.5Q165 275 219.5 283Q274 291 333 291V322Q333 349 316.5 366.5Q300 384 265 384Q227 384 209 366Q191 348 191 326L54 347Q58 381 76 408Q94 435 123 453Q152 471 189.5 480.5Q227 490 269 490Q312 490 349.5 480Q387 470 415 448Q443 426 458.5 392Q474 358 474 310V67Q474 46 477 29Q480 12 485 0ZM234 89Q253 89 270.5 94.5Q288 100 302 110Q316 120 324.5 134.5Q333 149 333 168V204Q297 204 267 201Q237 198 216 189.5Q195 181 183.5 167Q172 153 172 132Q172 110 190 99.5Q208 89 234 89Z" glyph-name="amacron" horiz-adv-x="530" unicode="&#257;" /><glyph d="M134 641H423V550H134ZM529 0H390V69Q372 37 335 11.5Q298 -14 238 -14Q195 -14 158 3.5Q121 21 93.5 53.5Q66 86 50 132.5Q34 179 34 238Q34 296 50.5 342.5Q67 389 95.5 422Q124 455 162.5 472.5Q201 490 245 490Q294 490 333 469.5Q372 449 390 411V476H529ZM386 250Q386 283 377 307Q368 331 353.5 347Q339 363 320.5 371Q302 379 283 379Q260 379 241 368Q222 357 208.5 338.5Q195 320 188 294Q181 268 181 238Q181 177 207 137Q233 97 278 97Q298 97 317.5 105Q337 113 352 128.5Q367 144 376.5 168.5Q386 193 386 226Z" glyph-name="amacron.school" horiz-adv-x="593" unicode="&#57689;" /><glyph d="M148 710H437V619H148ZM569 0H426L384 124H196L154 0H15L214 564H370ZM288 436Q288 431 285 420Q282 409 278.5 394Q275 379 270 361.5Q265 344 260 326Q249 285 234 235H347Q332 285 320 326Q315 344 310 361.5Q305 379 301 394Q297 409 294 420Q291 431 291 436Z" glyph-name="amacron.smcp" horiz-adv-x="584" unicode="&#57896;" /><glyph d="M28 199Q28 243 41.5 276Q55 309 76.5 333Q98 357 123.5 374.5Q149 392 173 406Q144 447 130 478Q116 509 116 544Q116 575 127 605.5Q138 636 161 660Q184 684 219.5 699Q255 714 305 714Q351 714 386 700.5Q421 687 444 664.5Q467 642 478.5 612Q490 582 490 549Q490 519 481 495Q472 471 455 449.5Q438 428 413 408.5Q388 389 356 369L464 241Q475 262 479.5 286Q484 310 486 339L593 290Q588 246 578 214.5Q568 183 545 145L674 0H511L468 47Q434 20 391.5 3Q349 -14 280 -14Q154 -14 91 44Q28 102 28 199ZM244 545Q244 524 254 503Q264 482 287 455Q317 469 339.5 489.5Q362 510 362 546Q362 572 348.5 590.5Q335 609 305 609Q277 609 260.5 591.5Q244 574 244 545ZM281 93Q322 93 352 107.5Q382 122 393 138L244 316Q231 310 218 300.5Q205 291 194 277Q183 263 176 245Q169 227 169 203Q169 183 175.5 163Q182 143 195.5 127.5Q209 112 230 102.5Q251 93 281 93Z" glyph-name="ampersand" horiz-adv-x="663" unicode="&amp;" /><glyph d="M244 791 348 749 191 307 348 -135 244 -177 45 307Z" glyph-name="anglebracketleft" horiz-adv-x="363" unicode="&#12296;" /><glyph d="M244 834 348 792 191 350 348 -92 244 -134 45 350Z" glyph-name="anglebracketleft.cap" horiz-adv-x="363" unicode="&#58519;" /><glyph d="M318 307 119 -177 15 -135 172 307 15 749 119 791Z" glyph-name="anglebracketright" horiz-adv-x="363" unicode="&#12297;" /><glyph d="M318 350 119 -134 15 -92 172 350 15 792 119 834Z" glyph-name="anglebracketright.cap" horiz-adv-x="363" unicode="&#58520;" /><glyph d="M291 427H288L154 0H15L214 564H370L569 0H426Z" glyph-name="anocross.smcp" horiz-adv-x="584" unicode="&#57888;" /><glyph d="M382 -93Q382 -108 393 -117.5Q404 -127 427 -127Q443 -127 457 -119.5Q471 -112 488 -86L549 -139Q519 -176 486.5 -192.5Q454 -209 412 -209Q385 -209 361.5 -203Q338 -197 320.5 -184Q303 -171 292.5 -151.5Q282 -132 282 -105Q282 -71 299 -47Q316 -23 346 0Q342 5 339.5 22.5Q337 40 337 60Q316 26 283 6Q250 -14 196 -14Q119 -14 75.5 22.5Q32 59 32 124Q32 172 57 204Q82 236 123.5 255.5Q165 275 219.5 283Q274 291 333 291V322Q333 349 316.5 366.5Q300 384 265 384Q227 384 209 366Q191 348 191 326L54 347Q58 381 76 408Q94 435 123 453Q152 471 189.5 480.5Q227 490 269 490Q312 490 349.5 480Q387 470 415 448Q443 426 458.5 392Q474 358 474 310V67Q474 46 477 29Q480 12 485 0Q382 -48 382 -93ZM234 89Q253 89 270.5 94.5Q288 100 302 110Q316 120 324.5 134.5Q333 149 333 168V204Q297 204 267 201Q237 198 216 189.5Q195 181 183.5 167Q172 153 172 132Q172 110 190 99.5Q208 89 234 89Z" glyph-name="aogonek" horiz-adv-x="530" unicode="&#261;" /><glyph d="M427 -93Q427 -108 438 -117.5Q449 -127 472 -127Q488 -127 502 -119.5Q516 -112 533 -86L594 -139Q564 -176 531.5 -192.5Q499 -209 457 -209Q430 -209 406.5 -203Q383 -197 365.5 -184Q348 -171 337.5 -151.5Q327 -132 327 -105Q327 -71 343.5 -47Q360 -23 390 0V69Q372 37 335 11.5Q298 -14 238 -14Q195 -14 158 3.5Q121 21 93.5 53.5Q66 86 50 132.5Q34 179 34 238Q34 296 50.5 342.5Q67 389 95.5 422Q124 455 162.5 472.5Q201 490 245 490Q294 490 333 469.5Q372 449 390 411V476H529V0Q427 -49 427 -93ZM386 250Q386 283 377 307Q368 331 353.5 347Q339 363 320.5 371Q302 379 283 379Q260 379 241 368Q222 357 208.5 338.5Q195 320 188 294Q181 268 181 238Q181 177 207 137Q233 97 278 97Q298 97 317.5 105Q337 113 352 128.5Q367 144 376.5 168.5Q386 193 386 226Z" glyph-name="aogonek.school" horiz-adv-x="593" unicode="&#57680;" /><glyph d="M464 -93Q464 -108 475 -117.5Q486 -127 509 -127Q525 -127 539 -119.5Q553 -112 570 -86L631 -139Q601 -176 568.5 -192.5Q536 -209 494 -209Q467 -209 443.5 -203Q420 -197 402.5 -184Q385 -171 374.5 -151.5Q364 -132 364 -105Q364 -71 380 -47Q396 -23 426 0L384 124H196L154 0H15L214 564H370L569 0Q518 -23 491 -46.5Q464 -70 464 -93ZM288 436Q288 431 285 420Q282 409 278.5 394Q275 379 270 361.5Q265 344 260 326Q249 285 234 235H347Q332 285 320 326Q315 344 310 361.5Q305 379 301 394Q297 409 294 420Q291 431 291 436Z" glyph-name="aogonek.smcp" horiz-adv-x="584" unicode="&#57903;" /><glyph d="M383 343Q350 343 326 351.5Q302 360 282.5 369.5Q263 379 246.5 387.5Q230 396 211 396Q191 396 177 387.5Q163 379 153 368Q142 356 134 341L48 418Q63 444 87 464Q107 481 138 496Q169 511 214 511Q248 511 272.5 502.5Q297 494 316 484.5Q335 475 352 466.5Q369 458 388 458Q408 458 422.5 466.5Q437 475 446 486Q457 498 464 514L551 439Q536 412 512 391Q492 373 460 358Q428 343 383 343ZM383 138Q350 138 326 146.5Q302 155 282.5 164.5Q263 174 246.5 182.5Q230 191 211 191Q191 191 177 182.5Q163 174 153 163Q142 151 134 136L48 213Q63 239 87 259Q107 276 138 291Q169 306 214 306Q248 306 272.5 297.5Q297 289 316 279.5Q335 270 352 261.5Q369 253 388 253Q408 253 422.5 261.5Q437 270 446 281Q457 293 464 309L551 234Q536 207 512 186Q492 168 460 153Q428 138 383 138Z" glyph-name="approxequal" horiz-adv-x="600" unicode="&#8776;" /><glyph d="M416 382Q380 382 353.5 390.5Q327 399 306 408.5Q285 418 267 426.5Q249 435 228 435Q203 435 185.5 426.5Q168 418 157 407Q144 395 134 380L48 457Q65 483 91 503Q113 520 147.5 535Q182 550 231 550Q268 550 294.5 541.5Q321 533 342 523.5Q363 514 381.5 505.5Q400 497 421 497Q446 497 463.5 505.5Q481 514 492 525Q505 537 514 553L601 478Q584 451 558 430Q535 412 500.5 397Q466 382 416 382ZM416 177Q380 177 353.5 185.5Q327 194 306 203.5Q285 213 267 221.5Q249 230 228 230Q203 230 185.5 221.5Q168 213 157 202Q144 190 134 175L48 252Q65 278 91 298Q113 315 147.5 330Q182 345 231 345Q268 345 294.5 336.5Q321 328 342 318.5Q363 309 381.5 300.5Q400 292 421 292Q446 292 463.5 300.5Q481 309 492 320Q505 332 514 348L601 273Q584 246 558 225Q535 207 500.5 192Q466 177 416 177Z" glyph-name="approxequal.cap" horiz-adv-x="650" unicode="&#61990;" /><glyph d="M153 640Q153 687 184.5 717Q216 747 267 747Q318 747 349.5 717Q381 687 381 640Q381 595 349.5 563.5Q318 532 267 532Q216 532 184.5 563.5Q153 595 153 640ZM226 640Q226 623 237.5 611Q249 599 267 599Q285 599 296.5 611Q308 623 308 640Q308 657 296.5 668.5Q285 680 267 680Q249 680 237.5 668.5Q226 657 226 640ZM346 0Q342 5 339.5 22.5Q337 40 337 60Q316 26 283 6Q250 -14 196 -14Q119 -14 75.5 22.5Q32 59 32 124Q32 172 57 204Q82 236 123.5 255.5Q165 275 219.5 283Q274 291 333 291V322Q333 349 316.5 366.5Q300 384 265 384Q227 384 209 366Q191 348 191 326L54 347Q58 381 76 408Q94 435 123 453Q152 471 189.5 480.5Q227 490 269 490Q312 490 349.5 480Q387 470 415 448Q443 426 458.5 392Q474 358 474 310V67Q474 46 477 29Q480 12 485 0ZM234 89Q253 89 270.5 94.5Q288 100 302 110Q316 120 324.5 134.5Q333 149 333 168V204Q297 204 267 201Q237 198 216 189.5Q195 181 183.5 167Q172 153 172 132Q172 110 190 99.5Q208 89 234 89Z" glyph-name="aring" horiz-adv-x="530" unicode="&#229;" /><glyph d="M164 640Q164 687 195.5 717Q227 747 278 747Q329 747 360.5 717Q392 687 392 640Q392 595 360.5 563.5Q329 532 278 532Q227 532 195.5 563.5Q164 595 164 640ZM237 640Q237 623 248.5 611Q260 599 278 599Q296 599 307.5 611Q319 623 319 640Q319 657 307.5 668.5Q296 680 278 680Q260 680 248.5 668.5Q237 657 237 640ZM529 0H390V69Q372 37 335 11.5Q298 -14 238 -14Q195 -14 158 3.5Q121 21 93.5 53.5Q66 86 50 132.5Q34 179 34 238Q34 296 50.5 342.5Q67 389 95.5 422Q124 455 162.5 472.5Q201 490 245 490Q294 490 333 469.5Q372 449 390 411V476H529ZM386 250Q386 283 377 307Q368 331 353.5 347Q339 363 320.5 371Q302 379 283 379Q260 379 241 368Q222 357 208.5 338.5Q195 320 188 294Q181 268 181 238Q181 177 207 137Q233 97 278 97Q298 97 317.5 105Q337 113 352 128.5Q367 144 376.5 168.5Q386 193 386 226Z" glyph-name="aring.school" horiz-adv-x="593" unicode="&#57687;" /><glyph d="M178 722Q178 769 209.5 799Q241 829 292 829Q343 829 374.5 799Q406 769 406 722Q406 677 374.5 645.5Q343 614 292 614Q241 614 209.5 645.5Q178 677 178 722ZM251 722Q251 705 262.5 693Q274 681 292 681Q310 681 321.5 693Q333 705 333 722Q333 739 321.5 750.5Q310 762 292 762Q274 762 262.5 750.5Q251 739 251 722ZM569 0H426L384 124H196L154 0H15L214 564H370ZM288 436Q288 431 285 420Q282 409 278.5 394Q275 379 270 361.5Q265 344 260 326Q249 285 234 235H347Q332 285 320 326Q315 344 310 361.5Q305 379 301 394Q297 409 294 420Q291 431 291 436Z" glyph-name="aring.smcp" horiz-adv-x="584" unicode="&#57894;" /><glyph d="M458 201 628 370 707 291 400 -16 93 291 172 370 342 201V700H458Z" glyph-name="arrowdown" horiz-adv-x="800" unicode="&#8595;" /><glyph d="M778 407V291H279L448 121L369 42L62 349L369 656L448 577L279 407Z" glyph-name="arrowleft" horiz-adv-x="850" unicode="&#8592;" /><glyph d="M571 407 402 577 481 656 788 349 481 42 402 121 571 291H72V407Z" glyph-name="arrowright" horiz-adv-x="850" unicode="&#8594;" /><glyph d="M458 0H342V499L172 330L93 409L400 716L707 409L628 330L458 499Z" glyph-name="arrowup" horiz-adv-x="800" unicode="&#8593;" /><glyph d="M524 356H384L280 569L173 356H40L220 700H344Z" glyph-name="asciicircum" horiz-adv-x="564" unicode="^" /><glyph d="M389 219Q356 219 332 227Q308 235 288.5 245Q269 255 252.5 263Q236 271 217 271Q197 271 183 262.5Q169 254 159 243Q148 231 140 216L54 293Q69 319 93 340Q113 357 144 372Q175 387 220 387Q254 387 278.5 378.5Q303 370 322 360Q341 350 358 341.5Q375 333 394 333Q414 333 428.5 341.5Q443 350 452 361Q463 373 470 389L557 314Q542 287 518 266Q498 248 466 233.5Q434 219 389 219Z" glyph-name="asciitilde" horiz-adv-x="611" unicode="~" /><glyph d="M251 700V584L359 624L387 536L273 502L346 409L271 353L206 450L141 353L66 409L139 502L25 536L53 624L161 584V700Z" glyph-name="asterisk" horiz-adv-x="412" unicode="*" /><glyph d="M607 474H709L656 211Q655 206 654.5 202.5Q654 199 654 194Q654 177 664 166Q674 155 699 155Q751 155 786 206.5Q821 258 821 349Q821 415 800 464.5Q779 514 741.5 547.5Q704 581 651 597.5Q598 614 535 614Q456 614 388.5 588Q321 562 271.5 514Q222 466 194 396.5Q166 327 166 240Q166 161 191 101Q216 41 259.5 0.5Q303 -40 362 -60.5Q421 -81 490 -81Q583 -81 650 -55.5Q717 -30 765 5L827 -87Q803 -105 769.5 -122.5Q736 -140 694 -153.5Q652 -167 601 -175.5Q550 -184 489 -184Q394 -184 312.5 -157.5Q231 -131 171 -78.5Q111 -26 76.5 52.5Q42 131 42 234Q42 346 81 435.5Q120 525 186.5 587.5Q253 650 342 683.5Q431 717 531 717Q613 717 688 694Q763 671 819 625.5Q875 580 908.5 512Q942 444 942 355Q942 291 923 236Q904 181 870 140Q836 99 789.5 75.5Q743 52 689 52Q634 52 606 73.5Q578 95 569 130Q544 88 507.5 70.5Q471 53 437 53Q402 53 373.5 65.5Q345 78 324.5 102Q304 126 292.5 160.5Q281 195 281 238Q281 290 297.5 335Q314 380 342 413Q370 446 407.5 464.5Q445 483 487 483Q522 483 551.5 468.5Q581 454 597 419ZM563 285Q568 310 564 328.5Q560 347 550 358.5Q540 370 526.5 375.5Q513 381 500 381Q479 381 460.5 369.5Q442 358 428.5 338Q415 318 407 291.5Q399 265 399 236Q399 201 413.5 178.5Q428 156 455 156Q490 156 517.5 178.5Q545 201 558 260Z" glyph-name="at" horiz-adv-x="980" unicode="@" /><glyph d="M607 556H709L656 293Q655 288 654.5 284.5Q654 281 654 276Q654 259 664 248Q674 237 699 237Q751 237 786 288.5Q821 340 821 431Q821 497 800 546.5Q779 596 741.5 629.5Q704 663 651 679.5Q598 696 535 696Q456 696 388.5 670Q321 644 271.5 596Q222 548 194 478.5Q166 409 166 322Q166 243 191 183Q216 123 259.5 82.5Q303 42 362 21.5Q421 1 490 1Q583 1 650 26.5Q717 52 765 87L827 -5Q803 -23 769.5 -40.5Q736 -58 694 -71.5Q652 -85 601 -93.5Q550 -102 489 -102Q394 -102 312.5 -75.5Q231 -49 171 3.5Q111 56 76.5 134.5Q42 213 42 316Q42 428 81 517.5Q120 607 186.5 669.5Q253 732 342 765.5Q431 799 531 799Q613 799 688 776Q763 753 819 707.5Q875 662 908.5 594Q942 526 942 437Q942 373 923 318Q904 263 870 222Q836 181 789.5 157.5Q743 134 689 134Q634 134 606 155.5Q578 177 569 212Q544 170 507.5 152.5Q471 135 437 135Q402 135 373.5 147.5Q345 160 324.5 184Q304 208 292.5 242.5Q281 277 281 320Q281 372 297.5 417Q314 462 342 495Q370 528 407.5 546.5Q445 565 487 565Q522 565 551.5 550.5Q581 536 597 501ZM563 367Q568 392 564 410.5Q560 429 550 440.5Q540 452 526.5 457.5Q513 463 500 463Q479 463 460.5 451.5Q442 440 428.5 420Q415 400 407 373.5Q399 347 399 318Q399 283 413.5 260.5Q428 238 455 238Q490 238 517.5 260.5Q545 283 558 342Z" glyph-name="at.cap" horiz-adv-x="980" unicode="&#58643;" /><glyph d="M192 690Q220 690 240.5 681Q261 672 277.5 661.5Q294 651 308.5 642.5Q323 634 339 634Q354 634 365 642Q376 650 383 660Q391 671 396 687L465 628Q453 603 435 585Q419 569 394.5 556Q370 543 335 543Q307 543 287.5 551.5Q268 560 252 570.5Q236 581 221.5 589.5Q207 598 190 598Q173 598 162 590Q151 582 144 572Q136 561 131 547L62 607Q74 630 92 648Q108 664 132.5 677Q157 690 192 690ZM346 0Q342 5 339.5 22.5Q337 40 337 60Q316 26 283 6Q250 -14 196 -14Q119 -14 75.5 22.5Q32 59 32 124Q32 172 57 204Q82 236 123.5 255.5Q165 275 219.5 283Q274 291 333 291V322Q333 349 316.5 366.5Q300 384 265 384Q227 384 209 366Q191 348 191 326L54 347Q58 381 76 408Q94 435 123 453Q152 471 189.5 480.5Q227 490 269 490Q312 490 349.5 480Q387 470 415 448Q443 426 458.5 392Q474 358 474 310V67Q474 46 477 29Q480 12 485 0ZM234 89Q253 89 270.5 94.5Q288 100 302 110Q316 120 324.5 134.5Q333 149 333 168V204Q297 204 267 201Q237 198 216 189.5Q195 181 183.5 167Q172 153 172 132Q172 110 190 99.5Q208 89 234 89Z" glyph-name="atilde" horiz-adv-x="530" unicode="&#227;" /><glyph d="M200 690Q228 690 248.5 681Q269 672 285.5 661.5Q302 651 316.5 642.5Q331 634 347 634Q362 634 373 642Q384 650 391 660Q399 671 404 687L473 628Q461 603 443 585Q427 569 402.5 556Q378 543 343 543Q315 543 295.5 551.5Q276 560 260 570.5Q244 581 229.5 589.5Q215 598 198 598Q181 598 170 590Q159 582 152 572Q144 561 139 547L70 607Q82 630 100 648Q116 664 140.5 677Q165 690 200 690ZM529 0H390V69Q372 37 335 11.5Q298 -14 238 -14Q195 -14 158 3.5Q121 21 93.5 53.5Q66 86 50 132.5Q34 179 34 238Q34 296 50.5 342.5Q67 389 95.5 422Q124 455 162.5 472.5Q201 490 245 490Q294 490 333 469.5Q372 449 390 411V476H529ZM386 250Q386 283 377 307Q368 331 353.5 347Q339 363 320.5 371Q302 379 283 379Q260 379 241 368Q222 357 208.5 338.5Q195 320 188 294Q181 268 181 238Q181 177 207 137Q233 97 278 97Q298 97 317.5 105Q337 113 352 128.5Q367 144 376.5 168.5Q386 193 386 226Z" glyph-name="atilde.school" horiz-adv-x="593" unicode="&#57686;" /><glyph d="M221 767Q249 767 269.5 758Q290 749 306.5 738.5Q323 728 337.5 719.5Q352 711 368 711Q383 711 394 719Q405 727 412 737Q420 748 425 764L494 705Q482 680 464 662Q448 646 423.5 633Q399 620 364 620Q336 620 316.5 628.5Q297 637 281 647.5Q265 658 250.5 666.5Q236 675 219 675Q202 675 191 667Q180 659 173 649Q165 638 160 624L91 684Q103 707 121 725Q137 741 161.5 754Q186 767 221 767ZM569 0H426L384 124H196L154 0H15L214 564H370ZM288 436Q288 431 285 420Q282 409 278.5 394Q275 379 270 361.5Q265 344 260 326Q249 285 234 235H347Q332 285 320 326Q315 344 310 361.5Q305 379 301 394Q297 409 294 420Q291 431 291 436Z" glyph-name="atilde.smcp" horiz-adv-x="584" unicode="&#57893;" /><glyph d="M357 490Q401 490 439.5 472.5Q478 455 506.5 422Q535 389 551.5 342.5Q568 296 568 238Q568 179 551.5 132.5Q535 86 506.5 53.5Q478 21 439.5 3.5Q401 -14 357 -14Q296 -14 259 11Q222 36 203 69V0H64V700H208V414Q228 446 266.5 468Q305 490 357 490ZM207 224Q207 190 217.5 166Q228 142 244 126.5Q260 111 279.5 104Q299 97 317 97Q365 97 393 137Q421 177 421 238Q421 298 393 338.5Q365 379 317 379Q298 379 278.5 372Q259 365 243 349.5Q227 334 217 309.5Q207 285 207 251Z" glyph-name="b" horiz-adv-x="602" unicode="b" /><glyph d="M72 564H336Q375 564 406.5 552.5Q438 541 459.5 520.5Q481 500 492.5 473Q504 446 504 415Q504 367 478.5 336.5Q453 306 419 295Q436 293 455.5 285.5Q475 278 491.5 264Q508 250 519 227Q530 204 530 171Q530 135 516.5 103.5Q503 72 478.5 49Q454 26 420.5 13Q387 0 347 0H72ZM209 449V342H285Q323 342 340.5 352.5Q358 363 358 395Q358 423 342.5 436Q327 449 291 449ZM209 114H299Q349 114 366.5 129Q384 144 384 173Q384 206 363.5 217.5Q343 229 298 229H209Z" glyph-name="b.smcp" horiz-adv-x="571" unicode="&#57858;" /><glyph d="M254 279Q215 279 191 294.5Q167 310 156 332V288H59V733H159V551Q172 572 197 586Q222 600 254 600Q282 600 306 589Q330 578 348 557Q366 536 376.5 506Q387 476 387 439Q387 402 376.5 372.5Q366 343 348 322Q330 301 306 290Q282 279 254 279ZM158 431Q158 410 164 395.5Q170 381 179.5 372Q189 363 201 359Q213 355 224 355Q253 355 269 379Q285 403 285 439Q285 475 269 499.5Q253 524 224 524Q213 524 201 520Q189 516 179.5 506.5Q170 497 164 482.5Q158 468 158 447Z" glyph-name="b.superior" horiz-adv-x="424" unicode="&#58210;" /><glyph d="M294 -115 8 754H124L409 -115Z" glyph-name="backslash" horiz-adv-x="417" unicode="\" /><glyph d="M264 -24 18 724H134L379 -24Z" glyph-name="backslash.cap" horiz-adv-x="417" unicode="&#58466;" /><glyph d="M62 476H538V0H62ZM164 92H436V384H164ZM301 169 253 121 184 190 232 238 184 286 253 355 301 307 348 354 417 285 369 238 417 191 348 122Z" glyph-name="ballotboxwithx" horiz-adv-x="600" unicode="&#9746;" /><glyph d="M78 797H199V-169H78Z" glyph-name="bar" horiz-adv-x="277" unicode="|" /><glyph d="M78 724H199V-24H78Z" glyph-name="bar.cap" horiz-adv-x="277" unicode="&#58467;" /><glyph d="M789 350Q789 275 760 208.5Q731 142 681.5 92.5Q632 43 566 14.5Q500 -14 425 -14Q350 -14 283.5 14.5Q217 43 167.5 92.5Q118 142 89.5 208.5Q61 275 61 350Q61 425 89.5 491Q118 557 167.5 606.5Q217 656 283.5 685Q350 714 425 714Q500 714 566 685Q632 656 681.5 606.5Q731 557 760 491Q789 425 789 350Z" glyph-name="blackcircle" horiz-adv-x="850" unicode="&#9679;" /><glyph d="M62 476H538V0H62Z" glyph-name="blacksmallsquare" horiz-adv-x="600" unicode="&#9642;" /><glyph d="M75 700H775V0H75Z" glyph-name="blacksquare" horiz-adv-x="850" unicode="&#9632;" /><glyph d="M254 483Q254 439 246.5 408.5Q239 378 225 358Q211 338 190.5 326.5Q170 315 143 310Q170 305 190.5 293.5Q211 282 225 261.5Q239 241 246.5 210.5Q254 180 254 137V80Q254 53 256.5 28Q259 3 268.5 -16Q278 -35 297 -47.5Q316 -60 349 -63V-159Q267 -157 221.5 -134.5Q176 -112 154 -75Q132 -38 127.5 12Q123 62 123 119V136Q123 163 120.5 185Q118 207 109 224Q100 241 82.5 252Q65 263 35 268V352Q65 356 82.5 367.5Q100 379 109 396Q118 413 120.5 435Q123 457 123 484V501Q123 558 127.5 608Q132 658 154 695Q176 732 221.5 754.5Q267 777 349 779V683Q316 680 297 667.5Q278 655 268.5 636Q259 617 256.5 592Q254 567 254 540Z" glyph-name="braceleft" horiz-adv-x="369" unicode="{" /><glyph d="M254 523Q254 479 246.5 448.5Q239 418 225 398Q211 378 190.5 366.5Q170 355 143 350Q170 345 190.5 333.5Q211 322 225 301.5Q239 281 246.5 250.5Q254 220 254 177V120Q254 93 256.5 68Q259 43 268.5 24Q278 5 297 -7.5Q316 -20 349 -23V-119Q267 -117 221.5 -94.5Q176 -72 154 -35Q132 2 127.5 52Q123 102 123 159V176Q123 203 120.5 225Q118 247 109 264Q100 281 82.5 292Q65 303 35 308V392Q65 396 82.5 407.5Q100 419 109 436Q118 453 120.5 475Q123 497 123 524V541Q123 598 127.5 648Q132 698 154 735Q176 772 221.5 794.5Q267 817 349 819V723Q316 720 297 707.5Q278 695 268.5 676Q259 657 256.5 632Q254 607 254 580Z" glyph-name="braceleft.cap" horiz-adv-x="369" unicode="&#58517;" /><glyph d="M115 540Q115 567 112.5 592Q110 617 100.5 636Q91 655 72 667.5Q53 680 20 683V779Q102 777 147.5 754.5Q193 732 215 695Q237 658 241.5 608Q246 558 246 501V484Q246 457 248.5 435Q251 413 260 396Q269 379 286.5 367.5Q304 356 334 352V268Q304 263 286.5 252Q269 241 260 224Q251 207 248.5 185Q246 163 246 136V119Q246 62 241.5 12Q237 -38 215 -75Q193 -112 147.5 -134.5Q102 -157 20 -159V-63Q53 -60 72 -47.5Q91 -35 100.5 -16Q110 3 112.5 28Q115 53 115 80V137Q115 180 122.5 210.5Q130 241 144 261.5Q158 282 178.5 293.5Q199 305 226 310Q199 315 178.5 326.5Q158 338 144 358Q130 378 122.5 408.5Q115 439 115 483Z" glyph-name="braceright" horiz-adv-x="369" unicode="}" /><glyph d="M115 580Q115 607 112.5 632Q110 657 100.5 676Q91 695 72 707.5Q53 720 20 723V819Q102 817 147.5 794.5Q193 772 215 735Q237 698 241.5 648Q246 598 246 541V524Q246 497 248.5 475Q251 453 260 436Q269 419 286.5 407.5Q304 396 334 392V308Q304 303 286.5 292Q269 281 260 264Q251 247 248.5 225Q246 203 246 176V159Q246 102 241.5 52Q237 2 215 -35Q193 -72 147.5 -94.5Q102 -117 20 -119V-23Q53 -20 72 -7.5Q91 5 100.5 24Q110 43 112.5 68Q115 93 115 120V177Q115 220 122.5 250.5Q130 281 144 301.5Q158 322 178.5 333.5Q199 345 226 350Q199 355 178.5 366.5Q158 378 144 398Q130 418 122.5 448.5Q115 479 115 523Z" glyph-name="braceright.cap" horiz-adv-x="369" unicode="&#58518;" /><glyph d="M70 762H313V662H199V-47H313V-147H70Z" glyph-name="bracketleft" horiz-adv-x="343" unicode="[" /><glyph d="M70 805H313V705H199V-4H313V-104H70Z" glyph-name="bracketleft.cap" horiz-adv-x="343" unicode="&#58515;" /><glyph d="M30 -147V-47H144V662H30V762H273V-147Z" glyph-name="bracketright" horiz-adv-x="343" unicode="]" /><glyph d="M30 -104V-4H144V705H30V805H273V-104Z" glyph-name="bracketright.cap" horiz-adv-x="343" unicode="&#58516;" /><glyph d="M229 704Q233 677 252 658Q271 639 300 639Q329 639 348 658Q367 677 371 704L473 676Q460 619 414 584Q368 549 300 549Q232 549 186 584Q140 619 127 676Z" glyph-name="breve" horiz-adv-x="600" unicode="&#728;" /><glyph d="M229 911Q233 884 252 865Q271 846 300 846Q329 846 348 865Q367 884 371 911L473 883Q460 826 414 791Q368 756 300 756Q232 756 186 791Q140 826 127 883Z" glyph-name="breve.cap" horiz-adv-x="600" unicode="&#58406;" /><glyph d="M78 797H199V412H78ZM78 216H199V-169H78Z" glyph-name="brokenbar" horiz-adv-x="277" unicode="&#166;" /><glyph d="M78 724H199V448H78ZM78 252H199V-24H78Z" glyph-name="brokenbar.cap" horiz-adv-x="277" unicode="&#58469;" /><glyph d="M50 326Q50 355 60 379Q70 403 88 420.5Q106 438 131 448Q156 458 186 458Q216 458 241 448Q266 438 284 420.5Q302 403 312 379Q322 355 322 326Q322 298 312 274Q302 250 284 233Q266 216 241 206Q216 196 186 196Q156 196 131 206Q106 216 88 233Q70 250 60 274Q50 298 50 326Z" glyph-name="bullet" horiz-adv-x="372" unicode="&#8226;" /><glyph d="M50 355Q50 384 60 408Q70 432 88 449.5Q106 467 131 477Q156 487 186 487Q216 487 241 477Q266 467 284 449.5Q302 432 312 408Q322 384 322 355Q322 327 312 303Q302 279 284 262Q266 245 241 235Q216 225 186 225Q156 225 131 235Q106 245 88 262Q70 279 60 303Q50 327 50 355Z" glyph-name="bullet.cap" horiz-adv-x="372" unicode="&#58470;" /><glyph d="M34 238Q34 296 52 343Q70 390 102.5 422.5Q135 455 180.5 472.5Q226 490 282 490Q326 490 359.5 479.5Q393 469 417.5 450.5Q442 432 459.5 407Q477 382 489 353L359 305Q351 342 329.5 360.5Q308 379 276 379Q250 379 231.5 366.5Q213 354 202 334Q191 314 186 289Q181 264 181 238Q181 214 185.5 189Q190 164 201 143.5Q212 123 230.5 110.5Q249 98 277 98Q310 98 328.5 116.5Q347 135 358 165L491 115Q476 89 457.5 65.5Q439 42 413.5 24.5Q388 7 355 -3.5Q322 -14 279 -14Q225 -14 179.5 3Q134 20 102 52.5Q70 85 52 131.5Q34 178 34 238Z" glyph-name="c" horiz-adv-x="515" unicode="c" /><glyph d="M45 281Q45 352 65 407.5Q85 463 122 500.5Q159 538 211.5 557.5Q264 577 329 577Q423 577 488 537.5Q553 498 577 412L437 364Q423 411 398 434Q373 457 327 457Q292 457 267 443.5Q242 430 225.5 406.5Q209 383 201.5 350.5Q194 318 194 281Q194 244 202 212Q210 180 226.5 156.5Q243 133 268.5 119.5Q294 106 329 106Q370 106 395.5 126Q421 146 435 192L573 144Q545 71 483.5 28.5Q422 -14 325 -14Q262 -14 210.5 5.5Q159 25 122 62.5Q85 100 65 155Q45 210 45 281Z" glyph-name="c.smcp" horiz-adv-x="605" unicode="&#57859;" /><glyph d="M37 439Q37 516 81.5 558Q126 600 198 600Q227 600 249 593.5Q271 587 286.5 575Q302 563 313.5 546.5Q325 530 333 511L243 478Q238 501 225 512.5Q212 524 194 524Q178 524 167.5 517Q157 510 150.5 498Q144 486 141.5 470.5Q139 455 139 439Q139 424 141.5 409Q144 394 150.5 382Q157 370 167.5 362.5Q178 355 194 355Q230 355 242 396L333 362Q325 346 314 331Q303 316 287 304.5Q271 293 249 286Q227 279 197 279Q126 279 81.5 320.5Q37 362 37 439Z" glyph-name="c.superior" horiz-adv-x="365" unicode="&#58211;" /><glyph d="M403 643 175 532 131 609 344 747ZM34 238Q34 296 52 343Q70 390 102.5 422.5Q135 455 180.5 472.5Q226 490 282 490Q326 490 359.5 479.5Q393 469 417.5 450.5Q442 432 459.5 407Q477 382 489 353L359 305Q351 342 329.5 360.5Q308 379 276 379Q250 379 231.5 366.5Q213 354 202 334Q191 314 186 289Q181 264 181 238Q181 214 185.5 189Q190 164 201 143.5Q212 123 230.5 110.5Q249 98 277 98Q310 98 328.5 116.5Q347 135 358 165L491 115Q476 89 457.5 65.5Q439 42 413.5 24.5Q388 7 355 -3.5Q322 -14 279 -14Q225 -14 179.5 3Q134 20 102 52.5Q70 85 52 131.5Q34 178 34 238Z" glyph-name="cacute" horiz-adv-x="515" unicode="&#263;" /><glyph d="M462 721 234 610 190 687 403 825ZM47 281Q47 352 67 407.5Q87 463 124 500.5Q161 538 213.5 557.5Q266 577 331 577Q425 577 490 537.5Q555 498 579 412L439 364Q425 411 400 434Q375 457 329 457Q294 457 269 443.5Q244 430 227.5 406.5Q211 383 203.5 350.5Q196 318 196 281Q196 244 204 212Q212 180 228.5 156.5Q245 133 270.5 119.5Q296 106 331 106Q372 106 397.5 126Q423 146 437 192L575 144Q547 71 485.5 28.5Q424 -14 327 -14Q264 -14 212.5 5.5Q161 25 124 62.5Q87 100 67 155Q47 210 47 281Z" glyph-name="cacute.smcp" horiz-adv-x="607" unicode="&#57908;" /><glyph d="M346 534H253L134 661L203 724L301 620L397 724L464 661Z" glyph-name="caron" horiz-adv-x="600" unicode="&#711;" /><glyph d="M129 865 195 930 299 826 404 930 470 865 355 750H243Z" glyph-name="caron.cap" horiz-adv-x="600" unicode="&#58413;" /><glyph d="M375 719 308 523 225 545 268 747Z" glyph-name="caronSlovak" horiz-adv-x="600" unicode="&#58387;" /><glyph d="M320 534H227L108 661L177 724L275 620L371 724L438 661ZM34 238Q34 296 52 343Q70 390 102.5 422.5Q135 455 180.5 472.5Q226 490 282 490Q326 490 359.5 479.5Q393 469 417.5 450.5Q442 432 459.5 407Q477 382 489 353L359 305Q351 342 329.5 360.5Q308 379 276 379Q250 379 231.5 366.5Q213 354 202 334Q191 314 186 289Q181 264 181 238Q181 214 185.5 189Q190 164 201 143.5Q212 123 230.5 110.5Q249 98 277 98Q310 98 328.5 116.5Q347 135 358 165L491 115Q476 89 457.5 65.5Q439 42 413.5 24.5Q388 7 355 -3.5Q322 -14 279 -14Q225 -14 179.5 3Q134 20 102 52.5Q70 85 52 131.5Q34 178 34 238Z" glyph-name="ccaron" horiz-adv-x="515" unicode="&#269;" /><glyph d="M375 612H282L163 739L232 802L330 698L426 802L493 739ZM47 281Q47 352 67 407.5Q87 463 124 500.5Q161 538 213.5 557.5Q266 577 331 577Q425 577 490 537.5Q555 498 579 412L439 364Q425 411 400 434Q375 457 329 457Q294 457 269 443.5Q244 430 227.5 406.5Q211 383 203.5 350.5Q196 318 196 281Q196 244 204 212Q212 180 228.5 156.5Q245 133 270.5 119.5Q296 106 331 106Q372 106 397.5 126Q423 146 437 192L575 144Q547 71 485.5 28.5Q424 -14 327 -14Q264 -14 212.5 5.5Q161 25 124 62.5Q87 100 67 155Q47 210 47 281Z" glyph-name="ccaron.smcp" horiz-adv-x="607" unicode="&#57910;" /><glyph d="M202 -151Q210 -160 224.5 -166.5Q239 -173 256 -173Q276 -173 286.5 -162.5Q297 -152 297 -136Q297 -119 286 -111Q275 -103 258 -103Q244 -103 234 -107.5Q224 -112 219 -118L185 -82L220 -8Q135 9 84.5 72Q34 135 34 238Q34 296 52 343Q70 390 102.5 422.5Q135 455 180.5 472.5Q226 490 282 490Q326 490 359.5 479.5Q393 469 417.5 450.5Q442 432 459.5 407Q477 382 489 353L359 305Q351 342 329.5 360.5Q308 379 276 379Q250 379 231.5 366.5Q213 354 202 334Q191 314 186 289Q181 264 181 238Q181 214 185.5 189Q190 164 201 143.5Q212 123 230.5 110.5Q249 98 277 98Q310 98 328.5 116.5Q347 135 358 165L491 115Q476 89 457.5 65.5Q439 42 414 24.5Q389 7 356.5 -3.5Q324 -14 282 -14L266 -49Q276 -45 293 -45Q328 -45 353.5 -67Q379 -89 379 -133Q379 -159 369 -178.5Q359 -198 342.5 -211Q326 -224 304 -231Q282 -238 257 -238Q219 -238 196.5 -226Q174 -214 164 -204Z" glyph-name="ccedilla" horiz-adv-x="515" unicode="&#231;" /><glyph d="M264 -151Q272 -160 286.5 -166.5Q301 -173 318 -173Q338 -173 348.5 -162.5Q359 -152 359 -136Q359 -119 348 -111Q337 -103 320 -103Q306 -103 296 -107.5Q286 -112 281 -118L247 -82L280 -11Q173 3 110 77Q47 151 47 281Q47 352 67 407.5Q87 463 124 500.5Q161 538 213.5 557.5Q266 577 331 577Q425 577 490 537.5Q555 498 579 412L439 364Q425 411 400 434Q375 457 329 457Q294 457 269 443.5Q244 430 227.5 406.5Q211 383 203.5 350.5Q196 318 196 281Q196 244 204 212Q212 180 228.5 156.5Q245 133 270.5 119.5Q296 106 331 106Q372 106 397.5 126Q423 146 437 192L575 144Q548 74 491 32.5Q434 -9 344 -13L328 -49Q338 -45 355 -45Q390 -45 415.5 -67Q441 -89 441 -133Q441 -159 431 -178.5Q421 -198 404.5 -211Q388 -224 366 -231Q344 -238 319 -238Q281 -238 258.5 -226Q236 -214 226 -204Z" glyph-name="ccedilla.smcp" horiz-adv-x="607" unicode="&#57912;" /><glyph d="M225 718H318L437 591L368 528L270 632L174 528L107 591ZM34 238Q34 296 52 343Q70 390 102.5 422.5Q135 455 180.5 472.5Q226 490 282 490Q326 490 359.5 479.5Q393 469 417.5 450.5Q442 432 459.5 407Q477 382 489 353L359 305Q351 342 329.5 360.5Q308 379 276 379Q250 379 231.5 366.5Q213 354 202 334Q191 314 186 289Q181 264 181 238Q181 214 185.5 189Q190 164 201 143.5Q212 123 230.5 110.5Q249 98 277 98Q310 98 328.5 116.5Q347 135 358 165L491 115Q476 89 457.5 65.5Q439 42 413.5 24.5Q388 7 355 -3.5Q322 -14 279 -14Q225 -14 179.5 3Q134 20 102 52.5Q70 85 52 131.5Q34 178 34 238Z" glyph-name="ccircumflex" horiz-adv-x="515" unicode="&#265;" /><glyph d="M279 798H372L491 671L422 608L324 712L228 608L161 671ZM47 281Q47 352 67 407.5Q87 463 124 500.5Q161 538 213.5 557.5Q266 577 331 577Q425 577 490 537.5Q555 498 579 412L439 364Q425 411 400 434Q375 457 329 457Q294 457 269 443.5Q244 430 227.5 406.5Q211 383 203.5 350.5Q196 318 196 281Q196 244 204 212Q212 180 228.5 156.5Q245 133 270.5 119.5Q296 106 331 106Q372 106 397.5 126Q423 146 437 192L575 144Q547 71 485.5 28.5Q424 -14 327 -14Q264 -14 212.5 5.5Q161 25 124 62.5Q87 100 67 155Q47 210 47 281Z" glyph-name="ccircumflex.smcp" horiz-adv-x="607" unicode="&#57909;" /><glyph d="M188 622Q188 660 212 683.5Q236 707 274 707Q312 707 336 683.5Q360 660 360 622Q360 587 337.5 563Q315 539 274 539Q233 539 210.5 563Q188 587 188 622ZM34 238Q34 296 52 343Q70 390 102.5 422.5Q135 455 180.5 472.5Q226 490 282 490Q326 490 359.5 479.5Q393 469 417.5 450.5Q442 432 459.5 407Q477 382 489 353L359 305Q351 342 329.5 360.5Q308 379 276 379Q250 379 231.5 366.5Q213 354 202 334Q191 314 186 289Q181 264 181 238Q181 214 185.5 189Q190 164 201 143.5Q212 123 230.5 110.5Q249 98 277 98Q310 98 328.5 116.5Q347 135 358 165L491 115Q476 89 457.5 65.5Q439 42 413.5 24.5Q388 7 355 -3.5Q322 -14 279 -14Q225 -14 179.5 3Q134 20 102 52.5Q70 85 52 131.5Q34 178 34 238Z" glyph-name="cdotaccent" horiz-adv-x="515" unicode="&#267;" /><glyph d="M245 702Q245 740 269 763.5Q293 787 331 787Q369 787 393 763.5Q417 740 417 702Q417 667 394.5 643Q372 619 331 619Q290 619 267.5 643Q245 667 245 702ZM47 281Q47 352 67 407.5Q87 463 124 500.5Q161 538 213.5 557.5Q266 577 331 577Q425 577 490 537.5Q555 498 579 412L439 364Q425 411 400 434Q375 457 329 457Q294 457 269 443.5Q244 430 227.5 406.5Q211 383 203.5 350.5Q196 318 196 281Q196 244 204 212Q212 180 228.5 156.5Q245 133 270.5 119.5Q296 106 331 106Q372 106 397.5 126Q423 146 437 192L575 144Q547 71 485.5 28.5Q424 -14 327 -14Q264 -14 212.5 5.5Q161 25 124 62.5Q87 100 67 155Q47 210 47 281Z" glyph-name="cdotaccent.smcp" horiz-adv-x="607" unicode="&#57911;" /><glyph d="M231 -151Q239 -160 253.5 -166.5Q268 -173 285 -173Q305 -173 315.5 -162.5Q326 -152 326 -136Q326 -119 315 -111Q304 -103 287 -103Q273 -103 263 -107.5Q253 -112 248 -118L214 -82L253 0H318L295 -49Q305 -45 322 -45Q357 -45 382.5 -67Q408 -89 408 -133Q408 -159 398 -178.5Q388 -198 371.5 -211Q355 -224 333 -231Q311 -238 286 -238Q248 -238 225.5 -226Q203 -214 193 -204Z" glyph-name="cedilla" horiz-adv-x="600" unicode="&#184;" /><glyph d="M249 93Q202 98 163.5 117.5Q125 137 98 169Q71 201 56 245Q41 289 41 343Q41 396 56 439Q71 482 98 514Q125 546 163.5 566Q202 586 249 592V688H323V593Q394 584 438.5 545.5Q483 507 500 458L390 410Q373 468 323 483V203Q346 211 363 228.5Q380 246 391 270L502 220Q475 169 434 135Q393 101 323 93V0H249ZM174 343Q174 322 177.5 299.5Q181 277 189.5 257.5Q198 238 212.5 223.5Q227 209 249 202V483Q228 476 214 462Q200 448 191 429Q182 410 178 387.5Q174 365 174 343Z" glyph-name="cent" horiz-adv-x="533" unicode="&#162;" /><glyph d="M253 718H346L465 591L396 528L298 632L202 528L135 591Z" glyph-name="circumflex" horiz-adv-x="600" unicode="&#710;" /><glyph d="M244 925H356L471 810L405 745L300 849L196 745L130 810Z" glyph-name="circumflex.cap" horiz-adv-x="600" unicode="&#58403;" /><glyph d="M54 398Q54 436 79 461Q104 486 145 486Q186 486 211 461Q236 436 236 398Q236 360 211 335Q186 310 145 310Q104 310 79 335Q54 360 54 398ZM54 78Q54 116 79 141Q104 166 145 166Q186 166 211 141Q236 116 236 78Q236 40 211 15Q186 -10 145 -10Q104 -10 79 15Q54 40 54 78Z" glyph-name="colon" horiz-adv-x="290" unicode=":" /><glyph d="M245 41Q245 19 239 -9.5Q233 -38 216 -64Q199 -90 169.5 -110.5Q140 -131 92 -137L69 -75Q81 -75 95.5 -70.5Q110 -66 123 -57Q136 -48 145 -36Q154 -24 154 -9V-3Q145 -6 135 -6Q103 -6 78.5 18.5Q54 43 54 80Q54 95 59 110.5Q64 126 75 138Q86 150 103 158Q120 166 143 166Q170 166 189.5 155.5Q209 145 221 127.5Q233 110 239 87.5Q245 65 245 41Z" glyph-name="comma" horiz-adv-x="299" unicode="," /><glyph d="M388 -158Q388 -176 383 -198.5Q378 -221 363.5 -242Q349 -263 323.5 -279Q298 -295 258 -300L239 -247Q249 -247 261.5 -243.5Q274 -240 285 -234Q296 -228 303.5 -219.5Q311 -211 311 -200V-196Q306 -198 302.5 -198Q299 -198 295 -198Q268 -198 247 -177.5Q226 -157 226 -126Q226 -113 230.5 -100Q235 -87 244 -76.5Q253 -66 267 -59.5Q281 -53 301 -53Q324 -53 340.5 -62Q357 -71 367.5 -86Q378 -101 383 -120Q388 -139 388 -158Z" glyph-name="commaaccent" horiz-adv-x="600" unicode="&#58388;" /><glyph d="M407 -14Q330 -14 263.5 13Q197 40 147 88.5Q97 137 68.5 204Q40 271 40 351Q40 430 68.5 496.5Q97 563 147 611.5Q197 660 263.5 687Q330 714 407 714Q483 714 550 687Q617 660 667 611.5Q717 563 745.5 496.5Q774 430 774 351Q774 271 745.5 204Q717 137 667 88.5Q617 40 550 13Q483 -14 407 -14ZM407 70Q464 70 513.5 91Q563 112 600.5 149.5Q638 187 659.5 238.5Q681 290 681 351Q681 412 659.5 463Q638 514 600.5 551.5Q563 589 513.5 610Q464 631 407 631Q351 631 301 610Q251 589 214 551.5Q177 514 155.5 463Q134 412 134 351Q134 290 155.5 238.5Q177 187 214 149.5Q251 112 301 91Q351 70 407 70ZM229 352Q229 444 277.5 495Q326 546 411 546Q471 546 512 519Q553 492 570 435L482 406Q472 436 455 453Q438 470 409 470Q365 470 343.5 437Q322 404 322 353Q322 302 343.5 268.5Q365 235 409 235Q462 235 482 297L568 266Q550 215 510.5 187Q471 159 409 159Q325 159 277 209.5Q229 260 229 352Z" glyph-name="copyright" horiz-adv-x="814" unicode="&#169;" /><glyph d="M315 595Q384 595 443 559L512 633L596 551L522 483Q540 455 551 421Q562 387 562 351Q562 314 551 280.5Q540 247 522 218L596 151L512 69L443 142Q414 125 382 116Q350 107 315 107Q280 107 247.5 116Q215 125 187 142L118 69L34 151L108 218Q89 247 78.5 280.5Q68 314 68 351Q68 388 78.5 421Q89 454 108 483L34 551L118 633L187 559Q215 576 247.5 585.5Q280 595 315 595ZM315 220Q341 220 364.5 230.5Q388 241 405.5 258.5Q423 276 433.5 300Q444 324 444 351Q444 378 433.5 402Q423 426 405.5 443.5Q388 461 364.5 471.5Q341 482 315 482Q289 482 265.5 471.5Q242 461 224.5 443.5Q207 426 196.5 402Q186 378 186 351Q186 324 196.5 300Q207 276 224.5 258.5Q242 241 265.5 230.5Q289 220 315 220Z" glyph-name="currency" horiz-adv-x="630" unicode="&#164;" /><glyph d="M250 490Q301 490 337.5 469Q374 448 394 416V700H538V0H399V69Q380 37 342.5 11.5Q305 -14 243 -14Q199 -14 161 3.5Q123 21 94.5 53.5Q66 86 50 132.5Q34 179 34 238Q34 296 50.5 342.5Q67 389 96.5 422Q126 455 165.5 472.5Q205 490 250 490ZM395 252Q395 285 385.5 308.5Q376 332 361 348Q346 364 327 371.5Q308 379 288 379Q263 379 243.5 368Q224 357 210 338.5Q196 320 188.5 294Q181 268 181 238Q181 177 208 137Q235 97 283 97Q304 97 324 104.5Q344 112 359.5 127.5Q375 143 385 166.5Q395 190 395 223Z" glyph-name="d" horiz-adv-x="602" unicode="d" /><glyph d="M72 564H291Q426 564 502 491Q578 418 578 282Q578 145 502 72.5Q426 0 291 0H72ZM429 282Q429 356 396 400.5Q363 445 291 445H214V118H291Q362 118 395.5 163Q429 208 429 282Z" glyph-name="d.smcp" horiz-adv-x="625" unicode="&#57860;" /><glyph d="M169 279Q142 279 118 290Q94 301 76 322Q58 343 47.5 372.5Q37 402 37 439Q37 476 47.5 506Q58 536 77 557Q96 578 120.5 589Q145 600 174 600Q206 600 229.5 587Q253 574 265 553V733H365V288H269V332Q257 311 232.5 295Q208 279 169 279ZM266 447Q266 489 245 506.5Q224 524 203 524Q173 524 156 499.5Q139 475 139 439Q139 403 155 379Q171 355 199 355Q210 355 222 359Q234 363 243.5 372Q253 381 259.5 395.5Q266 410 266 431Z" glyph-name="d.superior" horiz-adv-x="424" unicode="&#58212;" /><glyph d="M25 481H184V700H321V481H480V361H321V-126H184V361H25Z" glyph-name="dagger" horiz-adv-x="505" unicode="&#8224;" /><glyph d="M25 210H184V376H25V496H184V700H321V496H480V376H321V210H480V90H321V-126H184V90H25Z" glyph-name="daggerdbl" horiz-adv-x="505" unicode="&#8225;" /><glyph d="M749 727 682 531 599 553 642 755ZM250 490Q301 490 337.5 469Q374 448 394 416V700H538V0H399V69Q380 37 342.5 11.5Q305 -14 243 -14Q199 -14 161 3.5Q123 21 94.5 53.5Q66 86 50 132.5Q34 179 34 238Q34 296 50.5 342.5Q67 389 96.5 422Q126 455 165.5 472.5Q205 490 250 490ZM395 252Q395 285 385.5 308.5Q376 332 361 348Q346 364 327 371.5Q308 379 288 379Q263 379 243.5 368Q224 357 210 338.5Q196 320 188.5 294Q181 268 181 238Q181 177 208 137Q235 97 283 97Q304 97 324 104.5Q344 112 359.5 127.5Q375 143 385 166.5Q395 190 395 223Z" glyph-name="dcaron" horiz-adv-x="602" unicode="&#271;" /><glyph d="M339 612H246L127 739L196 802L294 698L390 802L457 739ZM72 564H291Q426 564 502 491Q578 418 578 282Q578 145 502 72.5Q426 0 291 0H72ZM429 282Q429 356 396 400.5Q363 445 291 445H214V118H291Q362 118 395.5 163Q429 208 429 282Z" glyph-name="dcaron.smcp" horiz-adv-x="625" unicode="&#57913;" /><glyph d="M246 645H394V700H538V645H597V543H538V0H399V69Q380 37 342.5 11.5Q305 -14 243 -14Q199 -14 161 3.5Q123 21 94.5 53.5Q66 86 50 132.5Q34 179 34 238Q34 296 50.5 342.5Q67 389 96.5 422Q126 455 165.5 472.5Q205 490 250 490Q301 490 337.5 469Q374 448 394 416V543H246ZM395 252Q395 285 385.5 308.5Q376 332 361 348Q346 364 327 371.5Q308 379 288 379Q263 379 243.5 368Q224 357 210 338.5Q196 320 188.5 294Q181 268 181 238Q181 177 208 137Q235 97 283 97Q304 97 324 104.5Q344 112 359.5 127.5Q375 143 385 166.5Q395 190 395 223Z" glyph-name="dcroat" horiz-adv-x="602" unicode="&#273;" /><glyph d="M85 240H29V340H85V564H304Q439 564 515 491Q591 418 591 282Q591 145 515 72.5Q439 0 304 0H85ZM227 240V118H304Q375 118 408.5 163Q442 208 442 282Q442 356 409 400.5Q376 445 304 445H227V340H325V240Z" glyph-name="dcroat.smcp" horiz-adv-x="638" unicode="&#57916;" /><glyph d="M392 548Q392 512 379 482Q366 452 343 429.5Q320 407 288.5 394.5Q257 382 220 382Q183 382 151.5 394.5Q120 407 97 429.5Q74 452 61 482Q48 512 48 548Q48 584 61 614Q74 644 97 666.5Q120 689 151.5 701.5Q183 714 220 714Q257 714 288.5 701.5Q320 689 343 666.5Q366 644 379 614Q392 584 392 548ZM295 548Q295 581 274.5 604Q254 627 220 627Q186 627 165.5 604Q145 581 145 548Q145 515 165.5 492Q186 469 220 469Q254 469 274.5 492Q295 515 295 548Z" glyph-name="degree" horiz-adv-x="440" unicode="&#176;" /><glyph d="M331 613Q331 645 352.5 666Q374 687 408 687Q442 687 463.5 666Q485 645 485 613Q485 581 463.5 560Q442 539 408 539Q374 539 352.5 560Q331 581 331 613ZM115 613Q115 645 136.5 666Q158 687 192 687Q226 687 247.5 666Q269 645 269 613Q269 581 247.5 560Q226 539 192 539Q158 539 136.5 560Q115 581 115 613Z" glyph-name="dieresis" horiz-adv-x="600" unicode="&#168;" /><glyph d="M331 840Q331 872 352.5 893Q374 914 408 914Q442 914 463.5 893Q485 872 485 840Q485 808 463.5 787Q442 766 408 766Q374 766 352.5 787Q331 808 331 840ZM115 840Q115 872 136.5 893Q158 914 192 914Q226 914 247.5 893Q269 872 269 840Q269 808 247.5 787Q226 766 192 766Q158 766 136.5 787Q115 808 115 840Z" glyph-name="dieresis.cap" horiz-adv-x="600" unicode="&#58409;" /><glyph d="M211 529Q211 567 235.5 591Q260 615 300 615Q340 615 364.5 591Q389 567 389 529Q389 491 364.5 467Q340 443 300 443Q260 443 235.5 467Q211 491 211 529ZM50 383H550V269H50ZM211 121Q211 159 235.5 183Q260 207 300 207Q340 207 364.5 183Q389 159 389 121Q389 83 364.5 59Q340 35 300 35Q260 35 235.5 59Q211 83 211 121Z" glyph-name="divide" horiz-adv-x="600" unicode="&#247;" /><glyph d="M236 564Q236 602 260.5 626Q285 650 325 650Q365 650 389.5 626Q414 602 414 564Q414 526 389.5 502Q365 478 325 478Q285 478 260.5 502Q236 526 236 564ZM50 417H600V303H50ZM236 156Q236 194 260.5 218Q285 242 325 242Q365 242 389.5 218Q414 194 414 156Q414 118 389.5 94Q365 70 325 70Q285 70 260.5 94Q236 118 236 156Z" glyph-name="divide.cap" horiz-adv-x="650" unicode="&#58772;" /><glyph d="M356 697Q451 688 507.5 643Q564 598 579 524L452 493Q448 522 426 550Q404 578 356 588V405Q411 394 453 377.5Q495 361 524 336.5Q553 312 568 278.5Q583 245 583 199Q583 114 525.5 57Q468 0 356 -10V-105H279V-11Q167 -3 109 50Q51 103 46 181L170 203Q171 192 175.5 175.5Q180 159 192 143Q204 127 224.5 114Q245 101 279 96V294Q219 305 176.5 323Q134 341 107.5 366.5Q81 392 69 425.5Q57 459 57 501Q57 582 112 636Q167 690 279 698V798H356ZM190 507Q190 475 209 453.5Q228 432 279 419V590Q228 583 209 559.5Q190 536 190 507ZM449 194Q449 229 428 248.5Q407 268 356 280V97Q404 105 426.5 131.5Q449 158 449 194Z" glyph-name="dollar" horiz-adv-x="626" unicode="$" /><glyph d="M214 622Q214 660 238 683.5Q262 707 300 707Q338 707 362 683.5Q386 660 386 622Q386 587 363.5 563Q341 539 300 539Q259 539 236.5 563Q214 587 214 622Z" glyph-name="dotaccent" horiz-adv-x="600" unicode="&#729;" /><glyph d="M213 846Q213 883 237 906.5Q261 930 300 930Q339 930 363 906.5Q387 883 387 846Q387 809 363 785.5Q339 762 300 762Q261 762 237 785.5Q213 809 213 846Z" glyph-name="dotaccent.cap" horiz-adv-x="600" unicode="&#58408;" /><glyph d="M64 476H208V0H64Z" glyph-name="dotlessi" horiz-adv-x="272" unicode="&#305;" /><glyph d="M213 -34Q213 -86 195.5 -121Q178 -156 150.5 -177Q123 -198 90 -207Q57 -216 27 -216Q-8 -216 -41.5 -206Q-75 -196 -100 -181L-43 -71Q-32 -80 -16.5 -88Q-1 -96 18 -96Q39 -96 54 -80.5Q69 -65 69 -25V476H213Z" glyph-name="dotlessj" horiz-adv-x="277" unicode="&#567;" /><glyph d="M280 797H401V-169H280ZM78 797H199V-169H78Z" glyph-name="doublebar" horiz-adv-x="479" unicode="&#8214;" /><glyph d="M280 724H401V-24H280ZM78 724H199V-24H78Z" glyph-name="doublebar.cap" horiz-adv-x="479" unicode="&#58468;" /><glyph d="M494 99Q465 46 411.5 16Q358 -14 281 -14Q225 -14 179.5 3.5Q134 21 102 53.5Q70 86 52 133Q34 180 34 239Q34 297 52 344Q70 391 102.5 423Q135 455 179 472.5Q223 490 276 490Q336 490 380.5 469.5Q425 449 454 414.5Q483 380 497.5 334Q512 288 512 236V201H180Q181 180 186 160.5Q191 141 202.5 126Q214 111 233 101.5Q252 92 279 92Q317 92 338 109.5Q359 127 370 149ZM276 388Q231 388 207.5 360.5Q184 333 181 288H368Q366 338 340.5 363Q315 388 276 388Z" glyph-name="e" horiz-adv-x="539" unicode="e" /><glyph d="M72 0V564H478V445H213V348H459V231H213V118H482V0Z" glyph-name="e.smcp" horiz-adv-x="522" unicode="&#57861;" /><glyph d="M336 350Q317 316 282 297.5Q247 279 197 279Q125 279 81 321Q37 363 37 440Q37 478 49 507.5Q61 537 82 557.5Q103 578 131.5 589Q160 600 194 600Q233 600 262 587Q291 574 309.5 551.5Q328 529 337.5 499.5Q347 470 347 436V413H138Q139 390 151 371Q163 352 196 352Q218 352 231 362.5Q244 373 250 384ZM194 530Q168 530 154.5 514Q141 498 139 471H248Q247 501 232 515.5Q217 530 194 530Z" glyph-name="e.superior" horiz-adv-x="379" unicode="&#58213;" /><glyph d="M408 643 180 532 136 609 349 747ZM494 99Q465 46 411.5 16Q358 -14 281 -14Q225 -14 179.5 3.5Q134 21 102 53.5Q70 86 52 133Q34 180 34 239Q34 297 52 344Q70 391 102.5 423Q135 455 179 472.5Q223 490 276 490Q336 490 380.5 469.5Q425 449 454 414.5Q483 380 497.5 334Q512 288 512 236V201H180Q181 180 186 160.5Q191 141 202.5 126Q214 111 233 101.5Q252 92 279 92Q317 92 338 109.5Q359 127 370 149ZM276 388Q231 388 207.5 360.5Q184 333 181 288H368Q366 338 340.5 363Q315 388 276 388Z" glyph-name="eacute" horiz-adv-x="539" unicode="&#233;" /><glyph d="M428 721 200 610 156 687 369 825ZM72 0V564H478V445H213V348H459V231H213V118H482V0Z" glyph-name="eacute.smcp" horiz-adv-x="522" unicode="&#57917;" /><glyph d="M203 704Q207 677 226 658Q245 639 274 639Q303 639 322 658Q341 677 345 704L447 676Q434 619 388 584Q342 549 274 549Q206 549 160 584Q114 619 101 676ZM494 99Q465 46 411.5 16Q358 -14 281 -14Q225 -14 179.5 3.5Q134 21 102 53.5Q70 86 52 133Q34 180 34 239Q34 297 52 344Q70 391 102.5 423Q135 455 179 472.5Q223 490 276 490Q336 490 380.5 469.5Q425 449 454 414.5Q483 380 497.5 334Q512 288 512 236V201H180Q181 180 186 160.5Q191 141 202.5 126Q214 111 233 101.5Q252 92 279 92Q317 92 338 109.5Q359 127 370 149ZM276 388Q231 388 207.5 360.5Q184 333 181 288H368Q366 338 340.5 363Q315 388 276 388Z" glyph-name="ebreve" horiz-adv-x="539" unicode="&#277;" /><glyph d="M203 771Q207 744 226 725Q245 706 274 706Q303 706 322 725Q341 744 345 771L447 743Q434 686 388 651Q342 616 274 616Q206 616 160 651Q114 686 101 743ZM72 0V564H478V445H213V348H459V231H213V118H482V0Z" glyph-name="ebreve.smcp" horiz-adv-x="522" unicode="&#57923;" /><glyph d="M320 534H227L108 661L177 724L275 620L371 724L438 661ZM494 99Q465 46 411.5 16Q358 -14 281 -14Q225 -14 179.5 3.5Q134 21 102 53.5Q70 86 52 133Q34 180 34 239Q34 297 52 344Q70 391 102.5 423Q135 455 179 472.5Q223 490 276 490Q336 490 380.5 469.5Q425 449 454 414.5Q483 380 497.5 334Q512 288 512 236V201H180Q181 180 186 160.5Q191 141 202.5 126Q214 111 233 101.5Q252 92 279 92Q317 92 338 109.5Q359 127 370 149ZM276 388Q231 388 207.5 360.5Q184 333 181 288H368Q366 338 340.5 363Q315 388 276 388Z" glyph-name="ecaron" horiz-adv-x="539" unicode="&#283;" /><glyph d="M322 612H229L110 739L179 802L277 698L373 802L440 739ZM72 0V564H478V445H213V348H459V231H213V118H482V0Z" glyph-name="ecaron.smcp" horiz-adv-x="522" unicode="&#57921;" /><glyph d="M226 718H319L438 591L369 528L271 632L175 528L108 591ZM494 99Q465 46 411.5 16Q358 -14 281 -14Q225 -14 179.5 3.5Q134 21 102 53.5Q70 86 52 133Q34 180 34 239Q34 297 52 344Q70 391 102.5 423Q135 455 179 472.5Q223 490 276 490Q336 490 380.5 469.5Q425 449 454 414.5Q483 380 497.5 334Q512 288 512 236V201H180Q181 180 186 160.5Q191 141 202.5 126Q214 111 233 101.5Q252 92 279 92Q317 92 338 109.5Q359 127 370 149ZM276 388Q231 388 207.5 360.5Q184 333 181 288H368Q366 338 340.5 363Q315 388 276 388Z" glyph-name="ecircumflex" horiz-adv-x="539" unicode="&#234;" /><glyph d="M228 798H321L440 671L371 608L273 712L177 608L110 671ZM72 0V564H478V445H213V348H459V231H213V118H482V0Z" glyph-name="ecircumflex.smcp" horiz-adv-x="522" unicode="&#57919;" /><glyph d="M303 613Q303 645 324.5 666Q346 687 380 687Q414 687 435.5 666Q457 645 457 613Q457 581 435.5 560Q414 539 380 539Q346 539 324.5 560Q303 581 303 613ZM87 613Q87 645 108.5 666Q130 687 164 687Q198 687 219.5 666Q241 645 241 613Q241 581 219.5 560Q198 539 164 539Q130 539 108.5 560Q87 581 87 613ZM494 99Q465 46 411.5 16Q358 -14 281 -14Q225 -14 179.5 3.5Q134 21 102 53.5Q70 86 52 133Q34 180 34 239Q34 297 52 344Q70 391 102.5 423Q135 455 179 472.5Q223 490 276 490Q336 490 380.5 469.5Q425 449 454 414.5Q483 380 497.5 334Q512 288 512 236V201H180Q181 180 186 160.5Q191 141 202.5 126Q214 111 233 101.5Q252 92 279 92Q317 92 338 109.5Q359 127 370 149ZM276 388Q231 388 207.5 360.5Q184 333 181 288H368Q366 338 340.5 363Q315 388 276 388Z" glyph-name="edieresis" horiz-adv-x="539" unicode="&#235;" /><glyph d="M306 696Q306 728 327.5 749Q349 770 383 770Q417 770 438.5 749Q460 728 460 696Q460 664 438.5 643Q417 622 383 622Q349 622 327.5 643Q306 664 306 696ZM90 696Q90 728 111.5 749Q133 770 167 770Q201 770 222.5 749Q244 728 244 696Q244 664 222.5 643Q201 622 167 622Q133 622 111.5 643Q90 664 90 696ZM72 0V564H478V445H213V348H459V231H213V118H482V0Z" glyph-name="edieresis.smcp" horiz-adv-x="522" unicode="&#57904;" /><glyph d="M188 622Q188 660 212 683.5Q236 707 274 707Q312 707 336 683.5Q360 660 360 622Q360 587 337.5 563Q315 539 274 539Q233 539 210.5 563Q188 587 188 622ZM494 99Q465 46 411.5 16Q358 -14 281 -14Q225 -14 179.5 3.5Q134 21 102 53.5Q70 86 52 133Q34 180 34 239Q34 297 52 344Q70 391 102.5 423Q135 455 179 472.5Q223 490 276 490Q336 490 380.5 469.5Q425 449 454 414.5Q483 380 497.5 334Q512 288 512 236V201H180Q181 180 186 160.5Q191 141 202.5 126Q214 111 233 101.5Q252 92 279 92Q317 92 338 109.5Q359 127 370 149ZM276 388Q231 388 207.5 360.5Q184 333 181 288H368Q366 338 340.5 363Q315 388 276 388Z" glyph-name="edotaccent" horiz-adv-x="539" unicode="&#279;" /><glyph d="M190 702Q190 740 214 763.5Q238 787 276 787Q314 787 338 763.5Q362 740 362 702Q362 667 339.5 643Q317 619 276 619Q235 619 212.5 643Q190 667 190 702ZM72 0V564H478V445H213V348H459V231H213V118H482V0Z" glyph-name="edotaccent.smcp" horiz-adv-x="522" unicode="&#57926;" /><glyph d="M137 643 196 747 409 609 365 532ZM494 99Q465 46 411.5 16Q358 -14 281 -14Q225 -14 179.5 3.5Q134 21 102 53.5Q70 86 52 133Q34 180 34 239Q34 297 52 344Q70 391 102.5 423Q135 455 179 472.5Q223 490 276 490Q336 490 380.5 469.5Q425 449 454 414.5Q483 380 497.5 334Q512 288 512 236V201H180Q181 180 186 160.5Q191 141 202.5 126Q214 111 233 101.5Q252 92 279 92Q317 92 338 109.5Q359 127 370 149ZM276 388Q231 388 207.5 360.5Q184 333 181 288H368Q366 338 340.5 363Q315 388 276 388Z" glyph-name="egrave" horiz-adv-x="539" unicode="&#232;" /><glyph d="M134 721 193 825 406 687 362 610ZM72 0V564H478V445H213V348H459V231H213V118H482V0Z" glyph-name="egrave.smcp" horiz-adv-x="522" unicode="&#57918;" /><glyph d="M300 -14Q235 -14 187 3Q139 20 106.5 48.5Q74 77 58 112.5Q42 148 42 186Q42 222 53 251Q64 280 82 302Q100 324 123 338Q146 352 170 358Q149 367 129.5 381.5Q110 396 95 415Q80 434 71 458Q62 482 62 512Q62 548 77 582Q92 616 122 642Q152 668 196.5 684Q241 700 300 700Q358 700 402.5 684Q447 668 477 642Q507 616 522.5 582Q538 548 538 512Q538 482 529 458Q520 434 505 415Q490 396 470.5 381.5Q451 367 430 358Q454 352 477 338Q500 324 518 302Q536 280 547 251Q558 222 558 186Q558 148 542 112.5Q526 77 493.5 48.5Q461 20 412.5 3Q364 -14 300 -14ZM398 499Q398 542 369 564.5Q340 587 300 587Q260 587 231 564.5Q202 542 202 499Q202 477 210.5 460.5Q219 444 232.5 433Q246 422 263.5 416.5Q281 411 300 411Q319 411 336.5 416.5Q354 422 367.5 433Q381 444 389.5 460.5Q398 477 398 499ZM300 100Q351 100 382.5 126Q414 152 414 199Q414 246 382.5 271.5Q351 297 300 297Q249 297 217.5 271Q186 245 186 199Q186 153 217.5 126.5Q249 100 300 100Z" glyph-name="eight" horiz-adv-x="600" unicode="8" /><glyph d="M295 -14Q230 -14 182 3Q134 20 101.5 48.5Q69 77 53 112.5Q37 148 37 186Q37 222 48 251Q59 280 77 302Q95 324 118 338Q141 352 165 358Q144 367 124.5 381.5Q105 396 90 415Q75 434 66 458Q57 482 57 512Q57 548 72 582Q87 616 117 642Q147 668 191.5 684Q236 700 295 700Q353 700 397.5 684Q442 668 472 642Q502 616 517.5 582Q533 548 533 512Q533 482 524 458Q515 434 500 415Q485 396 465.5 381.5Q446 367 425 358Q449 352 472 338Q495 324 513 302Q531 280 542 251Q553 222 553 186Q553 148 537 112.5Q521 77 488.5 48.5Q456 20 407.5 3Q359 -14 295 -14ZM393 499Q393 542 364 564.5Q335 587 295 587Q255 587 226 564.5Q197 542 197 499Q197 477 205.5 460.5Q214 444 227.5 433Q241 422 258.5 416.5Q276 411 295 411Q314 411 331.5 416.5Q349 422 362.5 433Q376 444 384.5 460.5Q393 477 393 499ZM295 100Q346 100 377.5 126Q409 152 409 199Q409 246 377.5 271.5Q346 297 295 297Q244 297 212.5 271Q181 245 181 199Q181 153 212.5 126.5Q244 100 295 100Z" glyph-name="eight.LP" horiz-adv-x="590" unicode="&#58685;" /><glyph d="M300 -14Q235 -14 187 3Q139 20 106.5 48.5Q74 77 58 112.5Q42 148 42 186Q42 222 53 251Q64 280 82 302Q100 324 123 338Q146 352 170 358Q149 367 129.5 381.5Q110 396 95 415Q80 434 71 458Q62 482 62 512Q62 548 77 582Q92 616 122 642Q152 668 196.5 684Q241 700 300 700Q358 700 402.5 684Q447 668 477 642Q507 616 522.5 582Q538 548 538 512Q538 482 529 458Q520 434 505 415Q490 396 470.5 381.5Q451 367 430 358Q454 352 477 338Q500 324 518 302Q536 280 547 251Q558 222 558 186Q558 148 542 112.5Q526 77 493.5 48.5Q461 20 412.5 3Q364 -14 300 -14ZM398 499Q398 542 369 564.5Q340 587 300 587Q260 587 231 564.5Q202 542 202 499Q202 477 210.5 460.5Q219 444 232.5 433Q246 422 263.5 416.5Q281 411 300 411Q319 411 336.5 416.5Q354 422 367.5 433Q381 444 389.5 460.5Q398 477 398 499ZM300 100Q351 100 382.5 126Q414 152 414 199Q414 246 382.5 271.5Q351 297 300 297Q249 297 217.5 271Q186 245 186 199Q186 153 217.5 126.5Q249 100 300 100Z" glyph-name="eight.LT" horiz-adv-x="600" unicode="&#58696;" /><glyph d="M292 -14Q228 -14 180.5 3Q133 20 101 48.5Q69 77 53 112.5Q37 148 37 186Q37 215 46.5 243Q56 271 72.5 294.5Q89 318 112.5 335Q136 352 165 358Q120 375 88.5 415.5Q57 456 57 512Q57 548 72 582Q87 616 116.5 642Q146 668 190 684Q234 700 292 700Q350 700 394 684Q438 668 467.5 642Q497 616 512 582Q527 548 527 512Q527 456 495.5 415.5Q464 375 419 358Q447 352 471 335Q495 318 511.5 294.5Q528 271 537.5 243Q547 215 547 186Q547 148 531 112.5Q515 77 483 48.5Q451 20 403.5 3Q356 -14 292 -14ZM388 499Q388 543 359.5 565.5Q331 588 292 588Q253 588 224.5 565.5Q196 543 196 499Q196 475 205 458Q214 441 228 430.5Q242 420 259 415.5Q276 411 292 411Q308 411 325 415.5Q342 420 356 430.5Q370 441 379 458Q388 475 388 499ZM292 99Q326 99 348 109.5Q370 120 382.5 135.5Q395 151 399.5 168.5Q404 186 404 200Q404 241 376 269Q348 297 292 297Q236 297 208 269Q180 241 180 200Q180 186 184.5 168.5Q189 151 201.5 135.5Q214 120 235.5 109.5Q257 99 292 99Z" glyph-name="eight.OP" horiz-adv-x="584" unicode="&#58707;" /><glyph d="M300 -14Q236 -14 188.5 3Q141 20 109 48.5Q77 77 61 112.5Q45 148 45 186Q45 215 54.5 243Q64 271 80.5 294.5Q97 318 120.5 335Q144 352 173 358Q128 375 96.5 415.5Q65 456 65 512Q65 548 80 582Q95 616 124.5 642Q154 668 198 684Q242 700 300 700Q358 700 402 684Q446 668 475.5 642Q505 616 520 582Q535 548 535 512Q535 456 503.5 415.5Q472 375 427 358Q455 352 479 335Q503 318 519.5 294.5Q536 271 545.5 243Q555 215 555 186Q555 148 539 112.5Q523 77 491 48.5Q459 20 411.5 3Q364 -14 300 -14ZM396 499Q396 543 367.5 565.5Q339 588 300 588Q261 588 232.5 565.5Q204 543 204 499Q204 475 213 458Q222 441 236 430.5Q250 420 267 415.5Q284 411 300 411Q316 411 333 415.5Q350 420 364 430.5Q378 441 387 458Q396 475 396 499ZM300 99Q334 99 356 109.5Q378 120 390.5 135.5Q403 151 407.5 168.5Q412 186 412 200Q412 241 384 269Q356 297 300 297Q244 297 216 269Q188 241 188 200Q188 186 192.5 168.5Q197 151 209.5 135.5Q222 120 243.5 109.5Q265 99 300 99Z" glyph-name="eight.OT" horiz-adv-x="600" unicode="&#58718;" /><glyph d="M186 -210Q149 -210 121 -200.5Q93 -191 74.5 -175Q56 -159 46.5 -139Q37 -119 37 -98Q37 -57 59 -33.5Q81 -10 108 -3Q85 7 67 28Q49 49 49 82Q49 101 58 120Q67 139 84 153.5Q101 168 127 177Q153 186 186 186Q219 186 245 177Q271 168 288 153.5Q305 139 314 120Q323 101 323 82Q323 49 305 28Q287 7 264 -3Q290 -10 312.5 -33.5Q335 -57 335 -98Q335 -119 325.5 -139Q316 -159 297 -175Q278 -191 250.5 -200.5Q223 -210 186 -210ZM140 75Q140 55 154.5 45.5Q169 36 186 36Q203 36 217 45.5Q231 55 231 75Q231 94 217.5 103.5Q204 113 186 113Q168 113 154 103.5Q140 94 140 75ZM186 -137Q209 -137 225 -125Q241 -113 241 -92Q241 -69 225 -56.5Q209 -44 186 -44Q163 -44 147 -56.5Q131 -69 131 -92Q131 -113 147 -125Q163 -137 186 -137Z" glyph-name="eight.inf" horiz-adv-x="372" unicode="&#58745;" /><glyph d="M369 -14 807 714H924L486 -14ZM476 700V324H372V594Q359 584 338 576.5Q317 569 292 567L271 648Q306 652 337 665.5Q368 679 385 700ZM221 700V324H117V594Q104 584 83 576.5Q62 569 37 567L16 648Q51 652 82 665.5Q113 679 130 700ZM1220 305Q1188 305 1171 278Q1154 251 1154 205Q1168 227 1189.5 237Q1211 247 1240 247Q1272 247 1296 236Q1320 225 1336 207.5Q1352 190 1360 167.5Q1368 145 1368 122Q1368 96 1358.5 72.5Q1349 49 1330 30.5Q1311 12 1283 1Q1255 -10 1219 -10Q1149 -10 1105 36Q1061 82 1061 184Q1061 282 1103 334Q1145 386 1222 386Q1280 386 1313.5 357Q1347 328 1358 285L1265 275Q1257 305 1220 305ZM982 376V0H878V270Q865 260 844 252.5Q823 245 798 243L777 324Q812 328 843 341.5Q874 355 891 376ZM1222 170Q1198 170 1183.5 156Q1169 142 1169 119Q1169 99 1183 85.5Q1197 72 1220 72Q1239 72 1256 83Q1273 94 1273 120Q1273 140 1260.5 155Q1248 170 1222 170Z" glyph-name="elevensixteenths" horiz-adv-x="1400" unicode="&#61984;" /><glyph d="M596 74Q596 110 620 134Q644 158 682 158Q720 158 744 134Q768 110 768 74Q768 38 744 14Q720 -10 682 -10Q644 -10 620 14Q596 38 596 74ZM325 74Q325 110 349 134Q373 158 411 158Q449 158 473 134Q497 110 497 74Q497 38 473 14Q449 -10 411 -10Q373 -10 349 14Q325 38 325 74ZM54 74Q54 110 78 134Q102 158 140 158Q178 158 202 134Q226 110 226 74Q226 38 202 14Q178 -10 140 -10Q102 -10 78 14Q54 38 54 74Z" glyph-name="ellipsis" horiz-adv-x="822" unicode="&#8230;" /><glyph d="M129 641H418V550H129ZM494 99Q465 46 411.5 16Q358 -14 281 -14Q225 -14 179.5 3.5Q134 21 102 53.5Q70 86 52 133Q34 180 34 239Q34 297 52 344Q70 391 102.5 423Q135 455 179 472.5Q223 490 276 490Q336 490 380.5 469.5Q425 449 454 414.5Q483 380 497.5 334Q512 288 512 236V201H180Q181 180 186 160.5Q191 141 202.5 126Q214 111 233 101.5Q252 92 279 92Q317 92 338 109.5Q359 127 370 149ZM276 388Q231 388 207.5 360.5Q184 333 181 288H368Q366 338 340.5 363Q315 388 276 388Z" glyph-name="emacron" horiz-adv-x="539" unicode="&#275;" /><glyph d="M133 710H422V619H133ZM72 0V564H478V445H213V348H459V231H213V118H482V0Z" glyph-name="emacron.smcp" horiz-adv-x="522" unicode="&#57922;" /><glyph d="M54 342H816V235H54Z" glyph-name="emdash" horiz-adv-x="870" unicode="&#8212;" /><glyph d="M54 414H816V307H54Z" glyph-name="emdash.cap" horiz-adv-x="870" unicode="&#58502;" /><glyph d="M54 342H446V235H54Z" glyph-name="endash" horiz-adv-x="500" unicode="&#8211;" /><glyph d="M54 414H446V307H54Z" glyph-name="endash.cap" horiz-adv-x="500" unicode="&#58500;" /><glyph d="M376 285Q376 334 354 353Q332 372 301 372Q283 372 266.5 364.5Q250 357 237 341.5Q224 326 216 302Q208 278 208 245V0H64V476H203V403Q221 438 257 464Q293 490 352 490Q387 490 417.5 480Q448 470 471 449.5Q494 429 507 398.5Q520 368 520 328V-32Q520 -84 502.5 -119Q485 -154 457.5 -175Q430 -196 397 -205Q364 -214 334 -214Q299 -214 265.5 -204Q232 -194 207 -179L264 -69Q275 -78 290.5 -86Q306 -94 325 -94Q346 -94 361 -78.5Q376 -63 376 -23V285Z" glyph-name="eng" horiz-adv-x="580" unicode="&#331;" /><glyph d="M72 564H214Q260 492 300 427Q317 399 335 369.5Q353 340 370 312.5Q387 285 401 261Q415 237 425 219H427V564H558V-27Q558 -121 511 -168.5Q464 -216 374 -216Q317 -216 280 -199Q243 -182 220 -153L312 -67Q325 -82 337.5 -91.5Q350 -101 370 -101Q399 -101 407.5 -81Q416 -61 416 -31V6Q412 13 398 34.5Q384 56 365 86Q346 116 323.5 151.5Q301 187 279 222Q257 257 237.5 289Q218 321 205 343H203V0H72Z" glyph-name="eng.smcp" horiz-adv-x="630" unicode="&#58155;" /><glyph d="M494 99Q476 66 447.5 42Q419 18 383 1Q336 -20 314.5 -45Q293 -70 293 -93Q293 -108 304 -117.5Q315 -127 338 -127Q354 -127 368 -119.5Q382 -112 399 -86L460 -139Q430 -176 397.5 -192.5Q365 -209 323 -209Q296 -209 272.5 -203Q249 -197 231.5 -184Q214 -171 203.5 -151.5Q193 -132 193 -105Q193 -75 205 -53Q217 -31 240 -11Q193 -5 155 14.5Q117 34 90 66Q63 98 48.5 141.5Q34 185 34 239Q34 297 52 344Q70 391 102.5 423Q135 455 179 472.5Q223 490 276 490Q336 490 380.5 469.5Q425 449 454 414.5Q483 380 497.5 334Q512 288 512 236V201H180Q181 180 186 160.5Q191 141 202.5 126Q214 111 233 101.5Q252 92 279 92Q317 92 338 109.5Q359 127 370 149ZM276 388Q231 388 207.5 360.5Q184 333 181 288H368Q366 338 340.5 363Q315 388 276 388Z" glyph-name="eogonek" horiz-adv-x="539" unicode="&#281;" /><glyph d="M304 -93Q304 -108 315 -117.5Q326 -127 349 -127Q365 -127 379 -119.5Q393 -112 410 -86L471 -139Q441 -176 408.5 -192.5Q376 -209 334 -209Q307 -209 283.5 -203Q260 -197 242.5 -184Q225 -171 214.5 -151.5Q204 -132 204 -105Q204 -71 220 -47Q236 -23 266 0H72V564H478V445H213V348H459V231H213V118H482V0H407Q304 -48 304 -93Z" glyph-name="eogonek.smcp" horiz-adv-x="522" unicode="&#57929;" /><glyph d="M50 476H550V362H50ZM50 280H550V166H50Z" glyph-name="equal" horiz-adv-x="600" unicode="=" /><glyph d="M50 515H600V401H50ZM50 319H600V205H50Z" glyph-name="equal.cap" horiz-adv-x="650" unicode="&#58773;" /><glyph d="M40 121H327V29H40ZM40 -39H327V-131H40Z" glyph-name="equal.inf" horiz-adv-x="367" unicode="&#58749;" /><glyph d="M50 581H550V467H50ZM50 383H550V269H50ZM50 185H550V71H50Z" glyph-name="equivalence" horiz-adv-x="600" unicode="&#8801;" /><glyph d="M694 164Q674 122 646.5 89Q619 56 581.5 33Q544 10 496.5 -2Q449 -14 388 -14Q305 -14 241.5 12.5Q178 39 135.5 87Q93 135 71.5 202Q50 269 50 351Q50 441 74.5 508.5Q99 576 143 622Q187 668 249.5 691Q312 714 387 714Q472 714 535 685.5Q598 657 639 608Q680 559 700 492.5Q720 426 720 351V323H167Q170 260 185 208.5Q200 157 227.5 121Q255 85 295.5 65.5Q336 46 389 46Q439 46 476.5 58Q514 70 541.5 90Q569 110 587.5 137Q606 164 617 194ZM388 654Q331 654 291 634Q251 614 225 578Q199 542 185 492.5Q171 443 167 384H602Q598 445 583 494.5Q568 544 542 579.5Q516 615 477.5 634.5Q439 654 388 654Z" glyph-name="estimated" horiz-adv-x="770" unicode="&#8494;" /><glyph d="M160 587 236 625Q211 642 185 652.5Q159 663 132 669L200 744Q277 726 342 680L424 722L460 652L404 623Q465 556 499 464.5Q533 373 533 270Q533 135 472.5 60.5Q412 -14 288 -14Q169 -14 101.5 51.5Q34 117 34 235Q34 290 50 335.5Q66 381 95.5 413Q125 445 165 462.5Q205 480 253 480Q291 480 325 467Q359 454 382 425Q368 469 347.5 504.5Q327 540 301 569L198 516ZM182 233Q182 203 188 178Q194 153 206.5 134Q219 115 238 104.5Q257 94 283 94Q310 94 330 104.5Q350 115 363 133.5Q376 152 382.5 177.5Q389 203 389 232Q389 262 384 287.5Q379 313 366.5 331.5Q354 350 333.5 361Q313 372 283 372Q257 372 238 361Q219 350 206.5 331.5Q194 313 188 287.5Q182 262 182 233Z" glyph-name="eth" horiz-adv-x="567" unicode="&#240;" /><glyph d="M85 240H29V340H85V564H304Q439 564 515 491Q591 418 591 282Q591 145 515 72.5Q439 0 304 0H85ZM227 240V118H304Q375 118 408.5 163Q442 208 442 282Q442 356 409 400.5Q376 445 304 445H227V340H325V240Z" glyph-name="eth.smcp" horiz-adv-x="638" unicode="&#58156;" /><glyph d="M202 232H78L64 700H216ZM54 76Q54 114 78 137.5Q102 161 140 161Q178 161 202 137.5Q226 114 226 76Q226 40 202 15Q178 -10 140 -10Q102 -10 78 15Q54 40 54 76Z" glyph-name="exclam" horiz-adv-x="280" unicode="!" /><glyph d="M54 424Q54 460 78 485Q102 510 140 510Q178 510 202 485Q226 460 226 424Q226 386 202 362.5Q178 339 140 339Q102 339 78 362.5Q54 386 54 424ZM216 -200H64L78 268H202Z" glyph-name="exclamdown" horiz-adv-x="280" unicode="&#161;" /><glyph d="M54 624Q54 660 78 685Q102 710 140 710Q178 710 202 685Q226 660 226 624Q226 586 202 562.5Q178 539 140 539Q102 539 78 562.5Q54 586 54 624ZM216 0H64L78 468H202Z" glyph-name="exclamdown.cap" horiz-adv-x="280" unicode="&#58433;" /><glyph d="M14 476H93V511Q93 569 110 608Q127 647 153.5 670.5Q180 694 213 704Q246 714 279 714Q321 714 358.5 703Q396 692 419 673L362 569Q351 580 334.5 589.5Q318 599 296 599Q273 599 255 582Q237 565 237 518V476H341V371H237V0H93V371H14Z" glyph-name="f" horiz-adv-x="364" unicode="f" /><glyph d="M72 0V564H480V445H213V348H458V231H213V0Z" glyph-name="f.smcp" horiz-adv-x="519" unicode="&#57862;" /><glyph d="M29 591H79V605Q79 644 90 670.5Q101 697 119 712.5Q137 728 159 735Q181 742 202 742Q231 742 255 734.5Q279 727 295 714L257 644Q250 651 239.5 656.5Q229 662 215 662Q201 662 190 652Q179 642 179 612V591H245V518H179V288H79V518H29Z" glyph-name="f.superior" horiz-adv-x="275" unicode="&#58214;" /><glyph d="M721 490Q765 490 803.5 472.5Q842 455 870.5 422Q899 389 915.5 342.5Q932 296 932 238Q932 179 915.5 132.5Q899 86 870.5 53.5Q842 21 803.5 3.5Q765 -14 721 -14Q660 -14 623 11Q586 36 567 69V0H428V700H572V414Q592 446 630.5 468Q669 490 721 490ZM571 224Q571 190 581.5 166Q592 142 608 126.5Q624 111 643.5 104Q663 97 681 97Q729 97 757 137Q785 177 785 238Q785 298 757 338.5Q729 379 681 379Q662 379 642.5 372Q623 365 607 349.5Q591 334 581 309.5Q571 285 571 251ZM14 476H93V521Q93 569 106.5 605Q120 641 144 665Q168 689 201 701.5Q234 714 272 714Q301 714 333 706.5Q365 699 389 680L342 574Q316 596 287 596Q237 596 237 525V476H334V371H237V0H93V371H14Z" glyph-name="f_b" horiz-adv-x="966" unicode="&#58241;" /><glyph d="M14 476H93V510Q93 567 109.5 605Q126 643 152 666Q178 689 211 699Q244 709 276 709Q318 709 353.5 698Q389 687 412 669L357 564Q346 575 330.5 584.5Q315 594 293 594Q271 594 254 578Q237 562 237 517V476H417V521Q417 569 430.5 605Q444 641 468 665Q492 689 525 701.5Q558 714 596 714Q625 714 657 706.5Q689 699 713 680L666 574Q640 596 611 596Q561 596 561 525V476H658V371H561V0H417V371H237V0H93V371H14ZM1045 490Q1089 490 1127.5 472.5Q1166 455 1194.5 422Q1223 389 1239.5 342.5Q1256 296 1256 238Q1256 179 1239.5 132.5Q1223 86 1194.5 53.5Q1166 21 1127.5 3.5Q1089 -14 1045 -14Q984 -14 947 11Q910 36 891 69V0H752V700H896V414Q916 446 954.5 468Q993 490 1045 490ZM895 224Q895 190 905.5 166Q916 142 932 126.5Q948 111 967.5 104Q987 97 1005 97Q1053 97 1081 137Q1109 177 1109 238Q1109 298 1081 338.5Q1053 379 1005 379Q986 379 966.5 372Q947 365 931 349.5Q915 334 905 309.5Q895 285 895 251Z" glyph-name="f_f_b" horiz-adv-x="1290" unicode="&#58242;" /><glyph d="M14 476H93V510Q93 567 109.5 605Q126 643 152 666Q178 689 211 699Q244 709 276 709Q318 709 353.5 698Q389 687 412 669L357 564Q346 575 330.5 584.5Q315 594 293 594Q271 594 254 578Q237 562 237 517V476H417V521Q417 569 430.5 605Q444 641 468 665Q492 689 525 701.5Q558 714 596 714Q625 714 657 706.5Q689 699 713 680L666 574Q640 596 611 596Q561 596 561 525V476H658V371H561V0H417V371H237V0H93V371H14ZM752 700H896V411Q903 425 915.5 439Q928 453 946 464.5Q964 476 987.5 483Q1011 490 1040 490Q1075 490 1105.5 480Q1136 470 1159 449.5Q1182 429 1195 398.5Q1208 368 1208 328V0H1064V285Q1064 334 1042 353Q1020 372 989 372Q971 372 954.5 364.5Q938 357 925 341.5Q912 326 904 302Q896 278 896 245V0H752Z" glyph-name="f_f_h" horiz-adv-x="1268" unicode="&#58243;" /><glyph d="M14 476H93V506Q93 564 110 603Q127 642 153.5 665.5Q180 689 213 699Q246 709 279 709Q321 709 358.5 698Q396 687 419 668L362 564Q351 575 334.5 584.5Q318 594 296 594Q273 594 255 577Q237 560 237 513V476H417V504Q417 556 435.5 595.5Q454 635 485 661Q516 687 556.5 700.5Q597 714 641 714Q698 714 747.5 692.5Q797 671 825 633L730 547Q716 566 697.5 582.5Q679 599 645 599Q607 599 584 574Q561 549 561 504V476H867V-32Q867 -84 849.5 -119Q832 -154 804.5 -175Q777 -196 744 -205Q711 -214 681 -214Q646 -214 612.5 -204Q579 -194 554 -179L611 -69Q622 -78 637.5 -86Q653 -94 672 -94Q693 -94 708 -78.5Q723 -63 723 -23V371H561V0H417V371H237V0H93V371H14Z" glyph-name="f_f_j" horiz-adv-x="931" unicode="&#57898;" /><glyph d="M14 476H93V510Q93 567 109.5 605Q126 643 152 666Q178 689 211 699Q244 709 276 709Q318 709 353.5 698Q389 687 412 669L357 564Q346 575 330.5 584.5Q315 594 293 594Q271 594 254 578Q237 562 237 517V476H417V521Q417 569 430.5 605Q444 641 468 665Q492 689 525 701.5Q558 714 596 714Q625 714 657 706.5Q689 699 713 680L666 574Q640 596 611 596Q561 596 561 525V476H658V371H561V0H417V371H237V0H93V371H14ZM937 213 896 176V0H752V700H896V324L1061 476H1228L1039 301L1249 0H1082Z" glyph-name="f_f_k" horiz-adv-x="1253" unicode="&#58245;" /><glyph d="M14 476H93V521Q93 569 106.5 605Q120 641 144 665Q168 689 201 701.5Q234 714 272 714Q301 714 333 706.5Q365 699 389 680L342 574Q316 596 287 596Q237 596 237 525V476H334V371H237V0H93V371H14ZM428 700H572V411Q579 425 591.5 439Q604 453 622 464.5Q640 476 663.5 483Q687 490 716 490Q751 490 781.5 480Q812 470 835 449.5Q858 429 871 398.5Q884 368 884 328V0H740V285Q740 334 718 353Q696 372 665 372Q647 372 630.5 364.5Q614 357 601 341.5Q588 326 580 302Q572 278 572 245V0H428Z" glyph-name="f_h" horiz-adv-x="944" unicode="&#58246;" /><glyph d="M399 371H237V0H93V371H14V476H93V504Q93 556 111.5 595.5Q130 635 161 661Q192 687 232.5 700.5Q273 714 317 714Q374 714 423.5 692.5Q473 671 501 633L406 547Q392 566 373.5 582.5Q355 599 321 599Q283 599 260 574Q237 549 237 504V476H543V0H399Z" glyph-name="f_i" horiz-adv-x="607" unicode="&#62209;" /><glyph d="M237 371V0H93V371H14V476H93V504Q93 556 111.5 595.5Q130 635 161 661Q192 687 232.5 700.5Q273 714 317 714Q374 714 423.5 692.5Q473 671 501 633L406 547Q392 566 373.5 582.5Q355 599 321 599Q283 599 260 574Q237 549 237 504V476H543V-32Q543 -84 525.5 -119Q508 -154 480.5 -175Q453 -196 420 -205Q387 -214 357 -214Q322 -214 288.5 -204Q255 -194 230 -179L287 -69Q298 -78 313.5 -86Q329 -94 348 -94Q369 -94 384 -78.5Q399 -63 399 -23V371Z" glyph-name="f_j" horiz-adv-x="607" unicode="&#58247;" /><glyph d="M14 476H93V521Q93 569 106.5 605Q120 641 144 665Q168 689 201 701.5Q234 714 272 714Q301 714 333 706.5Q365 699 389 680L342 574Q316 596 287 596Q237 596 237 525V476H334V371H237V0H93V371H14ZM613 213 572 176V0H428V700H572V324L737 476H904L715 301L925 0H758Z" glyph-name="f_k" horiz-adv-x="929" unicode="&#58248;" /><glyph d="M237 0H93V371H14V476H93V510Q93 567 109.5 605Q126 643 152 666Q178 689 211 699Q244 709 276 709Q318 709 353.5 698Q389 687 412 669L357 564Q346 575 330.5 584.5Q315 594 293 594Q271 594 254 578Q237 562 237 517V476H417V511Q417 569 434 608Q451 647 477.5 670.5Q504 694 537 704Q570 714 603 714Q645 714 682.5 703Q720 692 743 673L686 569Q675 580 658.5 589.5Q642 599 620 599Q597 599 579 582Q561 565 561 518V476H665V371H561V0H417V371H237Z" glyph-name="ff" horiz-adv-x="688" unicode="&#64256;" /><glyph d="M14 476H93V506Q93 564 110 603Q127 642 153.5 665.5Q180 689 213 699Q246 709 279 709Q321 709 358.5 698Q396 687 419 668L362 564Q351 575 334.5 584.5Q318 594 296 594Q273 594 255 577Q237 560 237 513V476H417V504Q417 556 435.5 595.5Q454 635 485 661Q516 687 556.5 700.5Q597 714 641 714Q698 714 747.5 692.5Q797 671 825 633L730 547Q716 566 697.5 582.5Q679 599 645 599Q607 599 584 574Q561 549 561 504V476H867V0H723V371H561V0H417V371H237V0H93V371H14Z" glyph-name="ffi" horiz-adv-x="931" unicode="&#64259;" /><glyph d="M14 476H93V510Q93 567 109.5 605Q126 643 152 666Q178 689 211 699Q244 709 276 709Q318 709 353.5 698Q389 687 412 669L357 564Q346 575 330.5 584.5Q315 594 293 594Q271 594 254 578Q237 562 237 517V476H417V521Q417 569 430.5 605Q444 641 468 665Q492 689 525 701.5Q558 714 596 714Q625 714 657 706.5Q689 699 713 680L666 574Q640 596 611 596Q561 596 561 525V476H658V371H561V0H417V371H237V0H93V371H14ZM752 700H896V0H752Z" glyph-name="ffl" horiz-adv-x="960" unicode="&#64260;" /><glyph d="M414 629Q414 667 438 690.5Q462 714 500 714Q538 714 562 690.5Q586 667 586 629Q586 594 563.5 570Q541 546 500 546Q459 546 436.5 570Q414 594 414 629ZM428 476H572V0H428ZM14 476H93V521Q93 569 106.5 605Q120 641 144 665Q168 689 201 701.5Q234 714 272 714Q301 714 332 706.5Q363 699 386 681L342 574Q316 596 287 596Q237 596 237 525V476H334V371H237V0H93V371H14Z" glyph-name="fi" horiz-adv-x="636" unicode="&#64257;" /><glyph d="M425 -14 863 714H980L542 -14ZM221 700V324H117V594Q104 584 83 576.5Q62 569 37 567L16 648Q51 652 82 665.5Q113 679 130 700ZM385 434Q392 398 431 398Q456 398 470 412.5Q484 427 484 449Q484 471 471 483.5Q458 496 435 496Q422 496 409.5 489.5Q397 483 389 469L303 484L328 697H565L551 615H399L390 548Q401 559 418 568Q435 577 461 577Q490 577 513 567Q536 557 551.5 539.5Q567 522 575.5 499Q584 476 584 450Q584 420 572.5 395Q561 370 541 352Q521 334 493 324Q465 314 432 314Q369 314 334.5 341Q300 368 294 411ZM1276 305Q1244 305 1227 278Q1210 251 1210 205Q1224 227 1245.5 237Q1267 247 1296 247Q1328 247 1352 236Q1376 225 1392 207.5Q1408 190 1416 167.5Q1424 145 1424 122Q1424 96 1414.5 72.5Q1405 49 1386 30.5Q1367 12 1339 1Q1311 -10 1275 -10Q1205 -10 1161 36Q1117 82 1117 184Q1117 282 1159 334Q1201 386 1278 386Q1336 386 1369.5 357Q1403 328 1414 285L1321 275Q1313 305 1276 305ZM1038 376V0H934V270Q921 260 900 252.5Q879 245 854 243L833 324Q868 328 899 341.5Q930 355 947 376ZM1278 170Q1254 170 1239.5 156Q1225 142 1225 119Q1225 99 1239 85.5Q1253 72 1276 72Q1295 72 1312 83Q1329 94 1329 120Q1329 140 1316.5 155Q1304 170 1278 170Z" glyph-name="fifteensixteenths" horiz-adv-x="1456" unicode="&#61986;" /><glyph d="M54 342H546V235H54Z" glyph-name="figuredash" horiz-adv-x="600" unicode="&#8210;" /><glyph d="M54 414H546V307H54Z" glyph-name="figuredash.cap" horiz-adv-x="600" unicode="&#58503;" /><glyph d="M184 199Q185 179 193.5 161.5Q202 144 216.5 130.5Q231 117 250.5 109Q270 101 293 101Q346 101 376 137Q406 173 406 228Q406 252 400 274Q394 296 381 312Q368 328 348 337.5Q328 347 301 347Q290 347 275.5 344.5Q261 342 246.5 335.5Q232 329 218.5 316.5Q205 304 196 283L72 306L114 686H512L492 570H218L198 407Q218 432 250.5 447Q283 462 334 462Q390 462 431 442Q472 422 499 389Q526 356 539 314.5Q552 273 552 230Q552 179 534.5 134.5Q517 90 483 57Q449 24 400.5 5Q352 -14 291 -14Q235 -14 191.5 1.5Q148 17 117.5 42Q87 67 70 98.5Q53 130 51 162Z" glyph-name="five" horiz-adv-x="600" unicode="5" /><glyph d="M175 199Q176 179 184.5 161.5Q193 144 207.5 130.5Q222 117 241.5 109Q261 101 284 101Q337 101 367 137Q397 173 397 228Q397 252 391 274Q385 296 372 312Q359 328 339 337.5Q319 347 292 347Q281 347 266.5 344.5Q252 342 237.5 335.5Q223 329 209.5 316.5Q196 304 187 283L63 306L105 686H503L483 570H209L189 407Q209 432 241.5 447Q274 462 325 462Q381 462 422 442Q463 422 490 389Q517 356 530 314.5Q543 273 543 230Q543 179 525.5 134.5Q508 90 474 57Q440 24 391.5 5Q343 -14 282 -14Q226 -14 182.5 1.5Q139 17 108.5 42Q78 67 61 98.5Q44 130 42 162Z" glyph-name="five.LP" horiz-adv-x="582" unicode="&#58682;" /><glyph d="M184 199Q185 179 193.5 161.5Q202 144 216.5 130.5Q231 117 250.5 109Q270 101 293 101Q346 101 376 137Q406 173 406 228Q406 252 400 274Q394 296 381 312Q368 328 348 337.5Q328 347 301 347Q290 347 275.5 344.5Q261 342 246.5 335.5Q232 329 218.5 316.5Q205 304 196 283L72 306L114 686H512L492 570H218L198 407Q218 432 250.5 447Q283 462 334 462Q390 462 431 442Q472 422 499 389Q526 356 539 314.5Q552 273 552 230Q552 179 534.5 134.5Q517 90 483 57Q449 24 400.5 5Q352 -14 291 -14Q235 -14 191.5 1.5Q148 17 117.5 42Q87 67 70 98.5Q53 130 51 162Z" glyph-name="five.LT" horiz-adv-x="600" unicode="&#58693;" /><glyph d="M178 77Q180 36 209.5 7Q239 -22 286 -22Q340 -22 369.5 14Q399 50 399 106Q399 155 374 190Q349 225 294 225Q283 225 269 222.5Q255 220 240.5 213.5Q226 207 213 194.5Q200 182 191 162L67 185L109 564H504L484 449H212L192 285Q212 309 244.5 324Q277 339 327 339Q383 339 424 319Q465 299 491.5 266.5Q518 234 531 192.5Q544 151 544 108Q544 57 526.5 12.5Q509 -32 475.5 -65Q442 -98 393.5 -117Q345 -136 284 -136Q229 -136 185.5 -120.5Q142 -105 111.5 -80Q81 -55 64.5 -23.5Q48 8 46 40Z" glyph-name="five.OP" horiz-adv-x="577" unicode="&#58688;" /><glyph d="M189 77Q191 36 220.5 7Q250 -22 297 -22Q351 -22 380.5 14Q410 50 410 106Q410 155 385 190Q360 225 305 225Q294 225 280 222.5Q266 220 251.5 213.5Q237 207 224 194.5Q211 182 202 162L78 185L120 564H515L495 449H223L203 285Q223 309 255.5 324Q288 339 338 339Q394 339 435 319Q476 299 502.5 266.5Q529 234 542 192.5Q555 151 555 108Q555 57 537.5 12.5Q520 -32 486.5 -65Q453 -98 404.5 -117Q356 -136 295 -136Q240 -136 196.5 -120.5Q153 -105 122.5 -80Q92 -55 75.5 -23.5Q59 8 57 40Z" glyph-name="five.OT" horiz-adv-x="600" unicode="&#58715;" /><glyph d="M129 -90Q136 -126 175 -126Q200 -126 214 -111.5Q228 -97 228 -75Q228 -53 215 -40.5Q202 -28 179 -28Q166 -28 153.5 -34.5Q141 -41 133 -55L47 -40L72 173H309L295 91H143L134 24Q145 35 162 44Q179 53 205 53Q234 53 257 43Q280 33 295.5 15.5Q311 -2 319.5 -25Q328 -48 328 -74Q328 -104 316.5 -129Q305 -154 285 -172Q265 -190 237 -200Q209 -210 176 -210Q113 -210 78.5 -183Q44 -156 38 -113Z" glyph-name="five.inf" horiz-adv-x="359" unicode="&#58742;" /><glyph d="M169 -14 607 714H724L286 -14ZM129 434Q136 398 175 398Q200 398 214 412.5Q228 427 228 449Q228 471 215 483.5Q202 496 179 496Q166 496 153.5 489.5Q141 483 133 469L47 484L72 697H309L295 615H143L134 548Q145 559 162 568Q179 577 205 577Q234 577 257 567Q280 557 295.5 539.5Q311 522 319.5 499Q328 476 328 450Q328 420 316.5 395Q305 370 285 352Q265 334 237 324Q209 314 176 314Q113 314 78.5 341Q44 368 38 411ZM1020 305Q988 305 971 278Q954 251 954 205Q968 227 989.5 237Q1011 247 1040 247Q1072 247 1096 236Q1120 225 1136 207.5Q1152 190 1160 167.5Q1168 145 1168 122Q1168 96 1158.5 72.5Q1149 49 1130 30.5Q1111 12 1083 1Q1055 -10 1019 -10Q949 -10 905 36Q861 82 861 184Q861 282 903 334Q945 386 1022 386Q1080 386 1113.5 357Q1147 328 1158 285L1065 275Q1057 305 1020 305ZM782 376V0H678V270Q665 260 644 252.5Q623 245 598 243L577 324Q612 328 643 341.5Q674 355 691 376ZM1022 170Q998 170 983.5 156Q969 142 969 119Q969 99 983 85.5Q997 72 1020 72Q1039 72 1056 83Q1073 94 1073 120Q1073 140 1060.5 155Q1048 170 1022 170Z" glyph-name="fivesixteenths" horiz-adv-x="1200" unicode="&#61975;" /><glyph d="M14 476H93V521Q93 569 106.5 605Q120 641 144 665Q168 689 201 701.5Q234 714 272 714Q301 714 332 706.5Q363 699 386 681L342 574Q316 596 287 596Q237 596 237 525V476H334V371H237V0H93V371H14ZM419 629Q419 667 443 690.5Q467 714 505 714Q543 714 567 690.5Q591 667 591 629Q591 594 568.5 570Q546 546 505 546Q464 546 441.5 570Q419 594 419 629ZM577 -32Q577 -84 559.5 -119Q542 -154 514.5 -175Q487 -196 454 -205Q421 -214 391 -214Q356 -214 322.5 -203.5Q289 -193 266 -177L321 -73Q332 -82 347.5 -90Q363 -98 382 -98Q403 -98 418 -81.5Q433 -65 433 -23V476H577Z" glyph-name="fj" horiz-adv-x="641" /><glyph d="M14 476H93V521Q93 569 106.5 605Q120 641 144 665Q168 689 201 701.5Q234 714 272 714Q301 714 333 706.5Q365 699 389 680L342 574Q316 596 287 596Q237 596 237 525V476H334V371H237V0H93V371H14ZM428 700H572V0H428Z" glyph-name="fl" horiz-adv-x="636" unicode="&#64258;" /><glyph d="M141 433H231L242 533Q247 582 265.5 616.5Q284 651 311.5 673Q339 695 373 705.5Q407 716 443 716Q485 716 517.5 704.5Q550 693 573 678L506 570Q496 580 480.5 589Q465 598 445 598Q417 598 401.5 577Q386 556 382 518L373 433H483V325H362L331 29Q326 -22 307 -56.5Q288 -91 260.5 -113Q233 -135 199 -144.5Q165 -154 131 -154Q88 -154 55 -142.5Q22 -131 0 -116L67 -8Q77 -18 92.5 -27Q108 -36 128 -36Q157 -36 172 -15Q187 6 191 44L220 325H141Z" glyph-name="florin" horiz-adv-x="591" unicode="&#402;" /><glyph d="M476 686V252H583L563 140H476V0H338V140H24V250L293 686ZM338 252V565H336L147 252Z" glyph-name="four" horiz-adv-x="600" unicode="4" /><glyph d="M477 686V252H584L564 140H477V0H339V140H25V250L294 686ZM339 252V565H337L148 252Z" glyph-name="four.LP" horiz-adv-x="602" unicode="&#58681;" /><glyph d="M476 686V252H583L563 140H476V0H338V140H24V250L293 686ZM338 252V565H336L147 252Z" glyph-name="four.LT" horiz-adv-x="600" unicode="&#58692;" /><glyph d="M474 564V129H579L559 19H474V-121H339V19H25V129L294 564ZM339 129V443H337L150 129Z" glyph-name="four.OP" horiz-adv-x="597" unicode="&#58703;" /><glyph d="M476 564V129H581L561 19H476V-121H341V19H27V129L296 564ZM341 129V443H339L152 129Z" glyph-name="four.OT" horiz-adv-x="600" unicode="&#58714;" /><glyph d="M24 -62 169 174H300V-52H361L351 -132H300V-200H202V-132H24ZM205 -52V95H202L115 -52Z" glyph-name="four.inf" horiz-adv-x="384" unicode="&#58741;" /><glyph d="M-130 -14 308 714H425L-13 -14Z" glyph-name="fraction" horiz-adv-x="296" unicode="&#8260;" /><glyph d="M510 401Q497 411 480 411Q471 411 464 408.5Q457 406 452 402Q466 385 473.5 361.5Q481 338 481 312Q481 271 463 240Q445 209 415.5 187Q386 165 348 154Q310 143 269 143Q241 143 228 146.5Q215 150 204 150Q190 150 179.5 142.5Q169 135 169 122Q169 109 180.5 102.5Q192 96 212.5 93Q233 90 261 89Q289 88 322 85Q356 82 390.5 75Q425 68 453 53Q481 38 499 12Q517 -14 517 -57Q517 -98 496.5 -127.5Q476 -157 441 -176Q406 -195 359 -204.5Q312 -214 259 -214Q208 -214 165.5 -206Q123 -198 92 -181.5Q61 -165 43.5 -139Q26 -113 26 -78Q26 -47 42.5 -20.5Q59 6 94 20Q65 35 53.5 60Q42 85 42 108Q42 135 60 157.5Q78 180 110 194Q54 239 54 312Q54 355 72 388.5Q90 422 119.5 444.5Q149 467 186 478.5Q223 490 261 490Q294 490 321 482.5Q348 475 370 466Q392 484 414 492Q436 500 467 500Q490 500 506.5 496Q523 492 537 486ZM190 315Q190 273 212 254Q234 235 268 235Q302 235 323.5 254Q345 273 345 315Q345 357 323.5 377.5Q302 398 268 398Q234 398 212 377.5Q190 357 190 315ZM289 -21Q256 -19 224 -16.5Q192 -14 174 -11Q156 -20 151 -37Q146 -54 146 -66Q146 -97 177.5 -109.5Q209 -122 266 -122Q292 -122 314 -119.5Q336 -117 352.5 -110.5Q369 -104 378.5 -93.5Q388 -83 388 -67Q388 -41 363.5 -32Q339 -23 289 -21Z" glyph-name="g" horiz-adv-x="547" unicode="g" /><glyph d="M394 80Q374 51 337 29Q300 7 243 7Q199 7 161 23.5Q123 40 94.5 70.5Q66 101 50 144.5Q34 188 34 243Q34 300 50.5 345.5Q67 391 96.5 423.5Q126 456 165.5 473Q205 490 250 490Q301 490 340.5 469.5Q380 449 399 411V476H538V34Q538 -90 473.5 -152Q409 -214 272 -214Q226 -214 190.5 -205Q155 -196 128.5 -179.5Q102 -163 84 -141.5Q66 -120 55 -94L187 -46Q199 -75 218.5 -90.5Q238 -106 279 -106Q315 -106 337.5 -93Q360 -80 372.5 -60Q385 -40 389.5 -15Q394 10 394 34ZM395 253Q395 287 385 311Q375 335 359.5 350Q344 365 325 372Q306 379 288 379Q238 379 209.5 340Q181 301 181 243Q181 189 208 153Q235 117 283 117Q302 117 322 124Q342 131 358 146.5Q374 162 384.5 186Q395 210 395 243Z" glyph-name="g.school" horiz-adv-x="602" unicode="&#57697;" /><glyph d="M310 322H578V0H452V62Q437 31 396 8.5Q355 -14 298 -14Q240 -14 193.5 9Q147 32 114.5 72Q82 112 64.5 167Q47 222 47 285Q47 349 66.5 402.5Q86 456 123.5 495Q161 534 215 555.5Q269 577 338 577Q423 577 488 541.5Q553 506 582 432L454 378Q439 420 406.5 439.5Q374 459 333 459Q270 459 233 414Q196 369 196 275Q196 191 228.5 147.5Q261 104 324 104Q344 104 365.5 109Q387 114 405 125Q423 136 434.5 152Q446 168 446 191V211H310Z" glyph-name="g.smcp" horiz-adv-x="645" unicode="&#57863;" /><glyph d="M345 539Q338 545 327 545Q319 545 312 540Q329 520 329 486Q329 460 317.5 440Q306 420 286.5 406Q267 392 242 385Q217 378 191 378Q174 378 166.5 380Q159 382 151 382Q142 382 136.5 377.5Q131 373 131 367Q131 358 139 354Q147 350 160.5 348.5Q174 347 191.5 346.5Q209 346 229 344Q248 342 269.5 338Q291 334 309 324Q327 314 339 296.5Q351 279 351 251Q351 226 338 207.5Q325 189 302 176.5Q279 164 248.5 158Q218 152 184 152Q118 152 75.5 173Q33 194 33 239Q33 258 43 274Q53 290 76 300Q58 310 50.5 327Q43 344 43 358Q43 395 87 412Q69 426 60 445.5Q51 465 51 486Q51 514 63 535Q75 556 94 570.5Q113 585 137 592.5Q161 600 185 600Q206 600 223 595Q240 590 254 585Q269 597 283 601.5Q297 606 316 606Q332 606 343 603.5Q354 601 364 597ZM145 488Q145 464 157.5 453Q170 442 190 442Q210 442 222.5 453Q235 464 235 488Q235 514 222.5 525.5Q210 537 190 537Q170 537 157.5 525.5Q145 514 145 488ZM206 272Q186 273 164 274.5Q142 276 131 278Q120 273 118 262.5Q116 252 116 247Q116 215 189 215Q220 215 241 221Q262 227 262 245Q262 261 247.5 266Q233 271 206 272Z" glyph-name="g.superior" horiz-adv-x="380" unicode="&#58215;" /><glyph d="M265 339Q253 321 229 306.5Q205 292 169 292Q142 292 118 302.5Q94 313 76 332.5Q58 352 47.5 379.5Q37 407 37 442Q37 478 47.5 507.5Q58 537 77 557.5Q96 578 120.5 589Q145 600 174 600Q205 600 231 587.5Q257 575 269 550V591H365V309Q365 230 322.5 191Q280 152 191 152Q130 152 97.5 174.5Q65 197 51 228L143 261Q151 244 162 235Q173 226 196 226Q218 226 232 234Q246 242 253 254.5Q260 267 262.5 282Q265 297 265 310ZM266 448Q266 490 245 507Q224 524 203 524Q173 524 156 500.5Q139 477 139 442Q139 410 155 389Q171 368 199 368Q210 368 222 372Q234 376 243.5 385Q253 394 259.5 408.5Q266 423 266 443Z" glyph-name="g.superiorschool" horiz-adv-x="424" /><glyph d="M196 704Q200 677 219 658Q238 639 267 639Q296 639 315 658Q334 677 338 704L440 676Q427 619 381 584Q335 549 267 549Q199 549 153 584Q107 619 94 676ZM510 401Q497 411 480 411Q471 411 464 408.5Q457 406 452 402Q466 385 473.5 361.5Q481 338 481 312Q481 271 463 240Q445 209 415.5 187Q386 165 348 154Q310 143 269 143Q241 143 228 146.5Q215 150 204 150Q190 150 179.5 142.5Q169 135 169 122Q169 109 180.5 102.5Q192 96 212.5 93Q233 90 261 89Q289 88 322 85Q356 82 390.5 75Q425 68 453 53Q481 38 499 12Q517 -14 517 -57Q517 -98 496.5 -127.5Q476 -157 441 -176Q406 -195 359 -204.5Q312 -214 259 -214Q208 -214 165.5 -206Q123 -198 92 -181.5Q61 -165 43.5 -139Q26 -113 26 -78Q26 -47 42.5 -20.5Q59 6 94 20Q65 35 53.5 60Q42 85 42 108Q42 135 60 157.5Q78 180 110 194Q54 239 54 312Q54 355 72 388.5Q90 422 119.5 444.5Q149 467 186 478.5Q223 490 261 490Q294 490 321 482.5Q348 475 370 466Q392 484 414 492Q436 500 467 500Q490 500 506.5 496Q523 492 537 486ZM190 315Q190 273 212 254Q234 235 268 235Q302 235 323.5 254Q345 273 345 315Q345 357 323.5 377.5Q302 398 268 398Q234 398 212 377.5Q190 357 190 315ZM289 -21Q256 -19 224 -16.5Q192 -14 174 -11Q156 -20 151 -37Q146 -54 146 -66Q146 -97 177.5 -109.5Q209 -122 266 -122Q292 -122 314 -119.5Q336 -117 352.5 -110.5Q369 -104 378.5 -93.5Q388 -83 388 -67Q388 -41 363.5 -32Q339 -23 289 -21Z" glyph-name="gbreve" horiz-adv-x="547" unicode="&#287;" /><glyph d="M199 704Q203 677 222 658Q241 639 270 639Q299 639 318 658Q337 677 341 704L443 676Q430 619 384 584Q338 549 270 549Q202 549 156 584Q110 619 97 676ZM394 80Q374 51 337 29Q300 7 243 7Q199 7 161 23.5Q123 40 94.5 70.5Q66 101 50 144.5Q34 188 34 243Q34 300 50.5 345.5Q67 391 96.5 423.5Q126 456 165.5 473Q205 490 250 490Q301 490 340.5 469.5Q380 449 399 411V476H538V34Q538 -90 473.5 -152Q409 -214 272 -214Q226 -214 190.5 -205Q155 -196 128.5 -179.5Q102 -163 84 -141.5Q66 -120 55 -94L187 -46Q199 -75 218.5 -90.5Q238 -106 279 -106Q315 -106 337.5 -93Q360 -80 372.5 -60Q385 -40 389.5 -15Q394 10 394 34ZM395 253Q395 287 385 311Q375 335 359.5 350Q344 365 325 372Q306 379 288 379Q238 379 209.5 340Q181 301 181 243Q181 189 208 153Q235 117 283 117Q302 117 322 124Q342 131 358 146.5Q374 162 384.5 186Q395 210 395 243Z" glyph-name="gbreve.school" horiz-adv-x="602" unicode="&#57702;" /><glyph d="M264 771Q268 744 287 725Q306 706 335 706Q364 706 383 725Q402 744 406 771L508 743Q495 686 449 651Q403 616 335 616Q267 616 221 651Q175 686 162 743ZM310 322H578V0H452V62Q437 31 396 8.5Q355 -14 298 -14Q240 -14 193.5 9Q147 32 114.5 72Q82 112 64.5 167Q47 222 47 285Q47 349 66.5 402.5Q86 456 123.5 495Q161 534 215 555.5Q269 577 338 577Q423 577 488 541.5Q553 506 582 432L454 378Q439 420 406.5 439.5Q374 459 333 459Q270 459 233 414Q196 369 196 275Q196 191 228.5 147.5Q261 104 324 104Q344 104 365.5 109Q387 114 405 125Q423 136 434.5 152Q446 168 446 191V211H310Z" glyph-name="gbreve.smcp" horiz-adv-x="645" unicode="&#57934;" /><glyph d="M220 718H313L432 591L363 528L265 632L169 528L102 591ZM510 401Q497 411 480 411Q471 411 464 408.5Q457 406 452 402Q466 385 473.5 361.5Q481 338 481 312Q481 271 463 240Q445 209 415.5 187Q386 165 348 154Q310 143 269 143Q241 143 228 146.5Q215 150 204 150Q190 150 179.5 142.5Q169 135 169 122Q169 109 180.5 102.5Q192 96 212.5 93Q233 90 261 89Q289 88 322 85Q356 82 390.5 75Q425 68 453 53Q481 38 499 12Q517 -14 517 -57Q517 -98 496.5 -127.5Q476 -157 441 -176Q406 -195 359 -204.5Q312 -214 259 -214Q208 -214 165.5 -206Q123 -198 92 -181.5Q61 -165 43.5 -139Q26 -113 26 -78Q26 -47 42.5 -20.5Q59 6 94 20Q65 35 53.5 60Q42 85 42 108Q42 135 60 157.5Q78 180 110 194Q54 239 54 312Q54 355 72 388.5Q90 422 119.5 444.5Q149 467 186 478.5Q223 490 261 490Q294 490 321 482.5Q348 475 370 466Q392 484 414 492Q436 500 467 500Q490 500 506.5 496Q523 492 537 486ZM190 315Q190 273 212 254Q234 235 268 235Q302 235 323.5 254Q345 273 345 315Q345 357 323.5 377.5Q302 398 268 398Q234 398 212 377.5Q190 357 190 315ZM289 -21Q256 -19 224 -16.5Q192 -14 174 -11Q156 -20 151 -37Q146 -54 146 -66Q146 -97 177.5 -109.5Q209 -122 266 -122Q292 -122 314 -119.5Q336 -117 352.5 -110.5Q369 -104 378.5 -93.5Q388 -83 388 -67Q388 -41 363.5 -32Q339 -23 289 -21Z" glyph-name="gcircumflex" horiz-adv-x="547" unicode="&#285;" /><glyph d="M233 718H326L445 591L376 528L278 632L182 528L115 591ZM394 80Q374 51 337 29Q300 7 243 7Q199 7 161 23.5Q123 40 94.5 70.5Q66 101 50 144.5Q34 188 34 243Q34 300 50.5 345.5Q67 391 96.5 423.5Q126 456 165.5 473Q205 490 250 490Q301 490 340.5 469.5Q380 449 399 411V476H538V34Q538 -90 473.5 -152Q409 -214 272 -214Q226 -214 190.5 -205Q155 -196 128.5 -179.5Q102 -163 84 -141.5Q66 -120 55 -94L187 -46Q199 -75 218.5 -90.5Q238 -106 279 -106Q315 -106 337.5 -93Q360 -80 372.5 -60Q385 -40 389.5 -15Q394 10 394 34ZM395 253Q395 287 385 311Q375 335 359.5 350Q344 365 325 372Q306 379 288 379Q238 379 209.5 340Q181 301 181 243Q181 189 208 153Q235 117 283 117Q302 117 322 124Q342 131 358 146.5Q374 162 384.5 186Q395 210 395 243Z" glyph-name="gcircumflex.school" horiz-adv-x="602" unicode="&#57699;" /><glyph d="M286 798H379L498 671L429 608L331 712L235 608L168 671ZM310 322H578V0H452V62Q437 31 396 8.5Q355 -14 298 -14Q240 -14 193.5 9Q147 32 114.5 72Q82 112 64.5 167Q47 222 47 285Q47 349 66.5 402.5Q86 456 123.5 495Q161 534 215 555.5Q269 577 338 577Q423 577 488 541.5Q553 506 582 432L454 378Q439 420 406.5 439.5Q374 459 333 459Q270 459 233 414Q196 369 196 275Q196 191 228.5 147.5Q261 104 324 104Q344 104 365.5 109Q387 114 405 125Q423 136 434.5 152Q446 168 446 191V211H310Z" glyph-name="gcircumflex.smcp" horiz-adv-x="645" unicode="&#57931;" /><glyph d="M181 630Q181 648 186 670.5Q191 693 205.5 714Q220 735 245 751Q270 767 311 772L330 719Q320 719 307.5 715.5Q295 712 284 706Q273 700 265.5 691.5Q258 683 258 672V668Q268 670 274 670Q301 670 322 649.5Q343 629 343 598Q343 585 338.5 572Q334 559 325 548.5Q316 538 301.5 531.5Q287 525 268 525Q245 525 228.5 534Q212 543 201.5 558Q191 573 186 592Q181 611 181 630ZM510 401Q497 411 480 411Q471 411 464 408.5Q457 406 452 402Q466 385 473.5 361.5Q481 338 481 312Q481 271 463 240Q445 209 415.5 187Q386 165 348 154Q310 143 269 143Q241 143 228 146.5Q215 150 204 150Q190 150 179.5 142.5Q169 135 169 122Q169 109 180.5 102.5Q192 96 212.5 93Q233 90 261 89Q289 88 322 85Q356 82 390.5 75Q425 68 453 53Q481 38 499 12Q517 -14 517 -57Q517 -98 496.5 -127.5Q476 -157 441 -176Q406 -195 359 -204.5Q312 -214 259 -214Q208 -214 165.5 -206Q123 -198 92 -181.5Q61 -165 43.5 -139Q26 -113 26 -78Q26 -47 42.5 -20.5Q59 6 94 20Q65 35 53.5 60Q42 85 42 108Q42 135 60 157.5Q78 180 110 194Q54 239 54 312Q54 355 72 388.5Q90 422 119.5 444.5Q149 467 186 478.5Q223 490 261 490Q294 490 321 482.5Q348 475 370 466Q392 484 414 492Q436 500 467 500Q490 500 506.5 496Q523 492 537 486ZM190 315Q190 273 212 254Q234 235 268 235Q302 235 323.5 254Q345 273 345 315Q345 357 323.5 377.5Q302 398 268 398Q234 398 212 377.5Q190 357 190 315ZM289 -21Q256 -19 224 -16.5Q192 -14 174 -11Q156 -20 151 -37Q146 -54 146 -66Q146 -97 177.5 -109.5Q209 -122 266 -122Q292 -122 314 -119.5Q336 -117 352.5 -110.5Q369 -104 378.5 -93.5Q388 -83 388 -67Q388 -41 363.5 -32Q339 -23 289 -21Z" glyph-name="gcommaaccent" horiz-adv-x="547" unicode="&#291;" /><glyph d="M199 630Q199 648 204 670.5Q209 693 223.5 714Q238 735 263 751Q288 767 329 772L348 719Q338 719 325.5 715.5Q313 712 302 706Q291 700 283.5 691.5Q276 683 276 672V668Q286 670 292 670Q319 670 340 649.5Q361 629 361 598Q361 585 356.5 572Q352 559 343 548.5Q334 538 319.5 531.5Q305 525 286 525Q263 525 246.5 534Q230 543 219.5 558Q209 573 204 592Q199 611 199 630ZM394 80Q374 51 337 29Q300 7 243 7Q199 7 161 23.5Q123 40 94.5 70.5Q66 101 50 144.5Q34 188 34 243Q34 300 50.5 345.5Q67 391 96.5 423.5Q126 456 165.5 473Q205 490 250 490Q301 490 340.5 469.5Q380 449 399 411V476H538V34Q538 -90 473.5 -152Q409 -214 272 -214Q226 -214 190.5 -205Q155 -196 128.5 -179.5Q102 -163 84 -141.5Q66 -120 55 -94L187 -46Q199 -75 218.5 -90.5Q238 -106 279 -106Q315 -106 337.5 -93Q360 -80 372.5 -60Q385 -40 389.5 -15Q394 10 394 34ZM395 253Q395 287 385 311Q375 335 359.5 350Q344 365 325 372Q306 379 288 379Q238 379 209.5 340Q181 301 181 243Q181 189 208 153Q235 117 283 117Q302 117 322 124Q342 131 358 146.5Q374 162 384.5 186Q395 210 395 243Z" glyph-name="gcommaaccent.school" horiz-adv-x="602" unicode="&#57704;" /><glyph d="M310 322H578V0H452V62Q437 31 396 8.5Q355 -14 298 -14Q240 -14 193.5 9Q147 32 114.5 72Q82 112 64.5 167Q47 222 47 285Q47 349 66.5 402.5Q86 456 123.5 495Q161 534 215 555.5Q269 577 338 577Q423 577 488 541.5Q553 506 582 432L454 378Q439 420 406.5 439.5Q374 459 333 459Q270 459 233 414Q196 369 196 275Q196 191 228.5 147.5Q261 104 324 104Q344 104 365.5 109Q387 114 405 125Q423 136 434.5 152Q446 168 446 191V211H310ZM397 -158Q397 -176 392 -198.5Q387 -221 372.5 -242Q358 -263 332.5 -279Q307 -295 267 -300L248 -247Q258 -247 270.5 -243.5Q283 -240 294 -234Q305 -228 312.5 -219.5Q320 -211 320 -200V-196Q315 -198 311.5 -198Q308 -198 304 -198Q277 -198 256 -177.5Q235 -157 235 -126Q235 -113 239.5 -100Q244 -87 253 -76.5Q262 -66 276 -59.5Q290 -53 310 -53Q333 -53 349.5 -62Q366 -71 376.5 -86Q387 -101 392 -120Q397 -139 397 -158Z" glyph-name="gcommaaccent.smcp" horiz-adv-x="645" unicode="&#57920;" /><glyph d="M180 622Q180 660 204 683.5Q228 707 266 707Q304 707 328 683.5Q352 660 352 622Q352 587 329.5 563Q307 539 266 539Q225 539 202.5 563Q180 587 180 622ZM510 401Q497 411 480 411Q471 411 464 408.5Q457 406 452 402Q466 385 473.5 361.5Q481 338 481 312Q481 271 463 240Q445 209 415.5 187Q386 165 348 154Q310 143 269 143Q241 143 228 146.5Q215 150 204 150Q190 150 179.5 142.5Q169 135 169 122Q169 109 180.5 102.5Q192 96 212.5 93Q233 90 261 89Q289 88 322 85Q356 82 390.5 75Q425 68 453 53Q481 38 499 12Q517 -14 517 -57Q517 -98 496.5 -127.5Q476 -157 441 -176Q406 -195 359 -204.5Q312 -214 259 -214Q208 -214 165.5 -206Q123 -198 92 -181.5Q61 -165 43.5 -139Q26 -113 26 -78Q26 -47 42.5 -20.5Q59 6 94 20Q65 35 53.5 60Q42 85 42 108Q42 135 60 157.5Q78 180 110 194Q54 239 54 312Q54 355 72 388.5Q90 422 119.5 444.5Q149 467 186 478.5Q223 490 261 490Q294 490 321 482.5Q348 475 370 466Q392 484 414 492Q436 500 467 500Q490 500 506.5 496Q523 492 537 486ZM190 315Q190 273 212 254Q234 235 268 235Q302 235 323.5 254Q345 273 345 315Q345 357 323.5 377.5Q302 398 268 398Q234 398 212 377.5Q190 357 190 315ZM289 -21Q256 -19 224 -16.5Q192 -14 174 -11Q156 -20 151 -37Q146 -54 146 -66Q146 -97 177.5 -109.5Q209 -122 266 -122Q292 -122 314 -119.5Q336 -117 352.5 -110.5Q369 -104 378.5 -93.5Q388 -83 388 -67Q388 -41 363.5 -32Q339 -23 289 -21Z" glyph-name="gdotaccent" horiz-adv-x="547" unicode="&#289;" /><glyph d="M195 622Q195 660 219 683.5Q243 707 281 707Q319 707 343 683.5Q367 660 367 622Q367 587 344.5 563Q322 539 281 539Q240 539 217.5 563Q195 587 195 622ZM394 80Q374 51 337 29Q300 7 243 7Q199 7 161 23.5Q123 40 94.5 70.5Q66 101 50 144.5Q34 188 34 243Q34 300 50.5 345.5Q67 391 96.5 423.5Q126 456 165.5 473Q205 490 250 490Q301 490 340.5 469.5Q380 449 399 411V476H538V34Q538 -90 473.5 -152Q409 -214 272 -214Q226 -214 190.5 -205Q155 -196 128.5 -179.5Q102 -163 84 -141.5Q66 -120 55 -94L187 -46Q199 -75 218.5 -90.5Q238 -106 279 -106Q315 -106 337.5 -93Q360 -80 372.5 -60Q385 -40 389.5 -15Q394 10 394 34ZM395 253Q395 287 385 311Q375 335 359.5 350Q344 365 325 372Q306 379 288 379Q238 379 209.5 340Q181 301 181 243Q181 189 208 153Q235 117 283 117Q302 117 322 124Q342 131 358 146.5Q374 162 384.5 186Q395 210 395 243Z" glyph-name="gdotaccent.school" horiz-adv-x="602" unicode="&#57703;" /><glyph d="M250 702Q250 740 274 763.5Q298 787 336 787Q374 787 398 763.5Q422 740 422 702Q422 667 399.5 643Q377 619 336 619Q295 619 272.5 643Q250 667 250 702ZM310 322H578V0H452V62Q437 31 396 8.5Q355 -14 298 -14Q240 -14 193.5 9Q147 32 114.5 72Q82 112 64.5 167Q47 222 47 285Q47 349 66.5 402.5Q86 456 123.5 495Q161 534 215 555.5Q269 577 338 577Q423 577 488 541.5Q553 506 582 432L454 378Q439 420 406.5 439.5Q374 459 333 459Q270 459 233 414Q196 369 196 275Q196 191 228.5 147.5Q261 104 324 104Q344 104 365.5 109Q387 114 405 125Q423 136 434.5 152Q446 168 446 191V211H310Z" glyph-name="gdotaccent.smcp" horiz-adv-x="645" unicode="&#57935;" /><glyph d="M64 481Q64 528 76 570Q88 612 115 644Q142 676 186 695Q230 714 295 714Q353 714 396.5 698.5Q440 683 469 657Q498 631 512.5 596Q527 561 527 521Q527 466 501 426Q475 386 430 369Q455 363 479 350Q503 337 521 316.5Q539 296 550 266.5Q561 237 561 197Q561 147 544 107.5Q527 68 497 41Q467 14 426.5 0Q386 -14 339 -14Q310 -14 291 -9.5Q272 -5 257 2V114Q271 105 290.5 101Q310 97 325 97Q364 97 390.5 123.5Q417 150 417 201Q417 253 386.5 282.5Q356 312 303 312Q298 312 293 311.5Q288 311 285 311H278V421Q280 420 284 420H301Q344 420 364.5 448Q385 476 385 514Q385 556 362 580Q339 604 297 604Q271 604 254 594.5Q237 585 226.5 568Q216 551 211.5 528.5Q207 506 207 481V0H64Z" glyph-name="germandbls" horiz-adv-x="595" unicode="&#223;" /><glyph d="M166 643 225 747 438 609 394 532Z" glyph-name="grave" horiz-adv-x="600" unicode="`" /><glyph d="M166 859 225 963 438 825 394 748Z" glyph-name="grave.cap" horiz-adv-x="600" unicode="&#58401;" /><glyph d="M53 49V180L409 325L53 472V604L551 388V264Z" glyph-name="greater" horiz-adv-x="600" unicode="&gt;" /><glyph d="M53 83V214L409 359L53 506V638L551 422V298Z" glyph-name="greater.cap" horiz-adv-x="600" unicode="&#58775;" /><glyph d="M51 164V289L416 404L51 519V645L549 474V338ZM549 0H51V114H549Z" glyph-name="greaterequal" horiz-adv-x="600" unicode="&#8805;" /><glyph d="M261 256 451 493 535 429 406 256 535 83 451 19ZM24 256 214 493 298 429 169 256 298 83 214 19Z" glyph-name="guillemotleft" horiz-adv-x="563" unicode="&#171;" /><glyph d="M261 326 451 563 535 499 406 326 535 153 451 89ZM24 326 214 563 298 499 169 326 298 153 214 89Z" glyph-name="guillemotleft.cap" horiz-adv-x="563" unicode="&#58451;" /><glyph d="M539 256 349 19 265 83 394 256 265 429 349 493ZM302 256 112 19 28 83 157 256 28 429 112 493Z" glyph-name="guillemotright" horiz-adv-x="563" unicode="&#187;" /><glyph d="M539 326 349 89 265 153 394 326 265 499 349 563ZM302 326 112 89 28 153 157 326 28 499 112 563Z" glyph-name="guillemotright.cap" horiz-adv-x="563" unicode="&#58452;" /><glyph d="M24 256 214 493 298 429 169 256 298 83 214 19Z" glyph-name="guilsinglleft" horiz-adv-x="326" unicode="&#8249;" /><glyph d="M24 326 214 563 298 499 169 326 298 153 214 89Z" glyph-name="guilsinglleft.cap" horiz-adv-x="326" unicode="&#58449;" /><glyph d="M302 256 112 19 28 83 157 256 28 429 112 493Z" glyph-name="guilsinglright" horiz-adv-x="326" unicode="&#8250;" /><glyph d="M302 326 112 89 28 153 157 326 28 499 112 563Z" glyph-name="guilsinglright.cap" horiz-adv-x="326" unicode="&#58450;" /><glyph d="M64 700H208V411Q215 425 227.5 439Q240 453 258 464.5Q276 476 299.5 483Q323 490 352 490Q387 490 417.5 480Q448 470 471 449.5Q494 429 507 398.5Q520 368 520 328V0H376V285Q376 334 354 353Q332 372 301 372Q283 372 266.5 364.5Q250 357 237 341.5Q224 326 216 302Q208 278 208 245V0H64Z" glyph-name="h" horiz-adv-x="580" unicode="h" /><glyph d="M72 564H214V349H406V564H548V0H406V230H214V0H72Z" glyph-name="h.smcp" horiz-adv-x="620" unicode="&#57864;" /><glyph d="M59 733H159V550Q167 567 190 583.5Q213 600 251 600Q296 600 327 574Q358 548 358 496V288H258V465Q258 495 245.5 506.5Q233 518 214 518Q193 518 176 500.5Q159 483 159 442V288H59Z" glyph-name="h.superior" horiz-adv-x="414" unicode="&#58216;" /><glyph d="M208 543V411Q215 425 227.5 439Q240 453 258 464.5Q276 476 299.5 483Q323 490 352 490Q387 490 417.5 480Q448 470 471 449.5Q494 429 507 398.5Q520 368 520 328V0H376V285Q376 334 354 353Q332 372 301 372Q283 372 266.5 364.5Q250 357 237 341.5Q224 326 216 302Q208 278 208 245V0H64V543H5V645H64V700H208V645H356V543Z" glyph-name="hbar" horiz-adv-x="580" unicode="&#295;" /><glyph d="M601 405H548V0H406V230H214V0H72V405H20V497H72V564H214V497H406V564H548V497H601ZM406 349V405H214V349Z" glyph-name="hbar.smcp" horiz-adv-x="620" unicode="&#57943;" /><glyph d="M76 925H188L303 810L237 745L132 849L28 745L-38 810ZM64 700H208V411Q215 425 227.5 439Q240 453 258 464.5Q276 476 299.5 483Q323 490 352 490Q387 490 417.5 480Q448 470 471 449.5Q494 429 507 398.5Q520 368 520 328V0H376V285Q376 334 354 353Q332 372 301 372Q283 372 266.5 364.5Q250 357 237 341.5Q224 326 216 302Q208 278 208 245V0H64Z" glyph-name="hcircumflex" horiz-adv-x="580" unicode="&#293;" /><glyph d="M264 798H357L476 671L407 608L309 712L213 608L146 671ZM72 564H214V349H406V564H548V0H406V230H214V0H72Z" glyph-name="hcircumflex.smcp" horiz-adv-x="620" unicode="&#57939;" /><glyph d="M566 669 351 532 299 603 496 765ZM296 669 81 532 29 603 226 765Z" glyph-name="hungarumlaut" horiz-adv-x="600" unicode="&#733;" /><glyph d="M566 885 351 748 299 819 496 981ZM296 885 81 748 29 819 226 981Z" glyph-name="hungarumlaut.cap" horiz-adv-x="600" unicode="&#58411;" /><glyph d="M54 342H329V235H54Z" glyph-name="hyphen" horiz-adv-x="383" unicode="-" /><glyph d="M54 414H329V307H54Z" glyph-name="hyphen.cap" horiz-adv-x="383" unicode="&#58498;" /><glyph d="M50 629Q50 667 74 690.5Q98 714 136 714Q174 714 198 690.5Q222 667 222 629Q222 594 199.5 570Q177 546 136 546Q95 546 72.5 570Q50 594 50 629ZM64 476H208V0H64Z" glyph-name="i" horiz-adv-x="272" unicode="i" /><glyph d="M72 564H214V0H72Z" glyph-name="i.smcp" horiz-adv-x="286" unicode="&#57865;" /><glyph d="M111 627Q83 627 67.5 643.5Q52 660 52 684Q52 710 68.5 726Q85 742 111 742Q137 742 153.5 726Q170 710 170 684Q170 660 154.5 643.5Q139 627 111 627ZM161 591V288H61V591Z" glyph-name="i.superior" horiz-adv-x="221" unicode="&#58217;" /><glyph d="M270 643 42 532 -2 609 211 747ZM64 476H208V0H64Z" glyph-name="iacute" horiz-adv-x="272" unicode="&#237;" /><glyph d="M275 721 47 610 3 687 216 825ZM72 564H214V0H72Z" glyph-name="iacute.smcp" horiz-adv-x="286" unicode="&#57944;" /><glyph d="M65 704Q69 677 88 658Q107 639 136 639Q165 639 184 658Q203 677 207 704L309 676Q296 619 250 584Q204 549 136 549Q68 549 22 584Q-24 619 -37 676ZM64 476H208V0H64Z" glyph-name="ibreve" horiz-adv-x="272" unicode="&#301;" /><glyph d="M72 771Q76 744 95 725Q114 706 143 706Q172 706 191 725Q210 744 214 771L316 743Q303 686 257 651Q211 616 143 616Q75 616 29 651Q-17 686 -30 743ZM72 564H214V0H72Z" glyph-name="ibreve.smcp" horiz-adv-x="286" unicode="&#57951;" /><glyph d="M88 718H181L300 591L231 528L133 632L37 528L-30 591ZM64 476H208V0H64Z" glyph-name="icircumflex" horiz-adv-x="272" unicode="&#238;" /><glyph d="M97 798H190L309 671L240 608L142 712L46 608L-21 671ZM72 564H214V0H72Z" glyph-name="icircumflex.smcp" horiz-adv-x="286" unicode="&#57946;" /><glyph d="M167 613Q167 645 188.5 666Q210 687 244 687Q278 687 299.5 666Q321 645 321 613Q321 581 299.5 560Q278 539 244 539Q210 539 188.5 560Q167 581 167 613ZM-49 613Q-49 645 -27.5 666Q-6 687 28 687Q62 687 83.5 666Q105 645 105 613Q105 581 83.5 560Q62 539 28 539Q-6 539 -27.5 560Q-49 581 -49 613ZM64 476H208V0H64Z" glyph-name="idieresis" horiz-adv-x="272" unicode="&#239;" /><glyph d="M174 696Q174 728 195.5 749Q217 770 251 770Q285 770 306.5 749Q328 728 328 696Q328 664 306.5 643Q285 622 251 622Q217 622 195.5 643Q174 664 174 696ZM-42 696Q-42 728 -20.5 749Q1 770 35 770Q69 770 90.5 749Q112 728 112 696Q112 664 90.5 643Q69 622 35 622Q1 622 -20.5 643Q-42 664 -42 696ZM72 564H214V0H72Z" glyph-name="idieresis.smcp" horiz-adv-x="286" unicode="&#57947;" /><glyph d="M50 629Q50 667 74 690.5Q98 714 136 714Q174 714 198 690.5Q222 667 222 629Q222 594 199.5 570Q177 546 136 546Q95 546 72.5 570Q50 594 50 629ZM64 476H208V0H64Z" glyph-name="idotaccent" horiz-adv-x="272" unicode="&#59269;" /><glyph d="M57 702Q57 740 81 763.5Q105 787 143 787Q181 787 205 763.5Q229 740 229 702Q229 667 206.5 643Q184 619 143 619Q102 619 79.5 643Q57 667 57 702ZM72 564H214V0H72Z" glyph-name="idotaccent.smcp" horiz-adv-x="286" unicode="&#57954;" /><glyph d="M2 643 61 747 274 609 230 532ZM64 476H208V0H64Z" glyph-name="igrave" horiz-adv-x="272" unicode="&#236;" /><glyph d="M10 721 69 825 282 687 238 610ZM72 564H214V0H72Z" glyph-name="igrave.smcp" horiz-adv-x="286" unicode="&#57945;" /><glyph d="M327 629Q327 667 351 690.5Q375 714 413 714Q451 714 475 690.5Q499 667 499 629Q499 594 476.5 570Q454 546 413 546Q372 546 349.5 570Q327 594 327 629ZM50 629Q50 667 74 690.5Q98 714 136 714Q174 714 198 690.5Q222 667 222 629Q222 594 199.5 570Q177 546 136 546Q95 546 72.5 570Q50 594 50 629ZM485 -32Q485 -84 467.5 -119Q450 -154 422.5 -175Q395 -196 362 -205Q329 -214 299 -214Q264 -214 230.5 -203.5Q197 -193 174 -177L229 -73Q240 -82 255.5 -90Q271 -98 290 -98Q311 -98 326 -81.5Q341 -65 341 -23V476H485ZM64 476H208V0H64Z" glyph-name="ij" horiz-adv-x="549" unicode="&#307;" /><glyph d="M450 105Q479 105 490 124.5Q501 144 501 184V564H643V184Q643 135 633.5 98Q624 61 601.5 36Q579 11 542.5 -1.5Q506 -14 453 -14Q385 -14 343 6.5Q301 27 277 56L375 148Q392 129 409.5 117Q427 105 450 105ZM72 564H214V0H72Z" glyph-name="ij.smcp" horiz-adv-x="711" unicode="&#58151;" /><glyph d="M-8 641H281V550H-8ZM64 476H208V0H64Z" glyph-name="imacron" horiz-adv-x="272" unicode="&#299;" /><glyph d="M-1 710H288V619H-1ZM72 564H214V0H72Z" glyph-name="imacron.smcp" horiz-adv-x="286" unicode="&#57950;" /><glyph d="M766 326Q766 276 750 239Q734 202 707 177.5Q680 153 645 141Q610 129 573 129Q519 129 479.5 153.5Q440 178 402 229Q364 178 324.5 153.5Q285 129 231 129Q194 129 159 141Q124 153 97 177.5Q70 202 54 239Q38 276 38 326Q38 376 54 413Q70 450 97 474.5Q124 499 159 511Q194 523 231 523Q285 523 324.5 498.5Q364 474 402 423Q440 474 479.5 498.5Q519 523 573 523Q610 523 645 511Q680 499 707 474.5Q734 450 750 413Q766 376 766 326ZM464 326Q484 286 508.5 261.5Q533 237 567 237Q598 237 621 258.5Q644 280 644 326Q644 372 621 393.5Q598 415 567 415Q533 415 508.5 390.5Q484 366 464 326ZM160 326Q160 280 183 258.5Q206 237 237 237Q271 237 295.5 261.5Q320 286 340 326Q320 366 295.5 390.5Q271 415 237 415Q206 415 183 393.5Q160 372 160 326Z" glyph-name="infinity" horiz-adv-x="804" unicode="&#8734;" /><glyph d="M128 531Q128 581 144 616Q160 651 185.5 672.5Q211 694 243.5 704Q276 714 309 714Q348 714 378.5 702Q409 690 432 674L378 571Q369 581 354.5 590Q340 599 322 599Q296 599 283 577Q270 555 270 516V31Q270 -19 254 -54Q238 -89 212.5 -111Q187 -133 154.5 -142.5Q122 -152 89 -152Q49 -152 18.5 -140.5Q-12 -129 -35 -113L20 -9Q29 -19 43.5 -28Q58 -37 76 -37Q102 -37 115 -15Q128 7 128 46Z" glyph-name="integral" horiz-adv-x="398" unicode="&#8747;" /><glyph d="M463 391Q442 371 418 355Q394 339 373 324.5Q352 310 338 294Q324 278 323 258L322 227H223V591Q197 574 183.5 541Q170 508 165 470L25 494Q33 540 52 580.5Q71 621 102 650.5Q133 680 176.5 697Q220 714 278 714Q338 714 382.5 696Q427 678 456.5 648.5Q486 619 500 582.5Q514 546 514 509Q514 469 499.5 440.5Q485 412 463 391ZM371 508Q371 535 359.5 557Q348 579 328 592L324 418Q342 433 356.5 453Q371 473 371 508ZM188 76Q188 114 212 137.5Q236 161 274 161Q312 161 336 137.5Q360 114 360 76Q360 40 336 15Q312 -10 274 -10Q236 -10 212 15Q188 40 188 76Z" glyph-name="interrobang" horiz-adv-x="540" unicode="&#8253;" /><glyph d="M352 424Q352 386 328 362.5Q304 339 266 339Q228 339 204 362.5Q180 386 180 424Q180 460 204 485Q228 510 266 510Q304 510 328 485Q352 460 352 424ZM77 109Q98 129 122 145Q146 161 167 175.5Q188 190 202 206Q216 222 217 242L218 273H317V-91Q343 -74 356.5 -41Q370 -8 375 30L515 6Q507 -41 488 -81Q469 -121 438 -150.5Q407 -180 363.5 -197Q320 -214 262 -214Q202 -214 157.5 -196Q113 -178 83.5 -148.5Q54 -119 40 -82.5Q26 -46 26 -9Q26 31 40.5 59.5Q55 88 77 109ZM169 -8Q169 -35 180.5 -57Q192 -79 212 -92L216 82Q198 67 183.5 47Q169 27 169 -8Z" glyph-name="interrobangdown" horiz-adv-x="540" unicode="&#59701;" /><glyph d="M352 624Q352 586 328 562.5Q304 539 266 539Q228 539 204 562.5Q180 586 180 624Q180 660 204 685Q228 710 266 710Q304 710 328 685Q352 660 352 624ZM77 309Q98 329 122 345Q146 361 167 375.5Q188 390 202 406Q216 422 217 442L218 473H317V109Q343 126 356.5 159Q370 192 375 230L515 206Q507 159 488 119Q469 79 438 49.5Q407 20 363.5 3Q320 -14 262 -14Q202 -14 157.5 4Q113 22 83.5 51.5Q54 81 40 117.5Q26 154 26 191Q26 231 40.5 259.5Q55 288 77 309ZM169 192Q169 165 180.5 143Q192 121 212 108L216 282Q198 267 183.5 247Q169 227 169 192Z" glyph-name="interrobangdown.cap" horiz-adv-x="540" unicode="&#59803;" /><glyph d="M50 629Q50 667 74 690.5Q98 714 136 714Q174 714 198 690.5Q222 667 222 629Q222 594 199.5 570Q177 546 136 546Q95 546 72.5 570Q50 594 50 629ZM64 476H208V0Q154 -22 129.5 -46Q105 -70 105 -93Q105 -108 116 -117.5Q127 -127 150 -127Q166 -127 180 -119.5Q194 -112 211 -86L272 -139Q242 -176 209.5 -192.5Q177 -209 135 -209Q108 -209 84.5 -203Q61 -197 43.5 -184Q26 -171 15.5 -151.5Q5 -132 5 -105Q5 -71 20 -47Q35 -23 64 0Z" glyph-name="iogonek" horiz-adv-x="272" unicode="&#303;" /><glyph d="M110 -93Q110 -108 121 -117.5Q132 -127 155 -127Q171 -127 185 -119.5Q199 -112 216 -86L277 -139Q247 -176 214.5 -192.5Q182 -209 140 -209Q113 -209 89.5 -203Q66 -197 48.5 -184Q31 -171 20.5 -151.5Q10 -132 10 -105Q10 -71 26 -47Q42 -23 72 0V564H214V0Q110 -49 110 -93Z" glyph-name="iogonek.smcp" horiz-adv-x="286" unicode="&#63054;" /><glyph d="M59 690Q87 690 107.5 681Q128 672 144.5 661.5Q161 651 175.5 642.5Q190 634 206 634Q221 634 232 642Q243 650 250 660Q258 671 263 687L332 628Q320 603 302 585Q286 569 261.5 556Q237 543 202 543Q174 543 154.5 551.5Q135 560 119 570.5Q103 581 88.5 589.5Q74 598 57 598Q40 598 29 590Q18 582 11 572Q3 561 -2 547L-71 607Q-59 630 -41 648Q-25 664 -0.5 677Q24 690 59 690ZM64 476H208V0H64Z" glyph-name="itilde" horiz-adv-x="272" unicode="&#297;" /><glyph d="M71 767Q99 767 119.5 758Q140 749 156.5 738.5Q173 728 187.5 719.5Q202 711 218 711Q233 711 244 719Q255 727 262 737Q270 748 275 764L344 705Q332 680 314 662Q298 646 273.5 633Q249 620 214 620Q186 620 166.5 628.5Q147 637 131 647.5Q115 658 100.5 666.5Q86 675 69 675Q52 675 41 667Q30 659 23 649Q15 638 10 624L-59 684Q-47 707 -29 725Q-13 741 11.5 754Q36 767 71 767ZM72 564H214V0H72Z" glyph-name="itilde.smcp" horiz-adv-x="286" unicode="&#57948;" /><glyph d="M55 629Q55 667 79 690.5Q103 714 141 714Q179 714 203 690.5Q227 667 227 629Q227 594 204.5 570Q182 546 141 546Q100 546 77.5 570Q55 594 55 629ZM213 -32Q213 -84 195.5 -119Q178 -154 150.5 -175Q123 -196 90 -205Q57 -214 27 -214Q-8 -214 -41.5 -203.5Q-75 -193 -98 -177L-43 -73Q-32 -82 -16.5 -90Q-1 -98 18 -98Q39 -98 54 -81.5Q69 -65 69 -23V476H213Z" glyph-name="j" horiz-adv-x="277" unicode="j" /><glyph d="M177 105Q206 105 217 124.5Q228 144 228 184V564H370V184Q370 135 360.5 98Q351 61 328.5 36Q306 11 269.5 -1.5Q233 -14 180 -14Q112 -14 70 6.5Q28 27 4 56L102 148Q119 129 136.5 117Q154 105 177 105Z" glyph-name="j.smcp" horiz-adv-x="438" unicode="&#57866;" /><glyph d="M61 683Q61 710 77.5 726Q94 742 120 742Q146 742 162.5 726Q179 710 179 683Q179 660 163.5 643.5Q148 627 120 627Q92 627 76.5 643.5Q61 660 61 683ZM170 272Q170 237 158 214Q146 191 128 177.5Q110 164 88 158Q66 152 46 152Q23 152 0.5 159Q-22 166 -36 176L2 248Q8 242 18 237Q28 232 40 232Q51 232 60.5 241.5Q70 251 70 278V591H170Z" glyph-name="j.superior" horiz-adv-x="230" unicode="&#58218;" /><glyph d="M93 718H186L305 591L236 528L138 632L42 528L-25 591ZM213 -34Q213 -86 195.5 -121Q178 -156 150.5 -177Q123 -198 90 -207Q57 -216 27 -216Q-8 -216 -41.5 -206Q-75 -196 -100 -181L-43 -71Q-32 -80 -16.5 -88Q-1 -96 18 -96Q39 -96 54 -80.5Q69 -65 69 -25V476H213Z" glyph-name="jcircumflex" horiz-adv-x="277" unicode="&#309;" /><glyph d="M251 798H344L463 671L394 608L296 712L200 608L133 671ZM177 105Q206 105 217 124.5Q228 144 228 184V564H370V184Q370 135 360.5 98Q351 61 328.5 36Q306 11 269.5 -1.5Q233 -14 180 -14Q112 -14 70 6.5Q28 27 4 56L102 148Q119 129 136.5 117Q154 105 177 105Z" glyph-name="jcircumflex.smcp" horiz-adv-x="438" unicode="&#63027;" /><glyph d="M249 213 208 176V0H64V700H208V324L373 476H540L351 301L561 0H394Z" glyph-name="k" horiz-adv-x="565" unicode="k" /><glyph d="M256 228 214 183V0H72V564H214V364L384 564H547L352 336L570 0H399Z" glyph-name="k.smcp" horiz-adv-x="581" unicode="&#57867;" /><glyph d="M183 419 159 397V288H59V733H159V501L259 591H374L254 480L386 288H271Z" glyph-name="k.superior" horiz-adv-x="400" unicode="&#58219;" /><glyph d="M249 213 208 176V0H64V700H208V324L373 476H540L351 301L561 0H394ZM371 -158Q371 -176 366 -198.5Q361 -221 346.5 -242Q332 -263 306.5 -279Q281 -295 241 -300L222 -247Q232 -247 244.5 -243.5Q257 -240 268 -234Q279 -228 286.5 -219.5Q294 -211 294 -200V-196Q289 -198 285.5 -198Q282 -198 278 -198Q251 -198 230 -177.5Q209 -157 209 -126Q209 -113 213.5 -100Q218 -87 227 -76.5Q236 -66 250 -59.5Q264 -53 284 -53Q307 -53 323.5 -62Q340 -71 350.5 -86Q361 -101 366 -120Q371 -139 371 -158Z" glyph-name="kcommaaccent" horiz-adv-x="565" unicode="&#311;" /><glyph d="M256 228 214 183V0H72V564H214V364L384 564H547L352 336L570 0H399ZM395 -158Q395 -176 390 -198.5Q385 -221 370.5 -242Q356 -263 330.5 -279Q305 -295 265 -300L246 -247Q256 -247 268.5 -243.5Q281 -240 292 -234Q303 -228 310.5 -219.5Q318 -211 318 -200V-196Q313 -198 309.5 -198Q306 -198 302 -198Q275 -198 254 -177.5Q233 -157 233 -126Q233 -113 237.5 -100Q242 -87 251 -76.5Q260 -66 274 -59.5Q288 -53 308 -53Q331 -53 347.5 -62Q364 -71 374.5 -86Q385 -101 390 -120Q395 -139 395 -158Z" glyph-name="kcommaaccent.smcp" horiz-adv-x="581" unicode="&#57960;" /><glyph d="M249 213 208 176V0H64V476H208V324L373 476H540L351 301L561 0H394Z" glyph-name="kgreenlandic" horiz-adv-x="565" unicode="&#312;" /><glyph d="M64 700H208V0H64Z" glyph-name="l" horiz-adv-x="272" unicode="l" /><glyph d="M72 564H214V119H459V0H72Z" glyph-name="l.smcp" horiz-adv-x="477" unicode="&#57868;" /><glyph d="M59 733H159V288H59Z" glyph-name="l.superior" horiz-adv-x="218" unicode="&#58220;" /><glyph d="M270 859 42 748 -2 825 211 963ZM64 700H208V0H64Z" glyph-name="lacute" horiz-adv-x="272" unicode="&#314;" /><glyph d="M329 721 101 610 57 687 270 825ZM72 564H214V119H459V0H72Z" glyph-name="lacute.smcp" horiz-adv-x="477" unicode="&#57963;" /><glyph d="M419 727 352 531 269 553 312 755ZM64 700H208V0H64Z" glyph-name="lcaron" horiz-adv-x="272" unicode="&#318;" /><glyph d="M428 582 361 386 278 408 321 610ZM72 564H214V119H459V0H72Z" glyph-name="lcaron.smcp" horiz-adv-x="477" unicode="&#57964;" /><glyph d="M64 700H208V0H64ZM219 -158Q219 -176 214 -198.5Q209 -221 194.5 -242Q180 -263 154.5 -279Q129 -295 89 -300L70 -247Q80 -247 92.5 -243.5Q105 -240 116 -234Q127 -228 134.5 -219.5Q142 -211 142 -200V-196Q137 -198 133.5 -198Q130 -198 126 -198Q99 -198 78 -177.5Q57 -157 57 -126Q57 -113 61.5 -100Q66 -87 75 -76.5Q84 -66 98 -59.5Q112 -53 132 -53Q155 -53 171.5 -62Q188 -71 198.5 -86Q209 -101 214 -120Q219 -139 219 -158Z" glyph-name="lcommaaccent" horiz-adv-x="272" unicode="&#316;" /><glyph d="M72 564H214V119H459V0H72ZM362 -158Q362 -176 357 -198.5Q352 -221 337.5 -242Q323 -263 297.5 -279Q272 -295 232 -300L213 -247Q223 -247 235.5 -243.5Q248 -240 259 -234Q270 -228 277.5 -219.5Q285 -211 285 -200V-196Q280 -198 276.5 -198Q273 -198 269 -198Q242 -198 221 -177.5Q200 -157 200 -126Q200 -113 204.5 -100Q209 -87 218 -76.5Q227 -66 241 -59.5Q255 -53 275 -53Q298 -53 314.5 -62Q331 -71 341.5 -86Q352 -101 357 -120Q362 -139 362 -158Z" glyph-name="lcommaaccent.smcp" horiz-adv-x="477" unicode="&#57965;" /><glyph d="M64 700H208V0H64ZM247 349Q247 387 271 410.5Q295 434 333 434Q371 434 395 410.5Q419 387 419 349Q419 314 396.5 290Q374 266 333 266Q292 266 269.5 290Q247 314 247 349Z" glyph-name="ldot" horiz-adv-x="430" unicode="&#320;" /><glyph d="M72 564H214V119H459V0H72ZM267 307Q267 345 291 368.5Q315 392 353 392Q391 392 415 368.5Q439 345 439 307Q439 272 416.5 248Q394 224 353 224Q312 224 289.5 248Q267 272 267 307Z" glyph-name="ldot.smcp" horiz-adv-x="477" unicode="&#57969;" /><glyph d="M547 604V473L191 328L547 181V49L49 265V389Z" glyph-name="less" horiz-adv-x="600" unicode="&lt;" /><glyph d="M547 638V507L191 362L547 215V83L49 299V423Z" glyph-name="less.cap" horiz-adv-x="600" unicode="&#58774;" /><glyph d="M549 645V520L184 405L549 290V164L51 335V471ZM51 114H549V0H51Z" glyph-name="lessequal" horiz-adv-x="600" unicode="&#8804;" /><glyph d="M50 379H550V135H427V262H50Z" glyph-name="logicalnot" horiz-adv-x="600" unicode="&#172;" /><glyph d="M583 350 399 0H244L60 350L244 700H399ZM210 350 322 134 434 350 322 566Z" glyph-name="lozenge" horiz-adv-x="643" unicode="&#9674;" /><glyph d="M249 346V0H105V265L48 233L-4 327L105 388V700H249V469L319 509L370 415Z" glyph-name="lslash" horiz-adv-x="354" unicode="&#322;" /><glyph d="M224 250V119H469V0H82V173L36 148L-14 240L82 292V564H224V369L309 415L358 323Z" glyph-name="lslash.smcp" horiz-adv-x="487" unicode="&#57970;" /><glyph d="M64 476H203V404Q220 439 255 464.5Q290 490 344 490Q394 490 431.5 468.5Q469 447 489 407Q510 438 548.5 464Q587 490 641 490Q674 490 702.5 480Q731 470 753 449.5Q775 429 787.5 399Q800 369 800 329V0H656V286Q656 334 636.5 353Q617 372 590 372Q556 372 530 342Q504 312 504 245V0H360V285Q360 334 340 353Q320 372 293 372Q277 372 261.5 364.5Q246 357 234 341.5Q222 326 215 302Q208 278 208 245V0H64Z" glyph-name="m" horiz-adv-x="860" unicode="m" /><glyph d="M326 0Q315 32 298 82.5Q281 133 262.5 188Q244 243 227.5 296Q211 349 201 385H199V0H72V564H269Q300 465 326 381Q337 345 348 309.5Q359 274 368.5 244Q378 214 384.5 191.5Q391 169 394 159Q396 169 402.5 191.5Q409 214 418 244Q427 274 437.5 309.5Q448 345 459 381Q484 465 514 564H710V0H583V385H581Q574 361 563.5 328Q553 295 541 257.5Q529 220 516 181Q503 142 491.5 107.5Q480 73 470.5 44.5Q461 16 456 0Z" glyph-name="m.smcp" horiz-adv-x="782" unicode="&#57869;" /><glyph d="M59 591H156V545Q166 566 188 583Q210 600 245 600Q277 600 301 586.5Q325 573 338 548Q352 567 376 583.5Q400 600 435 600Q477 600 507 574Q537 548 537 497V288H437V466Q437 495 426 506.5Q415 518 398 518Q379 518 363.5 502Q348 486 348 445V288H248V465Q248 495 236.5 506.5Q225 518 209 518Q190 518 174.5 500.5Q159 483 159 442V288H59Z" glyph-name="m.superior" horiz-adv-x="593" unicode="&#58221;" /><glyph d="M155 641H444V550H155Z" glyph-name="macron" horiz-adv-x="600" unicode="&#175;" /><glyph d="M155 864H444V773H155Z" glyph-name="macron.cap" horiz-adv-x="600" unicode="&#58405;" /><glyph d="M47 238Q47 290 67 336Q87 382 121.5 416Q156 450 201.5 470Q247 490 299 490Q351 490 397.5 470Q444 450 478.5 416Q513 382 533 336Q553 290 553 238Q553 186 533 140Q513 94 478.5 60Q444 26 397.5 6Q351 -14 299 -14Q247 -14 201.5 6Q156 26 121.5 60Q87 94 67 140Q47 186 47 238Z" glyph-name="mediumblackcircle" horiz-adv-x="600" unicode="&#9899;" /><glyph d="M47 238Q47 291 67 337Q87 383 121 417Q155 451 201 470.5Q247 490 300 490Q353 490 399 470.5Q445 451 479.5 417Q514 383 533.5 337Q553 291 553 238Q553 186 533.5 140Q514 94 479.5 60Q445 26 399 6Q353 -14 300 -14Q247 -14 201 6Q155 26 121 60Q87 94 67 140Q47 186 47 238ZM449 238Q449 271 437 300.5Q425 330 405 351.5Q385 373 358 385.5Q331 398 300 398Q269 398 242 385.5Q215 373 194.5 351.5Q174 330 162.5 300.5Q151 271 151 238Q151 205 162.5 175.5Q174 146 194.5 124.5Q215 103 242 90.5Q269 78 300 78Q331 78 358 90.5Q385 103 405 124.5Q425 146 437 175.5Q449 205 449 238Z" glyph-name="mediumwhitecircle" horiz-adv-x="600" unicode="&#9898;" /><glyph d="M50 383H550V269H50Z" glyph-name="minus" horiz-adv-x="600" unicode="&#8722;" /><glyph d="M50 417H600V303H50Z" glyph-name="minus.cap" horiz-adv-x="650" unicode="&#58770;" /><glyph d="M40 43H327V-49H40Z" glyph-name="minus.inf" horiz-adv-x="367" unicode="&#58748;" /><glyph d="M514 0H375V70Q357 36 322 11Q287 -14 235 -14Q221 -14 208 -11V-200H64V476H208V191Q208 142 227.5 123Q247 104 280 104Q297 104 313 111.5Q329 119 342 134.5Q355 150 362.5 174Q370 198 370 231V476H514Z" glyph-name="mu" horiz-adv-x="578" unicode="&#181;" /><glyph d="M461 81 300 242 139 81 58 161 219 322 57 485 138 566 300 404 462 566 543 485 381 322 542 161Z" glyph-name="multiply" horiz-adv-x="600" unicode="&#215;" /><glyph d="M506 98 325 279 144 98 63 178 244 359 62 542 143 623 325 441 507 623 588 542 406 359 587 178Z" glyph-name="multiply.cap" horiz-adv-x="650" unicode="&#58771;" /><glyph d="M64 476H203V403Q221 438 257 464Q293 490 352 490Q387 490 417.5 480Q448 470 471 449.5Q494 429 507 398.5Q520 368 520 328V0H376V285Q376 334 354 353Q332 372 301 372Q283 372 266.5 364.5Q250 357 237 341.5Q224 326 216 302Q208 278 208 245V0H64Z" glyph-name="n" horiz-adv-x="580" unicode="n" /><glyph d="M72 564H212Q258 491 299 425Q317 397 335 367.5Q353 338 370 310Q387 282 401.5 258Q416 234 426 216H428V564H558V0H418Q373 71 332 137Q314 165 296 194.5Q278 224 260.5 251.5Q243 279 228.5 303.5Q214 328 204 346H202V0H72Z" glyph-name="n.smcp" horiz-adv-x="630" unicode="&#57870;" /><glyph d="M59 591H156V544Q167 566 190 583Q213 600 251 600Q296 600 327 574Q358 548 358 496V288H258V465Q258 495 245.5 506.5Q233 518 214 518Q193 518 176 500.5Q159 483 159 442V288H59Z" glyph-name="n.superior" horiz-adv-x="414" unicode="&#8319;" /><glyph d="M450 643 222 532 178 609 391 747ZM64 476H203V403Q221 438 257 464Q293 490 352 490Q387 490 417.5 480Q448 470 471 449.5Q494 429 507 398.5Q520 368 520 328V0H376V285Q376 334 354 353Q332 372 301 372Q283 372 266.5 364.5Q250 357 237 341.5Q224 326 216 302Q208 278 208 245V0H64Z" glyph-name="nacute" horiz-adv-x="580" unicode="&#324;" /><glyph d="M471 721 243 610 199 687 412 825ZM72 564H212Q258 491 299 425Q317 397 335 367.5Q353 338 370 310Q387 282 401.5 258Q416 234 426 216H428V564H558V0H418Q373 71 332 137Q314 165 296 194.5Q278 224 260.5 251.5Q243 279 228.5 303.5Q214 328 204 346H202V0H72Z" glyph-name="nacute.smcp" horiz-adv-x="630" unicode="&#57974;" /><glyph d="M338 534H245L126 661L195 724L293 620L389 724L456 661ZM64 476H203V403Q221 438 257 464Q293 490 352 490Q387 490 417.5 480Q448 470 471 449.5Q494 429 507 398.5Q520 368 520 328V0H376V285Q376 334 354 353Q332 372 301 372Q283 372 266.5 364.5Q250 357 237 341.5Q224 326 216 302Q208 278 208 245V0H64Z" glyph-name="ncaron" horiz-adv-x="580" unicode="&#328;" /><glyph d="M362 612H269L150 739L219 802L317 698L413 802L480 739ZM72 564H212Q258 491 299 425Q317 397 335 367.5Q353 338 370 310Q387 282 401.5 258Q416 234 426 216H428V564H558V0H418Q373 71 332 137Q314 165 296 194.5Q278 224 260.5 251.5Q243 279 228.5 303.5Q214 328 204 346H202V0H72Z" glyph-name="ncaron.smcp" horiz-adv-x="630" unicode="&#57978;" /><glyph d="M64 476H203V403Q221 438 257 464Q293 490 352 490Q387 490 417.5 480Q448 470 471 449.5Q494 429 507 398.5Q520 368 520 328V0H376V285Q376 334 354 353Q332 372 301 372Q283 372 266.5 364.5Q250 357 237 341.5Q224 326 216 302Q208 278 208 245V0H64ZM376 -158Q376 -176 371 -198.5Q366 -221 351.5 -242Q337 -263 311.5 -279Q286 -295 246 -300L227 -247Q237 -247 249.5 -243.5Q262 -240 273 -234Q284 -228 291.5 -219.5Q299 -211 299 -200V-196Q294 -198 290.5 -198Q287 -198 283 -198Q256 -198 235 -177.5Q214 -157 214 -126Q214 -113 218.5 -100Q223 -87 232 -76.5Q241 -66 255 -59.5Q269 -53 289 -53Q312 -53 328.5 -62Q345 -71 355.5 -86Q366 -101 371 -120Q376 -139 376 -158Z" glyph-name="ncommaaccent" horiz-adv-x="580" unicode="&#326;" /><glyph d="M72 564H212Q258 491 299 425Q317 397 335 367.5Q353 338 370 310Q387 282 401.5 258Q416 234 426 216H428V564H558V0H418Q373 71 332 137Q314 165 296 194.5Q278 224 260.5 251.5Q243 279 228.5 303.5Q214 328 204 346H202V0H72ZM406 -158Q406 -176 401 -198.5Q396 -221 381.5 -242Q367 -263 341.5 -279Q316 -295 276 -300L257 -247Q267 -247 279.5 -243.5Q292 -240 303 -234Q314 -228 321.5 -219.5Q329 -211 329 -200V-196Q324 -198 320.5 -198Q317 -198 313 -198Q286 -198 265 -177.5Q244 -157 244 -126Q244 -113 248.5 -100Q253 -87 262 -76.5Q271 -66 285 -59.5Q299 -53 319 -53Q342 -53 358.5 -62Q375 -71 385.5 -86Q396 -101 401 -120Q406 -139 406 -158Z" glyph-name="ncommaaccent.smcp" horiz-adv-x="630" unicode="&#57981;" /><glyph d="M280 98Q315 98 341 116Q367 134 385 163.5Q403 193 413 231Q423 269 426 310Q408 279 370.5 254Q333 229 269 229Q211 229 167.5 249.5Q124 270 95.5 303Q67 336 52.5 378Q38 420 38 464Q38 511 54 553.5Q70 596 101.5 628.5Q133 661 179.5 680.5Q226 700 288 700Q349 700 398.5 680.5Q448 661 483 619Q518 577 537 511.5Q556 446 556 354Q556 264 537 195Q518 126 482 79.5Q446 33 395 9.5Q344 -14 280 -14Q229 -14 190 -0.5Q151 13 123 36.5Q95 60 77.5 90.5Q60 121 53 155L188 175Q191 164 197 150.5Q203 137 213.5 125.5Q224 114 240 106Q256 98 280 98ZM291 340Q317 340 338 349.5Q359 359 373.5 375.5Q388 392 395.5 414Q403 436 403 461Q403 521 373.5 554.5Q344 588 292 588Q244 588 212.5 554.5Q181 521 181 463Q181 437 189 415Q197 393 211.5 376Q226 359 246.5 349.5Q267 340 291 340Z" glyph-name="nine" horiz-adv-x="600" unicode="9" /><glyph d="M280 98Q315 98 341 116Q367 134 385 163.5Q403 193 413 231Q423 269 426 310Q408 279 370.5 254Q333 229 269 229Q211 229 167.5 249.5Q124 270 95.5 303Q67 336 52.5 378Q38 420 38 464Q38 511 54 553.5Q70 596 101.5 628.5Q133 661 179.5 680.5Q226 700 288 700Q349 700 398.5 680.5Q448 661 483 619Q518 577 537 511.5Q556 446 556 354Q556 264 537 195Q518 126 482 79.5Q446 33 395 9.5Q344 -14 280 -14Q229 -14 190 -0.5Q151 13 123 36.5Q95 60 77.5 90.5Q60 121 53 155L188 175Q191 164 197 150.5Q203 137 213.5 125.5Q224 114 240 106Q256 98 280 98ZM291 340Q317 340 338 349.5Q359 359 373.5 375.5Q388 392 395.5 414Q403 436 403 461Q403 521 373.5 554.5Q344 588 292 588Q244 588 212.5 554.5Q181 521 181 463Q181 437 189 415Q197 393 211.5 376Q226 359 246.5 349.5Q267 340 291 340Z" glyph-name="nine.LP" horiz-adv-x="601" unicode="&#58686;" /><glyph d="M280 98Q315 98 341 116Q367 134 385 163.5Q403 193 413 231Q423 269 426 310Q408 279 370.5 254Q333 229 269 229Q211 229 167.5 249.5Q124 270 95.5 303Q67 336 52.5 378Q38 420 38 464Q38 511 54 553.5Q70 596 101.5 628.5Q133 661 179.5 680.5Q226 700 288 700Q349 700 398.5 680.5Q448 661 483 619Q518 577 537 511.5Q556 446 556 354Q556 264 537 195Q518 126 482 79.5Q446 33 395 9.5Q344 -14 280 -14Q229 -14 190 -0.5Q151 13 123 36.5Q95 60 77.5 90.5Q60 121 53 155L188 175Q191 164 197 150.5Q203 137 213.5 125.5Q224 114 240 106Q256 98 280 98ZM291 340Q317 340 338 349.5Q359 359 373.5 375.5Q388 392 395.5 414Q403 436 403 461Q403 521 373.5 554.5Q344 588 292 588Q244 588 212.5 554.5Q181 521 181 463Q181 437 189 415Q197 393 211.5 376Q226 359 246.5 349.5Q267 340 291 340Z" glyph-name="nine.LT" horiz-adv-x="600" unicode="&#58697;" /><glyph d="M278 -25Q313 -25 339 -7Q365 11 383 41Q401 71 411 109.5Q421 148 424 189Q415 173 401.5 158.5Q388 144 368.5 132.5Q349 121 324 114Q299 107 267 107Q209 107 166 127.5Q123 148 94.5 181Q66 214 52 256Q38 298 38 342Q38 389 53.5 431.5Q69 474 100.5 506.5Q132 539 178 558Q224 577 286 577Q347 577 396 557.5Q445 538 479.5 496Q514 454 532.5 388.5Q551 323 551 231Q551 51 478 -42.5Q405 -136 278 -136Q227 -136 188.5 -122.5Q150 -109 122.5 -86Q95 -63 77.5 -32.5Q60 -2 53 32L187 52Q190 41 196 27.5Q202 14 212.5 2.5Q223 -9 238.5 -17Q254 -25 278 -25ZM289 218Q342 218 371 253.5Q400 289 400 340Q400 400 371 433Q342 466 291 466Q242 466 211 433Q180 400 180 341Q180 315 188 293Q196 271 210 254Q224 237 244.5 227.5Q265 218 289 218Z" glyph-name="nine.OP" horiz-adv-x="596" unicode="&#58708;" /><glyph d="M278 -25Q313 -25 339 -7Q365 11 383 41Q401 71 411 109.5Q421 148 424 189Q415 173 401.5 158.5Q388 144 368.5 132.5Q349 121 324 114Q299 107 267 107Q209 107 166 127.5Q123 148 94.5 181Q66 214 52 256Q38 298 38 342Q38 389 53.5 431.5Q69 474 100.5 506.5Q132 539 178 558Q224 577 286 577Q347 577 396 557.5Q445 538 479.5 496Q514 454 532.5 388.5Q551 323 551 231Q551 51 478 -42.5Q405 -136 278 -136Q227 -136 188.5 -122.5Q150 -109 122.5 -86Q95 -63 77.5 -32.5Q60 -2 53 32L187 52Q190 41 196 27.5Q202 14 212.5 2.5Q223 -9 238.5 -17Q254 -25 278 -25ZM289 218Q342 218 371 253.5Q400 289 400 340Q400 400 371 433Q342 466 291 466Q242 466 211 433Q180 400 180 341Q180 315 188 293Q196 271 210 254Q224 237 244.5 227.5Q265 218 289 218Z" glyph-name="nine.OT" horiz-adv-x="600" unicode="&#58719;" /><glyph d="M180 -129Q212 -129 229 -102Q246 -75 246 -29Q232 -51 210.5 -61Q189 -71 160 -71Q128 -71 104 -60Q80 -49 64 -31.5Q48 -14 40 8.5Q32 31 32 54Q32 79 41.5 103Q51 127 70 145.5Q89 164 117 175Q145 186 181 186Q251 186 295 140Q339 94 339 -8Q339 -106 297 -158Q255 -210 178 -210Q120 -210 86.5 -181Q53 -152 42 -109L135 -99Q143 -129 180 -129ZM178 6Q202 6 216.5 20Q231 34 231 57Q231 77 217 90.5Q203 104 180 104Q161 104 144 93Q127 82 127 56Q127 36 139.5 21Q152 6 178 6Z" glyph-name="nine.inf" horiz-adv-x="378" unicode="&#58746;" /><glyph d="M181 -14 619 714H736L298 -14ZM180 395Q212 395 229 422Q246 449 246 495Q232 473 210.5 463Q189 453 160 453Q128 453 104 464Q80 475 64 492.5Q48 510 40 532.5Q32 555 32 578Q32 603 41.5 627Q51 651 70 669.5Q89 688 117 699Q145 710 181 710Q251 710 295 664Q339 618 339 516Q339 418 297 366Q255 314 178 314Q120 314 86.5 343Q53 372 42 415L135 425Q143 395 180 395ZM178 530Q202 530 216.5 544Q231 558 231 581Q231 601 217 614.5Q203 628 180 628Q161 628 144 617Q127 606 127 580Q127 560 139.5 545Q152 530 178 530ZM1032 305Q1000 305 983 278Q966 251 966 205Q980 227 1001.5 237Q1023 247 1052 247Q1084 247 1108 236Q1132 225 1148 207.5Q1164 190 1172 167.5Q1180 145 1180 122Q1180 96 1170.5 72.5Q1161 49 1142 30.5Q1123 12 1095 1Q1067 -10 1031 -10Q961 -10 917 36Q873 82 873 184Q873 282 915 334Q957 386 1034 386Q1092 386 1125.5 357Q1159 328 1170 285L1077 275Q1069 305 1032 305ZM794 376V0H690V270Q677 260 656 252.5Q635 245 610 243L589 324Q624 328 655 341.5Q686 355 703 376ZM1034 170Q1010 170 995.5 156Q981 142 981 119Q981 99 995 85.5Q1009 72 1032 72Q1051 72 1068 83Q1085 94 1085 120Q1085 140 1072.5 155Q1060 170 1034 170Z" glyph-name="ninesixteenths" horiz-adv-x="1212" unicode="&#61977;" /><glyph glyph-name="nonmarkingreturn" horiz-adv-x="215" /><glyph d="M50 476H336L430 628L515 577L452 476H550V362H382L331 280H550V166H261L171 20L85 71L144 166H50V280H214L265 362H50Z" glyph-name="notequal" horiz-adv-x="600" unicode="&#8800;" /><glyph d="M50 515H361L455 667L540 616L477 515H600V401H407L356 319H600V205H286L196 59L110 110L169 205H50V319H239L290 401H50Z" glyph-name="notequal.cap" horiz-adv-x="650" unicode="&#61989;" /><glyph d="M225 690Q253 690 273.5 681Q294 672 310.5 661.5Q327 651 341.5 642.5Q356 634 372 634Q387 634 398 642Q409 650 416 660Q424 671 429 687L498 628Q486 603 468 585Q452 569 427.5 556Q403 543 368 543Q340 543 320.5 551.5Q301 560 285 570.5Q269 581 254.5 589.5Q240 598 223 598Q206 598 195 590Q184 582 177 572Q169 561 164 547L95 607Q107 630 125 648Q141 664 165.5 677Q190 690 225 690ZM64 476H203V403Q221 438 257 464Q293 490 352 490Q387 490 417.5 480Q448 470 471 449.5Q494 429 507 398.5Q520 368 520 328V0H376V285Q376 334 354 353Q332 372 301 372Q283 372 266.5 364.5Q250 357 237 341.5Q224 326 216 302Q208 278 208 245V0H64Z" glyph-name="ntilde" horiz-adv-x="580" unicode="&#241;" /><glyph d="M246 767Q274 767 294.5 758Q315 749 331.5 738.5Q348 728 362.5 719.5Q377 711 393 711Q408 711 419 719Q430 727 437 737Q445 748 450 764L519 705Q507 680 489 662Q473 646 448.5 633Q424 620 389 620Q361 620 341.5 628.5Q322 637 306 647.5Q290 658 275.5 666.5Q261 675 244 675Q227 675 216 667Q205 659 198 649Q190 638 185 624L116 684Q128 707 146 725Q162 741 186.5 754Q211 767 246 767ZM72 564H212Q258 491 299 425Q317 397 335 367.5Q353 338 370 310Q387 282 401.5 258Q416 234 426 216H428V564H558V0H418Q373 71 332 137Q314 165 296 194.5Q278 224 260.5 251.5Q243 279 228.5 303.5Q214 328 204 346H202V0H72Z" glyph-name="ntilde.smcp" horiz-adv-x="630" unicode="&#57977;" /><glyph d="M356 181H234L202 0H95L127 181H30V290H146L169 418H69V516H186L219 700H326L293 516H415L448 700H555L522 516H625V418H505L482 290H588V181H463L431 0H324ZM253 290H375L398 418H276Z" glyph-name="numbersign" horiz-adv-x="655" unicode="#" /><glyph d="M282 490Q338 490 384 472.5Q430 455 462.5 422.5Q495 390 513 343Q531 296 531 238Q531 179 513 132.5Q495 86 462.5 53.5Q430 21 384 3.5Q338 -14 282 -14Q226 -14 180.5 3.5Q135 21 102.5 53.5Q70 86 52 132.5Q34 179 34 238Q34 296 52 343Q70 390 102.5 422.5Q135 455 180.5 472.5Q226 490 282 490ZM282 94Q309 94 328.5 105Q348 116 360.5 135.5Q373 155 379 181.5Q385 208 385 238Q385 268 379 294.5Q373 321 360.5 340.5Q348 360 328.5 371Q309 382 282 382Q255 382 236 371Q217 360 204.5 340.5Q192 321 186 294.5Q180 268 180 238Q180 208 186 181.5Q192 155 204.5 135.5Q217 116 236 105Q255 94 282 94Z" glyph-name="o" horiz-adv-x="565" unicode="o" /><glyph d="M47 282Q47 351 67.5 406Q88 461 125 499Q162 537 214.5 557Q267 577 331 577Q395 577 447.5 557Q500 537 537 499Q574 461 594.5 406Q615 351 615 282Q615 213 594.5 158Q574 103 537 64.5Q500 26 447.5 6Q395 -14 331 -14Q267 -14 214.5 6Q162 26 125 64.5Q88 103 67.5 158Q47 213 47 282ZM196 282Q196 201 229 153Q262 105 331 105Q400 105 433 153Q466 201 466 282Q466 363 433 410.5Q400 458 331 458Q262 458 229 410.5Q196 363 196 282Z" glyph-name="o.smcp" horiz-adv-x="662" unicode="&#57871;" /><glyph d="M198 600Q234 600 263.5 589Q293 578 314.5 557.5Q336 537 348 507Q360 477 360 439Q360 401 348 371.5Q336 342 314.5 321.5Q293 301 263.5 290Q234 279 198 279Q162 279 132.5 290Q103 301 82 321.5Q61 342 49 371.5Q37 401 37 439Q37 515 81.5 557.5Q126 600 198 600ZM198 353Q230 353 244 378Q258 403 258 439Q258 476 244 501Q230 526 198 526Q166 526 152 501Q138 476 138 439Q138 403 152 378Q166 353 198 353Z" glyph-name="o.superior" horiz-adv-x="397" unicode="&#58222;" /><glyph d="M420 643 192 532 148 609 361 747ZM282 490Q338 490 384 472.5Q430 455 462.5 422.5Q495 390 513 343Q531 296 531 238Q531 179 513 132.5Q495 86 462.5 53.5Q430 21 384 3.5Q338 -14 282 -14Q226 -14 180.5 3.5Q135 21 102.5 53.5Q70 86 52 132.5Q34 179 34 238Q34 296 52 343Q70 390 102.5 422.5Q135 455 180.5 472.5Q226 490 282 490ZM282 94Q309 94 328.5 105Q348 116 360.5 135.5Q373 155 379 181.5Q385 208 385 238Q385 268 379 294.5Q373 321 360.5 340.5Q348 360 328.5 371Q309 382 282 382Q255 382 236 371Q217 360 204.5 340.5Q192 321 186 294.5Q180 268 180 238Q180 208 186 181.5Q192 155 204.5 135.5Q217 116 236 105Q255 94 282 94Z" glyph-name="oacute" horiz-adv-x="565" unicode="&#243;" /><glyph d="M466 721 238 610 194 687 407 825ZM47 282Q47 351 67.5 406Q88 461 125 499Q162 537 214.5 557Q267 577 331 577Q395 577 447.5 557Q500 537 537 499Q574 461 594.5 406Q615 351 615 282Q615 213 594.5 158Q574 103 537 64.5Q500 26 447.5 6Q395 -14 331 -14Q267 -14 214.5 6Q162 26 125 64.5Q88 103 67.5 158Q47 213 47 282ZM196 282Q196 201 229 153Q262 105 331 105Q400 105 433 153Q466 201 466 282Q466 363 433 410.5Q400 458 331 458Q262 458 229 410.5Q196 363 196 282Z" glyph-name="oacute.smcp" horiz-adv-x="662" unicode="&#57985;" /><glyph d="M213 704Q217 677 236 658Q255 639 284 639Q313 639 332 658Q351 677 355 704L457 676Q444 619 398 584Q352 549 284 549Q216 549 170 584Q124 619 111 676ZM282 490Q338 490 384 472.5Q430 455 462.5 422.5Q495 390 513 343Q531 296 531 238Q531 179 513 132.5Q495 86 462.5 53.5Q430 21 384 3.5Q338 -14 282 -14Q226 -14 180.5 3.5Q135 21 102.5 53.5Q70 86 52 132.5Q34 179 34 238Q34 296 52 343Q70 390 102.5 422.5Q135 455 180.5 472.5Q226 490 282 490ZM282 94Q309 94 328.5 105Q348 116 360.5 135.5Q373 155 379 181.5Q385 208 385 238Q385 268 379 294.5Q373 321 360.5 340.5Q348 360 328.5 371Q309 382 282 382Q255 382 236 371Q217 360 204.5 340.5Q192 321 186 294.5Q180 268 180 238Q180 208 186 181.5Q192 155 204.5 135.5Q217 116 236 105Q255 94 282 94Z" glyph-name="obreve" horiz-adv-x="565" unicode="&#335;" /><glyph d="M260 771Q264 744 283 725Q302 706 331 706Q360 706 379 725Q398 744 402 771L504 743Q491 686 445 651Q399 616 331 616Q263 616 217 651Q171 686 158 743ZM47 282Q47 351 67.5 406Q88 461 125 499Q162 537 214.5 557Q267 577 331 577Q395 577 447.5 557Q500 537 537 499Q574 461 594.5 406Q615 351 615 282Q615 213 594.5 158Q574 103 537 64.5Q500 26 447.5 6Q395 -14 331 -14Q267 -14 214.5 6Q162 26 125 64.5Q88 103 67.5 158Q47 213 47 282ZM196 282Q196 201 229 153Q262 105 331 105Q400 105 433 153Q466 201 466 282Q466 363 433 410.5Q400 458 331 458Q262 458 229 410.5Q196 363 196 282Z" glyph-name="obreve.smcp" horiz-adv-x="662" unicode="&#57992;" /><glyph d="M237 718H330L449 591L380 528L282 632L186 528L119 591ZM282 490Q338 490 384 472.5Q430 455 462.5 422.5Q495 390 513 343Q531 296 531 238Q531 179 513 132.5Q495 86 462.5 53.5Q430 21 384 3.5Q338 -14 282 -14Q226 -14 180.5 3.5Q135 21 102.5 53.5Q70 86 52 132.5Q34 179 34 238Q34 296 52 343Q70 390 102.5 422.5Q135 455 180.5 472.5Q226 490 282 490ZM282 94Q309 94 328.5 105Q348 116 360.5 135.5Q373 155 379 181.5Q385 208 385 238Q385 268 379 294.5Q373 321 360.5 340.5Q348 360 328.5 371Q309 382 282 382Q255 382 236 371Q217 360 204.5 340.5Q192 321 186 294.5Q180 268 180 238Q180 208 186 181.5Q192 155 204.5 135.5Q217 116 236 105Q255 94 282 94Z" glyph-name="ocircumflex" horiz-adv-x="565" unicode="&#244;" /></font>
</defs>
</svg>
